#TITLE:Sense 2007;
#SUBTITLE:;
#ARTIST:good-cool;
#TITLETRANSLIT:;
#SUBTITLETRANSLIT:;
#ARTISTTRANSLIT:;
#CREDIT:;
#BANNER:Sense 2007bn.JPG;
#BACKGROUND:Sense 2007bg.jpg;
#LYRICSPATH:;
#CDTITLE:;
#MUSIC:Sense 2007.mp3;
#OFFSET:-1.220;
#SAMPLESTART:33.700;
#SAMPLELENGTH:13.960;
#SELECTABLE:YES;
#BPMS:0.000=140.000;
#STOPS:;
#BGCHANGES:;
// cache tags:
#FIRSTBEAT:0.000;
#LASTBEAT:272.000;
#SONGFILENAME:Songs/juju step2/1479sense_2007/Sense 2007.sm;
#HASMUSIC:1;
#HASBANNER:1;
#MUSICLENGTH:121.634;
// end cache tags

//---------------dance-single - ----------------
#NOTES:
     dance-single:
     :
     Challenge:
     13:
     0.988,1.000,1.000,0.041,0.896,655.000,181.000,5.000,0.000,0.000:
1001
0100
0010
0001
1001
0100
0010
0001
,
1000
0000
0000
0100
0000
0000
0010
0000
0000
0001
0000
0000
1000
0000
0000
0100
0000
0000
0010
0000
0000
0001
0000
0000
1100
0000
0000
0011
0000
0000
1100
0000
0000
0011
0000
0000
1000
0000
0100
0000
0010
0000
1000
0000
0100
0000
0010
0000
,
1001
0000
0000
0000
,
1001
0000
0010
0000
0000
0010
1000
0000
0000
1000
0100
0000
0010
0000
0001
0000
,
0000
0001
0100
0001
0000
0001
0100
0000
0000
0100
0001
0000
0010
0000
0100
0000
,
0000
0000
0100
0000
0000
0100
1000
0000
0000
1000
0100
0000
0010
0000
0001
0000
,
1000
0001
1010
0001
1010
0001
1000
0001
1000
0001
0011
0000
0110
0000
1100
0100
,
1001
0000
0100
0000
0000
0100
0001
0000
0000
0001
1000
0000
0100
0000
0010
0000
,
0000
1000
0100
1000
0000
1000
0100
1000
0000
1000
0001
0000
0010
0000
0100
0000
,
0000
0000
0100
0000
0000
0100
0001
0000
0000
0001
1000
0000
0100
0000
0010
0000
,
1000
0101
1010
0101
1000
0101
1010
0101
1000
0101
1010
0100
1010
0101
1010
0101
,
1001
0000
0100
1000
0010
0100
0001
0010
,
0000
0000
1000
1000
0100
0000
1000
0000
0010
0000
0100
0000
0001
0000
0010
0000
,
1000
0000
1000
0000
0100
0000
0100
0000
0010
0000
0001
0010
0000
0000
0000
0000
,
0001
0000
0001
0000
0010
0001
0000
0000
0010
0000
0100
0011
1000
0000
1001
0000
,
1001
0000
0100
1000
0010
0100
0001
0010
,
0000
1000
0100
1000
0100
0000
1000
0000
0010
0000
0100
0000
0001
0000
0010
0000
,
1000
0100
0001
0100
1000
0010
0001
0010
1000
0001
0100
0001
1000
0010
0100
0010
,
2002
0000
0000
0000
0000
0000
0000
0000
3003
0000
0000
0000
0000
0000
0110
0110
,
1001
0000
0000
0001
1000
0000
0010
0000
1000
0100
0000
0000
1010
0000
0001
0000
,
1001
0000
0000
0001
1000
0000
0010
0000
1000
0100
0000
0000
1100
0000
0000
0000
,
1001
0000
0000
0001
1000
0000
0010
0000
1000
0100
0000
0000
1010
0000
0001
0000
,
1100
0010
0001
0010
1100
0010
0001
0010
0100
0010
0100
0010
1100
0011
1100
0011
,
1001
0000
0000
0001
1000
0000
0010
0000
1000
0100
0000
0000
1010
0000
0001
0000
,
1001
0000
0000
0001
1000
0000
0010
0000
1000
0100
0000
0000
1100
0000
0000
0000
,
1001
0000
1000
0001
1000
0000
1010
0000
1000
0100
1000
0000
1010
0000
1001
0000
,
1000
0100
0010
0001
0100
0010
1000
0100
0001
0010
1000
0010
0001
0100
1000
0100
,
0001
0000
0100
0000
0011
0000
0100
0000
0010
0000
0100
0010
1001
0100
0010
0000
,
0100
0000
1000
0100
0011
1000
0100
0000
0100
1001
0010
0000
1001
0000
0100
0000
,
0000
0000
1000
0000
0101
0000
1000
0000
0001
0000
0010
0001
1100
0010
0001
0000
,
1010
0000
1100
0010
1000
0100
1010
0000
1001
0100
1010
0100
1001
0010
0101
0010
,
1001
0000
0100
0000
0011
0000
0100
0000
0010
0000
0100
0010
1001
0100
0010
0000
,
0100
0000
1000
0100
0011
1000
0100
0000
0100
1001
0010
0000
1001
0000
0100
0000
,
1100
0001
1100
0010
1100
0001
1100
0010
0101
1000
0101
0010
0101
1000
0101
0010
,
1000
0011
1100
0011
1100
1010
0101
1010
0101
1001
0110
1001
0110
1000
0100
0010
,
1001
1000
1000
0000
0000
0000
0000
0000
,
0100
0100
0100
0000
0000
0000
0000
0000
,
0001
0001
0001
0000
0000
0000
0000
0000
,
0010
0010
0020
0000
0000
0000
0000
0030
,
1001
1000
0011
0000
0000
1000
0011
0000
,
0100
0100
1010
0000
0000
0100
1010
0000
,
0001
0000
0001
0000
0110
0000
0000
0000
0000
0000
0001
0000
0110
0000
0010
0010
,
1001
0100
0010
0001
1000
0010
0100
0001
1010
0101
1010
0101
1000
0100
0010
0001
,
1001
0000
0010
0000
1100
0010
0000
0000
0110
0000
0000
0001
0010
0000
0001
0000
,
1000
0000
0100
0000
1000
0100
0000
0000
1100
0000
0000
0100
1000
0000
0100
0000
,
0001
0000
0010
0000
0001
0010
0000
0000
0110
0000
0000
0010
1000
0000
0010
0000
,
1001
0000
1010
0000
1100
0000
1001
0010
1000
0000
1010
0000
1100
0000
1010
0000
,
1001
0000
0010
0000
0101
0010
0000
0000
1010
0000
0000
0010
0100
0000
0010
0000
,
0001
0000
0010
0000
0001
0010
0000
0000
0011
0000
0000
0010
0001
0000
0010
0000
,
1000
0000
0100
0000
0010
0100
0000
0000
0110
0000
0000
0001
0100
0000
0001
0000
,
1010
0100
0011
0100
1001
0100
0011
0100
1010
0100
0011
0100
1001
0110
1001
0110
,
1001
0000
0100
0000
1000
0100
1000
0000
0100
0000
1000
0100
0011
1000
0010
0000
,
0001
0000
0100
0000
0001
0100
0001
0000
0100
0000
0001
0100
1010
0001
0010
0000
,
0100
0000
0010
0000
0100
0010
0100
0000
0010
0000
0100
0010
1001
0100
0010
0000
,
0011
0010
0101
0100
1001
1000
0101
0100
1010
1000
0101
0100
1010
0010
0101
0001
,
1100
0000
0010
0000
1000
0010
1000
0000
0010
0000
1000
0010
1100
0010
1000
0000
,
0001
0000
0010
0000
0001
0010
0001
0000
0010
0000
0001
0010
1100
0010
0001
0000
,
1100
0000
1010
0000
1100
0010
1100
0000
1010
0000
1100
0010
1001
0100
1010
0000
,
1100
0100
1010
0010
1001
0001
1010
0010
1100
1000
0110
0100
0011
0010
0101
0100
,
1001
0100
0000
1000
0010
0000
0100
0010
0000
0100
0001
0000
0010
0000
0010
0000
,
0001
0010
0000
0001
0100
0000
0010
0100
0000
0010
1000
0000
0100
0000
0010
0000
,
0100
1000
0000
0010
0100
0000
0001
0010
0000
1000
0100
0000
0010
0000
0010
0000
,
1001
0010
0000
0010
1100
0000
0100
1000
1001
0100
1000
0000
0110
0000
1000
0000
,
1001
0010
0000
0100
0001
0000
1000
0100
0000
0010
0001
0000
0010
0000
0010
0000
,
0001
0100
0000
0010
1000
0000
0001
0010
0000
0100
1000
0000
0010
0000
0100
0000
,
1100
0100
1000
0010
1010
0000
1100
0100
1000
0010
1010
0000
1001
0000
1001
0000
,
0001
0010
0001
0010
0100
0010
0100
1000
0100
1010
0101
1010
0101
0010
0100
0010
,
2002
0000
0000
0000
,
3003
0000
0000
0000
;

//---------------dance-single - ----------------
#NOTES:
     dance-single:
     :
     Hard:
     9:
     0.666,0.671,0.173,0.058,0.493,539.000,21.000,7.000,0.000,0.000:
1000
0100
0010
0001
1000
0100
0010
0001
,
1000
0100
0010
0001
1000
0100
0010
0001
1000
0100
0010
0001
1000
0000
0000
0000
,
1001
0000
0000
0000
,
1001
0100
1000
0100
0010
0001
0100
0000
,
0001
0100
0001
0100
0010
1000
0100
0000
,
0001
0100
1000
0100
0010
0001
0010
0000
,
1000
0000
0100
0000
0010
0000
0001
0000
1000
0100
1000
0100
1000
0000
0100
0000
,
1001
0010
0001
0010
0100
1000
0010
0000
,
1000
0010
1000
0010
0100
0001
0010
0000
,
1000
0010
0001
0010
0100
1000
0100
0000
,
1000
0100
1000
0100
1000
0100
1000
0100
0000
0001
0100
0001
0100
0001
0100
0000
,
1001
0000
0010
1000
0001
0100
0010
0000
,
0000
0000
0100
1000
0010
0000
1000
0000
0001
0000
0100
0000
0010
0000
0000
0000
,
0100
0000
0100
0000
0001
0000
0001
0000
0100
0000
1000
0100
0000
0000
0000
0000
,
0010
0000
0010
0000
0001
0010
0000
0000
0010
0000
0100
0010
0000
0000
0110
0000
,
1001
0000
0001
1000
0010
1000
0100
0000
,
0000
1000
0001
1000
0001
0000
1000
0000
0010
0000
1000
0000
0100
0000
0000
0000
,
1000
0100
1000
0000
0001
0100
0001
0000
1000
0100
1000
0000
0001
0100
0001
0000
,
2002
0000
0000
0000
0000
0000
0000
0000
3003
0000
0000
0000
0000
0000
1000
0001
,
0100
0000
0000
0100
0000
0000
0010
0000
0000
0100
0000
0000
0010
0000
0001
0000
,
0100
0000
0000
0100
0000
0000
0010
0000
0000
1000
0000
0000
1000
0000
0000
0000
,
0100
0000
0000
0100
0000
0000
0010
0000
0000
0100
0000
0000
0010
0000
0001
0000
,
1000
0000
0100
0000
0010
0000
0001
0000
0100
0000
0000
0000
0100
0010
0100
0010
,
0100
0000
0000
0100
0000
0000
0010
0000
0000
0100
0000
0000
0010
0000
0001
0000
,
0100
0000
0000
0100
0000
0000
0010
0000
0000
1000
0000
0000
1000
0000
0000
0000
,
0001
0001
0010
0010
0100
0100
1000
1000
,
0001
0010
0001
0010
0001
0010
0001
0010
0001
0000
0101
0000
1010
0000
0000
0000
,
1001
0000
0100
0000
0000
0000
0100
0000
0001
0000
0010
0001
0000
0001
0010
0000
,
0100
0000
1000
0100
0000
0100
1000
0000
1000
0000
0001
0000
0010
0000
0100
0000
,
0000
0000
1000
0000
0000
0000
1000
0000
0001
0000
0010
0001
0000
0001
0010
0000
,
1001
0000
1000
0100
0000
0100
0010
0000
0001
1000
0001
1000
0001
0000
0010
0000
,
1001
0000
0100
0000
0000
0000
0100
0000
0010
0000
0100
0010
0000
0010
0100
0000
,
1000
0000
0001
1000
0000
1000
0001
0000
0001
1000
0010
0000
0100
0000
1000
0000
,
0001
0001
0100
0100
0010
0010
1000
1000
,
0001
0100
0001
0000
1000
0010
1000
0000
0001
0010
0001
0000
1000
0100
1000
0000
,
1001
0100
0010
0000
0000
0000
0000
0000
,
0010
1000
0001
0000
0000
0000
0000
0000
,
0100
1000
0010
0000
0000
0000
0000
0000
,
0001
0100
2000
0000
0000
0000
0000
3000
,
1001
0000
1000
0000
0010
0000
0000
0000
0000
0010
1000
0000
0010
0000
0000
0000
,
0100
0000
0100
0000
0010
0000
0000
0000
0000
0010
0100
0000
0010
0000
0000
0000
,
0001
0000
0001
0000
0010
0000
0000
0000
0000
0010
0001
0000
0010
0000
0010
0000
,
2002
0000
0000
0000
0000
0000
3003
0000
1000
0001
1000
0000
0001
1000
0001
0000
,
1001
0100
1000
0001
1000
0100
1000
0010
,
0001
0100
0001
0010
0001
0100
0010
1000
,
0100
0001
0100
0010
0100
0001
0100
0010
,
0001
0000
0010
0000
0100
0000
0100
1000
0000
0000
0001
0000
0010
0000
0100
0000
,
1001
0010
1000
0100
1000
0010
1000
0100
,
0010
1000
0010
0100
0010
1000
0010
0100
,
0001
1000
0001
0100
0001
1000
0001
0100
,
1000
0100
1000
0000
0100
0010
0100
0000
0010
0100
0010
0000
0001
0010
0001
0000
,
1001
0000
0100
0000
1000
0010
1000
0000
0001
0000
0100
0001
0000
0001
1000
0000
,
0001
0000
0100
0000
0001
0010
0001
0000
1000
0000
0100
1000
0000
1000
0010
0000
,
1000
0000
0100
0000
1000
0010
1000
0000
0001
0000
0100
0001
0000
0001
1000
0000
,
0001
0001
0010
0010
0100
0100
1000
1000
,
1001
0000
0010
0000
0100
0010
0100
0000
0001
0000
0100
0010
0000
0010
0001
0000
,
1000
0000
0100
0000
0010
0100
0010
0000
0100
0000
0010
0100
0000
0100
1000
0000
,
0001
0001
0010
0010
0100
0100
1000
1000
,
1000
0010
0100
0000
0100
0001
0010
0000
0010
0001
0100
0000
0100
0010
1000
0000
,
1000
0100
0000
0100
0010
0000
0010
0001
0000
0001
0100
0000
0010
0000
0010
0000
,
0001
0010
0000
0010
0100
0000
0100
1000
0000
1000
0010
0000
0100
0000
0001
0000
,
1000
0100
0000
0100
0010
0000
0010
0001
0000
0001
0100
0000
0010
0000
0010
0000
,
0100
0001
0000
1000
0010
0000
0010
0100
0000
0000
0000
0000
0110
0000
0000
0000
,
0100
1000
0000
0010
0100
0000
0001
0010
0000
0010
0001
0000
0100
0000
0100
0000
,
0010
0001
0000
0100
0010
0000
1000
0100
0000
0100
1000
0000
0010
0000
0100
0000
,
1000
1000
0100
0100
0010
0010
0001
0001
,
0010
0001
0010
0001
0100
0010
0100
0010
1000
0100
1000
0100
1000
0100
1000
0000
,
2002
0000
0000
0000
,
3003
0000
0000
0000
;

//---------------dance-single - ----------------
#NOTES:
     dance-single:
     :
     Medium:
     7:
     0.494,0.615,0.321,0.271,0.021,349.000,39.000,33.000,0.000,0.000:
1001
0000
0100
0010
1001
0000
0100
0010
,
1001
1001
1001
1001
1000
0100
0010
0001
,
1001
0000
0000
0000
,
1001
0000
1000
0000
0100
1000
0010
0000
,
0001
0000
0001
0000
0010
0001
0100
0000
,
1000
0000
1000
0000
0100
1000
0010
0000
,
0001
1000
0001
1000
0001
0001
0100
0000
,
0110
0000
0100
0000
0001
0100
1000
0000
,
0010
0000
0010
0000
1000
0100
0001
0000
,
0100
0000
0100
0000
0001
0100
1000
0000
,
0001
0001
1000
1000
0010
1000
0001
0100
,
1001
0100
0002
0103
,
0000
1000
0100
0000
0002
0000
0103
0000
,
1000
0100
0010
0001
0100
0010
1000
0000
,
0001
0010
0001
0010
0001
1000
1100
0000
,
1001
0010
2000
3010
,
0000
0010
0001
0000
0010
0000
0000
0000
2000
0000
0000
0000
3010
0000
0000
0000
,
1000
1000
0100
0100
0010
0010
0001
0001
,
2002
0000
0000
0000
3003
0000
0000
0100
,
0100
0001
1000
1100
,
0010
1000
0001
0101
,
1000
0100
0010
1001
,
0010
1000
0010
1000
0010
0000
0100
0100
,
0100
1000
0001
0011
,
0100
0001
1000
1010
,
1000
1000
0100
0100
0010
0010
0001
0001
,
0010
0010
0100
0100
1000
0001
0100
0000
,
1001
0100
0000
0100
0000
0001
1000
0010
,
0000
0010
1000
0001
0000
0101
0000
1100
,
0000
1000
0100
0001
0000
0001
0100
1000
,
1001
0100
1000
0100
1000
0100
0010
0001
,
1001
0100
0000
0100
0000
0010
0001
0100
,
0000
0100
0001
0010
0000
0011
0000
1010
,
1000
1000
0100
0100
0010
0010
0001
0001
,
1000
0100
0010
0001
0010
0100
1000
0000
,
2001
3001
0000
0000
,
0200
1300
0000
0000
,
0020
0130
0000
0000
,
0002
0000
0010
0000
0000
0000
0000
0003
,
1001
0000
0100
0000
0000
1000
0100
0000
,
0001
0000
0100
0000
0000
0001
0100
0000
,
1000
0000
0100
0000
0000
1000
0100
0000
,
2002
0000
0000
3003
1000
0001
0100
0000
,
0110
0001
2000
3010
,
0000
0001
0100
0000
0000
0100
1000
0000
0000
0000
1000
0000
0100
0000
0000
0000
,
1000
0010
0002
0103
,
0010
0100
0010
0100
0010
0100
0010
0001
,
1001
0100
0020
1030
,
0000
1000
0100
0000
0000
0100
0001
0000
0000
0000
0001
0000
0100
0000
0000
0000
,
1000
0010
0200
0301
,
1000
1000
0100
0100
0010
0010
0001
0001
,
1000
0100
1000
1010
,
0001
0100
0001
0011
,
0100
0010
0100
0110
,
0001
0010
0100
1000
1000
0100
0010
0001
,
1000
0010
1000
1010
,
0001
0010
0001
0011
,
1000
1000
0100
0100
0010
0010
0001
0001
,
1000
0100
0010
0001
0001
0010
0100
1000
,
2000
3200
0320
0031
,
0002
0023
0230
1300
,
2000
3200
0320
0031
,
0101
0000
1010
0000
1000
0100
1001
0100
,
2000
3020
0230
0301
,
0002
0203
0320
1030
,
1000
1000
0100
0100
0010
0010
0001
0001
,
1000
0010
0100
0001
1000
0001
0100
0010
,
2002
0000
0000
0000
,
3003
0000
0000
0000
;

//---------------dance-single - ----------------
#NOTES:
     dance-single:
     :
     Easy:
     5:
     0.372,0.419,0.329,0.140,0.000,260.000,40.000,17.000,0.000,0.000:
1001
0000
1001
0000
,
1000
0001
1000
0001
1000
0001
1000
0000
,
1001
0000
0000
0000
,
1000
0000
0100
0000
0000
0010
0001
0000
,
0100
0000
1000
0000
0000
0001
0010
0000
,
1000
0000
0100
0000
0000
0010
0001
0000
,
1000
0000
0100
0000
0010
0010
0010
0000
,
1001
0000
0010
0000
0000
0100
1000
0000
,
0010
0000
0001
0000
0000
1000
0100
0000
,
0001
0000
0010
0000
0000
0100
1000
0000
,
1000
0100
0010
0001
,
1001
0100
0000
0100
,
0001
1000
0000
1000
,
0001
0010
0100
0010
,
0101
0011
1010
1100
,
1001
0100
0000
0100
,
0001
1000
0000
1000
,
0001
0010
0100
1000
,
2002
0000
3003
0000
,
1001
0100
0010
0001
,
0100
0010
1000
0100
,
0001
0010
0100
1000
,
0100
0100
0100
0000
,
1001
0010
0100
1000
,
0010
0100
0001
0010
,
1000
1000
1000
1000
,
1000
0000
0000
0000
0000
0010
0100
0000
,
1000
0101
0010
0101
,
1000
0101
0100
0101
,
0001
1100
0010
1100
,
0001
0000
1100
0000
0001
0001
0001
0000
,
0100
1001
0010
1001
,
0100
1001
0001
1001
,
1000
1000
1000
1000
0100
0100
0100
0100
,
0010
0010
0010
0010
0001
0001
0001
0001
,
1000
1000
0000
0000
,
0100
0100
0000
0000
,
0001
0001
0000
0000
,
0020
0000
0000
0000
0000
0000
0000
0030
,
1001
0100
0000
0100
,
0001
1000
0000
1000
,
0100
0010
0000
0010
,
2002
0000
0000
3003
,
1001
0100
0000
0101
,
0010
1000
0100
0010
,
0001
1000
0000
1100
,
0001
0001
0010
0010
,
0100
1000
0000
1001
,
0100
0001
0100
1000
,
0001
0010
0000
0110
,
1100
0101
0011
1010
,
1000
0100
1000
0100
,
0010
0001
0010
0001
,
1000
0001
0010
0100
,
1000
1000
1000
1000
1000
1000
1000
1000
,
0001
0100
0001
0100
,
0010
1000
0010
1000
,
0001
1000
0100
0010
,
0001
0001
0001
0001
0001
0001
0001
0001
,
2000
3100
0002
0013
,
0200
1300
0020
0031
,
2000
3100
0002
0013
,
0011
0110
1100
1001
,
2000
3001
0002
0103
,
0200
0310
0020
1030
,
1000
0100
0010
0001
,
0001
1000
0001
1000
0001
1000
0001
0000
,
2002
0000
0000
0000
,
3003
0000
0000
0000
;
