#TITLE:bond;
#SUBTITLE:- classified - explosive;
#ARTIST:Unknown artist;
#TITLETRANSLIT:;
#SUBTITLETRANSLIT:;
#ARTISTTRANSLIT:;
#CREDIT:;
#BANNER:;
#BACKGROUND:bondexplosive-bg.PNG;
#LYRICSPATH:;
#CDTITLE:;
#MUSIC:bondexplosive.mp3;
#OFFSET:-1.200;
#SAMPLESTART:100.000;
#SAMPLELENGTH:12.000;
#SELECTABLE:YES;
#BPMS:0.000=120.000,33.000=235.000,116.000=230.000,341.000=120.000,387.000=180.000,392.000=235.000,478.000=230.000,496.000=227.500;
#STOPS:;
#BGCHANGES:;
// cache tags:
#FIRSTBEAT:1.000;
#LASTBEAT:644.000;
#SONGFILENAME:Songs/keyboard/bondexplosive/bondexplosive.sm;
#HASMUSIC:1;
#HASBANNER:0;
#MUSICLENGTH:191.668;
// end cache tags

//---------------dance-single - ----------------
#NOTES:
     dance-single:
     :
     Medium:
     1:
     0.000,0.000,0.000,0.000,0.000,0.000,0.000,0.000,0.000,0.000:
0000
0000
0000
0000
;

//---------------dance-single - ----------------
#NOTES:
     dance-single:
     :
     Easy:
     1:
     0.364,0.588,0.339,0.517,0.005,320.000,65.000,99.000,0.000,19.000:
0000
2000
3002
0003
,
2000
3002
0003
2000
,
3200
0302
0000
0000
,
0003
0000
0000
0000
,
0000
0000
1000
0100
0010
0002
0000
0000
0000
0000
0000
0000
2003
0000
0000
0000
,
0000
3200
0000
0302
0000
0000
0003
2000
,
0000
3000
0200
0000
0302
0000
0000
0000
,
0000
0000
0003
0000
,
0000
0000
0000
0000
,
1000
0001
1000
0000
0000
0000
1000
0001
,
1000
0000
0000
0000
,
1000
0001
1000
0000
0000
0000
1000
0001
,
1000
0000
0000
0000
,
0010
0100
0010
0000
0000
0000
0010
0100
,
0010
0000
0000
0000
,
1000
0100
1000
0000
0000
0000
1000
0100
,
1000
0000
0000
0000
1000
0001
1000
0001
,
2000
0000
0000
0000
3000
0000
0000
0002
,
0000
0003
2000
0000
,
3000
0020
0000
0000
0030
0000
2000
0000
,
0000
0000
3000
0002
0000
0000
0000
0003
,
0000
2000
0000
0000
0000
0000
0000
0000
,
0000
0000
0000
3000
,
0000
0000
0000
0000
,
0000
0000
0000
0000
0000
1000
0001
1000
,
0002
0000
0000
0000
0000
0003
0000
2000
,
0000
0000
0000
3000
0000
0002
0000
0000
,
0003
2000
0000
3000
,
0200
0000
0000
0000
0300
0000
2002
3003
,
0000
1000
0000
0001
,
0000
1000
0000
0100
,
0000
0001
0000
0100
,
0000
0010
0000
1000
,
0000
0100
0000
0001
,
0000
1001
0000
0110
,
0000
1000
0000
0001
,
0000
0100
0000
1010
,
0000
0000
2000
0000
0000
3000
0002
0000
,
0000
0003
2000
0000
0000
3000
0000
0000
,
0000
0000
2000
0000
0000
3000
0020
0000
,
0000
0030
2000
0000
0000
3000
0000
0000
,
0000
0000
0220
0000
0000
0330
2002
0000
,
0000
3003
0220
0000
0000
0330
0000
0000
,
0000
1000
0000
0001
,
0000
0100
0000
0010
,
0000
0100
0000
0110
,
0000
1100
0000
0011
,
0000
0110
0000
1100
,
0000
1010
0000
0110
,
0000
1000
0000
0001
,
0000
1000
0000
0100
,
0000
1000
0000
0000
0000
0001
0000
0000
,
0000
0100
0000
0000
0000
1001
0000
0000
,
0000
1100
0000
0011
,
0000
1100
0000
1001
,
0000
1010
0000
0011
,
0000
1000
0000
0010
,
0000
0001
0000
1010
,
0000
1001
0000
0110
,
0000
1100
0000
1001
,
0000
1000
0000
0100
,
0000
0010
0000
0001
,
0000
1000
0000
0100
,
0000
1000
0000
1100
,
0000
1001
0000
0011
,
0000
0111
0000
1000
,
0000
1000
0000
0000
,
0000
1000
0000
0000
0000
0001
0000
0000
,
0000
1001
0000
0000
0000
0110
0000
0000
,
0000
0000
1000
0001
1000
0000
0000
0000
,
1000
1000
1000
0000
0000
0000
0000
0000
,
0000
0000
1000
0001
0001
0000
0000
0000
,
1000
0100
1000
0000
0000
0000
0000
0000
,
0000
0000
2000
0000
0000
3000
0000
0000
,
2002
0000
0000
3003
0000
0000
2200
0000
,
0000
3300
0220
0000
0000
0330
0000
0000
,
2002
0000
0000
3003
0000
0000
2200
0000
,
0000
3300
0000
0022
0000
0000
0000
0000
,
0000
0000
0000
0033
,
0000
0000
0000
0000
,
0000
0000
0000
0000
0000
0000
1000
0001
,
0100
0010
0000
2000
0000
0000
3000
0000
,
0002
0000
0000
0003
0000
0000
2000
0000
,
0000
3000
0000
2220
0000
0000
0000
0000
,
3330
0002
0000
0000
0000
0000
0003
2000
,
0000
3000
0000
0000
1000
0000
0001
0000
,
0000
0100
0000
0010
0000
0100
0000
1000
,
0000
0100
0000
0010
0000
0001
0000
0010
,
0000
0100
0000
0000
0001
0000
1000
0000
,
0001
1000
1001
1100
,
0100
0100
0100
0001
,
1000
0100
0001
0010
,
0100
1000
0100
1100
,
0000
0011
0000
1000
0000
0110
0000
1000
,
0000
0100
0000
0010
0000
0100
0000
0001
,
0000
1000
0000
0001
0000
0000
2000
0000
,
3002
0000
0003
0000
2000
0000
3000
0100
,
0010
0001
0000
0100
1000
0100
0000
0000
,
0000
0000
1000
0000
,
0001
0000
1000
0000
,
0001
0000
0001
0000
,
1000
0000
1100
0000
,
0110
0000
1001
0000
,
0110
0000
1100
0000
,
0011
0000
1010
0000
,
0101
0000
0101
0000
,
0110
0000
1000
0000
,
0010
0000
0001
0000
,
0100
0000
0010
0000
,
1000
0000
0001
0000
,
1100
0000
0100
0000
,
0011
0000
1100
0000
,
1001
0000
0000
0000
0000
1000
0000
0000
,
0000
0001
0000
0000
0000
1000
0000
0000
,
0000
0100
0000
0000
0000
0000
1000
0000
,
0000
0010
0000
0100
,
0000
2000
0000
0200
,
0000
0020
0000
0002
,
0000
0000
0000
0000
,
0000
3333
0000
1000
,
0000
0100
0000
0010
,
0000
0001
0000
0100
,
0000
1000
0000
0100
,
0000
0010
0000
0100
,
0000
2000
0000
0010
,
0000
0100
0000
0001
,
0000
0010
0000
0100
,
0000
0010
0000
3100
,
0000
0002
0000
0100
,
0000
1000
0000
0100
,
0000
0010
0000
0103
,
0000
0022
0000
1000
,
0000
0100
0000
1000
,
0000
1000
0000
0100
,
0000
0100
0000
0033
,
0000
2020
0000
0100
,
0000
0001
0000
0100
,
3030
1000
0000
0000
0000
0010
0000
0000
,
0000
0100
0000
0000
0000
1000
0000
0000
,
0000
1000
0000
0000
0000
0010
0000
0000
,
0000
0100
0000
0000
0000
1000
0000
0000
,
0000
0001
0000
0000
0000
1001
0000
0000
,
0000
0110
0000
0000
0000
2000
0000
0000
,
0000
0002
0000
0000
,
0200
0000
0000
0000
0000
3323
0000
0000
,
0030
0000
2000
0000
0000
0000
0000
3000
,
0002
0000
2000
0000
,
0000
0000
0000
0000
,
0000
0000
3003
0000
,
0000
0000
0000
0000
,
0000
1000
0100
0010
0002
0000
0000
0000
,
0000
0200
0003
0000
0000
0000
0300
0000
,
2000
0000
0200
0000
,
3300
0002
0000
0000
0000
0000
0003
0000
,
2000
3000
0222
0000
,
0000
0000
0333
0000
,
0000
0000
2220
0000
,
0000
0000
3330
0000
,
0000
0000
2202
0000
,
0000
0000
3303
0000
,
2000
0200
0020
0000
,
3330
0000
0000
0000
;
