#TITLE:Super Mario;
#SUBTITLE:Castle Theme;
#ARTIST:Nintendo;
#TITLETRANSLIT:;
#SUBTITLETRANSLIT:;
#ARTISTTRANSLIT:;
#CREDIT:;
#BANNER:banner.jpg.jpg;
#BACKGROUND:bowser 1.jpg;
#LYRICSPATH:;
#CDTITLE:;
#MUSIC:Nintendo - Super Mario Brothers - Castle Theme (original).mp3;
#OFFSET:-0.800;
#SAMPLESTART:0.800;
#SAMPLELENGTH:12.000;
#SELECTABLE:YES;
#BPMS:0.000=180.000;
#STOPS:;
#BGCHANGES:10.000=bowser2.jpg=1.000=1=0=1,
26.000=bowser3.jpg=1.000=1=0=1,
39.000=bowser4.jpg=1.000=1=0=1,
52.000=bowser5.jpg=1.000=1=0=1,
66.000=bowser6.jpg=1.000=1=0=1,
79.000=bowser 7.jpg=1.000=1=0=1,
92.000=bowser 1.jpg=1.000=1=0=1,
99999=-nosongbg-=1.000=0=0=0 // don't automatically add -songbackground-
;
// cache tags:
#FIRSTBEAT:0.250;
#LASTBEAT:96.250;
#SONGFILENAME:Songs/newbie/Super Mario - Castle Theme/SM FILE.sm;
#HASMUSIC:1;
#HASBANNER:1;
#MUSICLENGTH:45.173;
// end cache tags

//---------------dance-single - ----------------
#NOTES:
     dance-single:
     :
     Challenge:
     12:
     1.000,1.000,1.000,1.000,1.000,352.000,48.000,64.000,0.000,0.000:
0000
0001
1000
0010
1000
0100
1000
0100
1000
0010
1000
0001
1000
0010
1000
0100
,
1000
0001
0100
0010
0100
1000
0100
1000
0100
0010
0100
0001
0100
0010
0100
1000
,
0100
1000
0010
1000
0010
0100
0010
0001
0010
0100
0010
0001
0010
0100
0010
1000
,
0010
0100
0001
1000
0001
0100
0001
0010
0001
0100
0001
0010
0001
0100
0001
1000
,
0001
0010
1000
0001
0100
0010
1000
0001
0100
0010
1000
0001
0100
0010
1000
0001
,
0100
0022
0033
0202
0303
0220
0330
2020
3030
0202
0303
2200
3300
2020
3030
0202
,
0303
1000
0001
0100
0001
0010
0001
0010
0001
0100
0001
1000
0001
0100
0001
0010
,
0001
1000
0010
0100
0010
0001
0010
0001
0010
0100
0010
1000
0010
0100
0010
0001
,
0010
0001
0100
0001
0100
0010
0100
1000
0100
0010
0100
1000
0100
0010
0100
0001
,
0100
0010
1000
0001
1000
0010
1000
0100
1000
0010
1000
0100
1000
0010
1000
0001
,
1000
0100
0001
1000
0010
0100
0001
1000
0010
0100
0001
1000
0010
0100
0001
1000
,
0010
2200
3300
2020
3030
2002
3003
0202
0303
2020
3030
0022
0033
0202
0303
2020
,
3030
0010
0100
1000
0100
0010
1000
0100
0010
0001
0010
0100
0001
0010
0100
1000
,
0100
0010
0100
0010
0001
0010
0100
1000
0100
1000
0100
0010
1000
0100
0010
0001
,
0100
0010
0100
1000
0100
0010
0100
0001
0010
0100
0010
0001
0010
0100
1000
0100
,
1000
0011
1100
0011
1100
0011
1100
0011
1100
0011
1100
0011
1100
0011
1100
0011
,
1100
0001
1000
0010
0100
0001
1000
0010
0100
1000
0010
0100
0001
1000
0010
0100
,
0001
2020
3030
0220
0330
0022
0033
0202
0303
2002
3003
2020
3030
0202
0303
0220
,
0330
0001
1000
0010
1000
0100
1000
0100
1000
0010
1000
0001
1000
0010
1000
0100
,
1000
0001
0100
0010
0100
1000
0100
1000
0100
0010
0100
0001
0100
0010
0100
1000
,
0100
1000
0010
1000
0010
0100
0010
0001
0010
0100
0010
0001
0010
0100
0010
1000
,
0010
0100
0001
1000
0001
0100
0001
0010
0001
0100
0001
0010
0001
0100
0001
1000
,
0001
0010
1000
0001
0100
0010
1000
0001
0100
0010
1000
0001
0100
0010
1000
0001
,
0100
0022
0033
0202
0303
0220
0330
2020
3030
0202
0303
2200
3300
2020
3030
0202
,
0303
0000
0000
0000
;

//---------------dance-single - ----------------
#NOTES:
     dance-single:
     :
     Hard:
     10:
     0.923,0.901,1.000,0.908,1.000,185.000,66.000,41.000,0.000,0.000:
0000
0101
0000
0010
0000
0100
0000
0100
0000
1010
0000
0001
0000
0010
0000
0100
,
0000
1001
0000
0010
0000
1000
0000
1000
0000
0110
0000
0001
0000
0010
0000
1000
,
0000
1010
0000
1000
0000
0100
0000
0001
0000
1100
0000
0001
0000
0100
0000
1000
,
0000
0110
0000
1000
0000
0100
0000
0010
0000
0101
0000
0010
0000
0100
0000
1000
,
0000
0110
0000
0001
0000
0010
0000
0001
0000
1010
0000
0001
0000
0010
0000
0001
,
0000
0022
0033
0000
0000
0220
0330
0000
0000
0202
0303
2200
3300
0202
0003
2000
,
3300
0011
0000
0100
0000
0010
0000
0010
0000
0101
0000
1000
0000
0100
0000
0010
,
0000
1001
0000
0100
0000
0001
0000
0001
0000
0110
0000
1000
0000
0100
0000
0001
,
0000
0101
0000
0001
0000
0010
0000
1000
0000
0011
0000
1000
0000
0010
0000
0001
,
0000
0110
0000
0001
0000
0010
0000
0100
0000
0011
0000
0100
0000
0010
0000
0001
,
0000
0101
0000
1000
0000
0100
0000
1000
0000
0110
0000
1000
0000
0100
0000
1000
,
0000
2200
3300
0000
0000
2002
3003
0000
0000
2020
3030
0022
0033
0202
0303
2020
,
3030
0101
0000
1000
0000
0010
0000
0100
0000
0011
0000
0100
0000
0010
0000
1000
,
0000
0110
0000
0010
0000
0010
0000
1000
0000
1001
0000
0010
0000
0100
0000
0001
,
0000
0110
0000
1000
0000
0010
0000
0001
0000
1100
0000
0001
0000
0100
0000
0100
,
0000
0011
0000
0011
0000
1100
0000
1100
0000
0011
0000
1100
0000
0011
0000
1100
,
0000
0101
0000
0010
0000
0001
0000
0010
0000
1010
0000
0100
0000
1000
0000
0100
,
0000
2020
3030
0000
0000
0022
0033
0000
0000
2002
3003
0000
0000
0202
0303
0220
,
0330
1001
0000
0010
0000
0100
0000
0100
0000
0110
0000
0001
0000
0010
0000
0100
,
0000
0101
0000
0010
0000
1000
0000
1000
0000
0110
0000
0001
0000
0010
0000
1000
,
0000
1010
0000
1000
0000
0100
0000
0001
0000
1100
0000
0001
0000
0100
0000
1000
,
0000
0110
0000
1000
0000
0100
0000
0010
0000
0101
0000
0010
0000
0100
0000
1000
,
0000
0110
0000
0001
0000
0010
0000
0001
0000
1010
0000
0001
0000
0010
0000
0001
,
0000
0022
0033
1000
0000
0220
0330
1000
0000
0202
0303
1000
0000
2020
3030
0001
;

//---------------dance-single - ----------------
#NOTES:
     dance-single:
     :
     Medium:
     7:
     0.607,0.424,0.000,0.000,1.000,192.000,0.000,0.000,0.000,0.000:
0000
0100
0000
0010
0000
0100
0000
0100
0000
0010
0000
0001
0000
0010
0000
0100
,
0000
1000
0000
0010
0000
1000
0000
1000
0000
0010
0000
0001
0000
0010
0000
1000
,
0000
0010
0000
1000
0000
0100
0000
0001
0000
1000
0000
0001
0000
0100
0000
1000
,
0000
0100
0000
1000
0000
0100
0000
0010
0000
0001
0000
0010
0000
0100
0000
1000
,
0000
0100
0000
0001
0000
0010
0000
0001
0000
0010
0000
0001
0000
0010
0000
0001
,
0000
1000
0000
0100
0000
0010
0000
0100
0000
0010
0000
0001
0000
0010
0000
0100
,
0000
0010
0000
0100
0000
0010
0000
0010
0000
0001
0000
1000
0000
0100
0000
0010
,
0000
0001
0000
0100
0000
0001
0000
0001
0000
0100
0000
1000
0000
0100
0000
0001
,
0000
0100
0000
0001
0000
0010
0000
1000
0000
0001
0000
1000
0000
0010
0000
0001
,
0000
0100
0000
0001
0000
0010
0000
0100
0000
0001
0000
0100
0000
0010
0000
0001
,
0000
0100
0000
1000
0000
0100
0000
1000
0000
0010
0000
1000
0000
0100
0000
1000
,
0000
1000
0000
0100
0000
0010
0000
1000
0000
0100
0000
0010
0000
0001
0000
0010
,
0000
0001
0000
1000
0000
0010
0000
0100
0000
0001
0000
0100
0000
0010
0000
1000
,
0000
0100
0000
0010
0000
0010
0000
1000
0000
0001
0000
0010
0000
0100
0000
0001
,
0000
0100
0000
1000
0000
0010
0000
0001
0000
1000
0000
0001
0000
0100
0000
0100
,
0000
0010
0000
0010
0000
0100
0000
0100
0000
0010
0000
0100
0000
0001
0000
1000
,
0000
0001
0000
0010
0000
0001
0000
0010
0000
1000
0000
0100
0000
1000
0000
0100
,
0000
0010
0000
0100
0000
1000
0000
0001
0000
0010
0000
0100
0000
1000
0000
0010
,
0000
0001
0000
0010
0000
0100
0000
0100
0000
0010
0000
0001
0000
0010
0000
0100
,
0000
0001
0000
0010
0000
1000
0000
1000
0000
0010
0000
0001
0000
0010
0000
1000
,
0000
0010
0000
1000
0000
0100
0000
0001
0000
1000
0000
0001
0000
0100
0000
1000
,
0000
0010
0000
1000
0000
0100
0000
0010
0000
0100
0000
0010
0000
0100
0000
1000
,
0000
0100
0000
0001
0000
0010
0000
0001
0000
0010
0000
0001
0000
0010
0000
0001
,
0000
0010
0000
1000
0000
0100
0000
1000
0000
0001
0000
1000
0000
0100
0000
0001
;

//---------------dance-single - ----------------
#NOTES:
     dance-single:
     :
     Easy:
     5:
     0.478,0.371,0.000,0.000,1.000,151.000,0.000,0.000,0.000,0.000:
0000
0100
0000
0001
0000
0100
0000
0000
0000
0010
0000
0100
0000
0010
0000
0000
,
0000
1000
0000
0001
0000
1000
0000
0000
0000
0010
0000
0010
0000
0010
0000
0000
,
0000
0010
0000
0001
0000
0100
0000
0000
0000
1000
0000
1000
0000
0100
0000
0000
,
0000
0100
0000
0010
0000
0100
0000
0000
0000
0001
0000
1000
0000
0100
0000
0000
,
0000
0100
0000
0010
0000
0010
0000
0000
0000
0001
0000
0010
0000
0010
0000
0000
,
0000
1000
0000
0100
0000
0010
0000
0001
0000
0010
0000
0001
0000
0010
0000
0000
,
0000
0010
0000
0100
0000
0010
0000
0000
0000
0001
0000
1000
0000
0100
0000
0000
,
0000
0001
0000
0100
0000
0001
0000
0000
0000
0100
0000
1000
0000
0100
0000
0000
,
0000
0100
0000
0001
0000
0010
0000
0000
0000
0001
0000
1000
0000
0010
0000
0000
,
0000
0100
0000
0001
0000
0010
0000
0000
0000
0001
0000
0100
0000
0010
0000
0000
,
0000
0100
0000
1000
0000
0100
0000
0000
0000
0010
0000
1000
0000
0100
0000
0000
,
0000
1000
0000
0100
0000
0010
0000
0001
0000
0100
0000
0010
0000
0001
0000
1000
,
0000
0001
0000
1000
0000
0010
0000
0000
0000
0001
0000
0100
0000
0010
0000
0000
,
0000
0100
0000
0010
0000
0010
0000
0000
0000
0001
0000
0010
0000
0100
0000
0000
,
0000
0100
0000
1000
0000
0010
0000
0000
0000
1000
0000
0001
0000
0100
0000
0000
,
0000
0010
0000
0010
0000
0100
0000
0000
0000
0010
0000
0100
0000
0001
0000
0000
,
0000
0001
0000
0010
0000
0001
0000
0000
0000
1000
0000
0100
0000
1000
0000
0000
,
0000
0010
0000
0100
0000
1000
0000
0001
0000
0010
0000
0100
0000
1000
0000
0100
,
0000
0001
0000
0010
0000
0100
0000
0000
0000
0010
0000
0001
0000
0010
0000
0000
,
0000
0001
0000
0010
0000
1000
0000
0000
0000
0010
0000
0001
0000
0010
0000
0000
,
0000
0010
0000
1000
0000
0100
0000
0000
0000
1000
0000
0001
0000
0100
0000
0000
,
0000
0010
0000
1000
0000
0100
0000
0000
0000
0100
0000
0010
0000
0100
0000
0000
,
0000
0100
0000
0001
0000
0010
0000
0000
0000
0010
0000
0001
0000
0010
0000
0000
,
0000
0010
0000
1000
0000
0100
0000
0010
0000
0001
0000
1000
0000
0100
0000
0001
;

//---------------dance-single - ----------------
#NOTES:
     dance-single:
     :
     Beginner:
     2:
     0.307,0.213,0.000,0.000,1.000,97.000,0.000,0.000,0.000,0.000:
0000
0100
0000
0000
0000
0100
0000
0000
0000
0010
0000
0000
0000
0010
0000
0000
,
0000
1000
0000
0000
0000
1000
0000
0000
0000
0010
0000
0000
0000
0010
0000
0000
,
0000
0010
0000
0000
0000
0100
0000
0000
0000
1000
0000
0000
0000
0100
0000
0000
,
0000
0100
0000
0000
0000
0100
0000
0000
0000
0001
0000
0000
0000
0100
0000
0000
,
0000
0100
0000
0000
0000
0010
0000
0000
0000
0001
0000
0000
0000
0010
0000
0000
,
0000
1000
0000
0000
0000
0010
0000
0000
0000
0010
0000
0000
0000
0010
0000
0000
,
0000
0010
0000
0000
0000
0010
0000
0000
0000
0001
0000
0000
0000
0100
0000
0000
,
0000
0001
0000
0000
0000
0001
0000
0000
0000
0100
0000
0000
0000
0100
0000
0000
,
0000
0100
0000
0000
0000
0010
0000
0000
0000
0001
0000
0000
0000
0010
0000
0000
,
0000
0100
0000
0000
0000
0010
0000
0000
0000
0001
0000
0000
0000
0010
0000
0000
,
0000
0100
0000
0000
0000
0100
0000
0000
0000
0010
0000
0000
0000
0100
0000
0000
,
0000
1000
0000
0000
0000
0010
0000
0000
0000
0100
0000
0000
0000
0001
0000
0000
,
0000
0001
0000
0000
0000
0010
0000
0000
0000
0001
0000
0000
0000
0010
0000
0000
,
0000
0100
0000
0000
0000
0010
0000
0000
0000
0001
0000
0000
0000
0100
0000
0000
,
0000
0100
0000
0000
0000
0010
0000
0000
0000
1000
0000
0000
0000
0100
0000
0000
,
0000
0010
0000
0000
0000
0100
0000
0000
0000
0010
0000
0000
0000
0001
0000
0000
,
0000
0001
0000
0000
0000
0001
0000
0000
0000
1000
0000
0000
0000
1000
0000
0000
,
0000
0010
0000
0000
0000
1000
0000
0000
0000
0001
0000
0000
0000
0100
0000
0000
,
0000
0100
0000
0000
0000
0010
0000
0000
0000
0010
0000
0000
0000
0010
0000
0000
,
0000
0001
0000
0000
0000
1000
0000
0000
0000
0010
0000
0000
0000
0010
0000
0000
,
0000
0010
0000
0000
0000
0100
0000
0000
0000
1000
0000
0000
0000
0100
0000
0000
,
0000
0010
0000
0000
0000
0100
0000
0000
0000
0100
0000
0000
0000
0100
0000
0000
,
0000
0100
0000
0000
0000
0010
0000
0000
0000
0010
0000
0000
0000
0010
0000
0000
,
0000
0010
0000
0000
0000
0100
0000
0000
0000
0001
0000
0000
0000
1000
0000
0000
,
0000
0001
0000
0000
0000
0000
0000
0000
0000
0000
0000
0000
0000
0000
0000
0000
;
