#TITLE:Hydrocity Zone (Act 2);
#SUBTITLE:Sonic The Hedgehog 3;
#ARTIST:Sonic Team;
#TITLETRANSLIT:;
#SUBTITLETRANSLIT:;
#ARTISTTRANSLIT:;
#CREDIT:;
#BANNER:Hydrocity Zone Act 2.jpg;
#BACKGROUND:Hydrocity Zone Act 2-bg.jpg;
#LYRICSPATH:;
#CDTITLE:!tsuka.png;
#MUSIC:Hydrocity Zone Act 2.mp3;
#OFFSET:-0.300;
#SAMPLESTART:21.780;
#SAMPLELENGTH:12.000;
#SELECTABLE:YES;
#BPMS:0.000=128.350;
#STOPS:;
#BGCHANGES:;
// cache tags:
#FIRSTBEAT:0.000;
#LASTBEAT:224.000;
#SONGFILENAME:Songs/VGMP 2/Hydrocity Zone Act 2 (Tsuka)/Hydrocity Zone Act 2.sm;
#HASMUSIC:1;
#HASBANNER:1;
#MUSICLENGTH:108.695;
// end cache tags

//---------------dance-single - Blank----------------
#NOTES:
     dance-single:
     Blank:
     Hard:
     12:
     1.000,1.000,1.000,1.000,1.000,688.000,156.000,209.000,0.000,75.000:

0010
1000
0100
1000
0000
1000
0100
1000
0010
1000
0100
1000
0010
0000
0010
0000
,
1001
0000
0000
0000
1001
0000
0000
0000
0100
0001
1000
0001
0100
0010
0100
0000
0000
0000
0011
0000
0000
0000
0000
0000
0011
0000
0000
0000
1001
0000
0000
0000
,
0100
0001
0010
0001
0000
0001
0010
0001
0100
0001
0010
0001
0100
0000
0100
0000
,
1001
0000
0000
0000
1001
0000
0000
0000
0010
1000
0001
1000
0010
0100
0010
0000
0000
0000
1100
0000
0000
0000
0000
0000
1100
0000
0000
0000
1001
0000
0100
0000
,
0001
0000
0010
0000
0100
1000
0100
0010
0101
1000
0001
0000
0010
0000
0001
0000
0010
0000
0100
0000
1000
0000
0100
0000
0011
0000
0000
0000
0010
0000
0100
0000
,
1001
0000
0100
0010
1001
2000
3200
0320
0032
0003
0200
0320
1031
0000
1000
0100
,
0010
0000
0100
0000
1000
0001
0010
0100
0011
0100
1000
0000
0010
0000
0100
0000
0010
0000
1000
0000
0100
0000
1000
0000
0110
0000
0000
0000
0010
0000
0001
0000
,
1100
0020
0032
0023
0030
0200
0320
2031
3000
1001
0000
0000
1001
0000
1001
0010
,
1000
0000
0100
0000
0010
0001
0010
0100
1001
0010
1000
0000
0100
0000
1000
0000
0100
0000
0010
0000
0001
0000
0010
0000
1100
0000
0000
0000
0100
0000
0010
0000
,
1001
0000
0010
0100
1001
2000
3200
0320
0032
0003
0200
0320
1031
0000
0001
0010
,
0100
0000
0010
0000
0001
1000
0100
0010
1001
0010
0001
0000
0100
0000
0010
0000
0100
0000
0001
0000
0010
0000
0001
0000
1100
0000
0000
0000
0100
0000
1001
0000
,
0000
0000
0001
0000
0010
0000
0100
0000
1000
0010
0100
0001
1000
0000
0100
0000
0000
0000
0020
0030
0200
0300
1001
0000
2000
3001
0100
0010
0200
0302
2003
3100
,
0012
0000
0213
0312
0000
2103
0000
3012
0000
0000
1000
1000
0000
0100
0100
2000
,
3123
0000
1000
0100
0000
1000
0000
2130
0000
0000
0010
0010
0000
0001
0001
0000
,
3210
0000
0312
0123
0000
2130
0000
3012
0000
0000
0100
0100
0000
0010
0010
0200
,
2303
3110
0000
0000
0101
0000
0010
0101
0000
1002
0000
0000
1203
0000
2310
0000
,
3012
0000
0213
0312
0000
2103
0000
3012
0000
0000
1000
1000
0000
0100
0100
2000
,
3123
0000
1000
0100
0000
1000
0000
0132
0000
0000
1000
1000
0000
0010
0010
0000
,
1203
0000
0312
0123
0000
2130
0000
3012
0000
0000
0100
0100
0000
0010
0010
2000
,
3203
0000
0010
0000
0000
0000
0010
0000
0000
0000
0010
0000
0010
0000
0000
0000
1302
0000
1000
0000
0000
0000
1000
0000
0023
0230
0320
0230
2300
3000
0200
0000
,
0320
0000
0000
0230
1000
0000
0320
0032
0000
0023
0000
0000
1230
0000
1000
0000
,
2300
0000
0010
0000
0001
0000
3010
0000
2100
0000
0000
0000
3200
0000
2300
0000
0000
0000
0010
0000
0100
0000
0010
0000
3101
0000
0010
0000
2000
3000
0200
0000
,
0320
0000
0000
0230
1000
0000
0320
0032
0000
0023
0000
0000
1230
0000
1000
0000
,
2300
0000
0010
0000
0001
0000
3010
0000
1200
0000
0010
0000
1000
0000
0322
0000
0033
0000
0020
0000
0001
0000
0100
0000
0032
0000
0000
0000
2003
3000
0200
0000
,
0320
0000
0000
0230
1000
0000
0320
0032
0000
0023
0000
0000
1230
0000
1000
0000
,
2300
0000
0010
0000
0001
0000
3010
0000
2100
0000
0000
0000
3200
0000
2300
0000
0000
0000
0010
0000
0100
0000
0010
0000
3101
0000
0010
0000
2000
3000
0200
0000
,
0320
0000
0000
0030
0101
2000
3020
0000
0000
0000
1030
0000
0101
0000
0010
0000
,
0000
0000
0011
0000
0000
0000
0011
0000
0000
0000
0011
0000
0011
0000
0000
0000
1100
0000
0000
0000
0000
0000
0000
0000
1000
0001
1000
0010
0100
0001
0000
0000
,
0010
1000
0100
1000
0000
1000
0100
1000
0010
1000
0100
1000
0010
0000
0010
0000
,
1001
0000
0000
0000
1001
0000
0000
0000
0100
0001
1000
0001
0100
0010
0100
0000
0000
0000
0011
0000
0000
0000
0000
0000
0011
0000
0000
0000
1001
0000
0000
0000
,
0100
0001
0010
0001
0000
0001
0010
0001
0100
0001
0010
0001
0100
0000
0100
0000
,
1001
0000
0000
0000
1001
0000
0000
0000
0010
1000
0001
1000
0010
0100
0010
0000
0000
0000
1100
0000
0000
0000
0000
0000
1100
0000
0000
0000
1001
0000
0100
0000
,
0001
0000
0010
0000
0100
1000
0100
0010
0101
1000
0001
0000
0010
0000
0001
0000
0010
0000
0100
0000
1000
0000
0100
0000
0011
0000
0000
0000
0010
0000
0100
0000
,
1001
0000
0100
0010
1001
2000
3200
0320
0032
0003
0200
0320
1031
0000
1000
0100
,
0010
0000
0100
0000
1000
0001
0010
0100
0011
0100
1000
0000
0010
0000
0100
0000
0010
0000
1000
0000
0100
0000
1000
0000
0110
0000
0000
0000
0010
0000
0001
0000
,
1100
0020
0032
0023
0030
0200
0320
2031
3000
1001
0000
0000
1001
0000
1001
0010
,
1000
0000
0100
0000
0010
0001
0010
0100
1001
0010
1000
0000
0100
0000
1000
0000
0100
0000
0010
0000
0001
0000
0010
0000
1100
0000
0000
0000
0100
0000
0010
0000
,
1001
0000
0010
0100
1001
2000
3200
0320
0032
0003
0200
0320
1031
0000
0001
0010
,
0100
0000
0010
0000
0001
1000
0100
0010
1001
0010
0001
0000
0100
0000
0010
0000
0100
0000
0001
0000
0010
0000
0001
0000
1100
0000
0000
0000
0100
0000
1001
0000
,
0000
0000
0001
0000
0010
0000
0100
0000
1000
0010
0100
0001
1000
0000
0100
0000
0000
0000
0020
0030
0200
0300
1001
0000
2000
3001
0100
0010
0200
0302
2003
3100
,
0012
0000
0213
0312
0000
2103
0000
3012
0000
0000
1000
1000
0000
0100
0100
2000
,
3123
0000
1000
0100
0000
1000
0000
2130
0000
0000
0010
0010
0000
0001
0001
0000
,
3210
0000
0312
0123
0000
2130
0000
3012
0000
0000
0100
0100
0000
0010
0010
0200
,
2303
3110
0000
0000
0101
0000
0010
0101
0000
1002
0000
0000
1203
0000
2310
0000
,
3012
0000
0213
0312
0000
2103
0000
3012
0000
0000
1000
1000
0000
0100
0100
2000
,
3123
0000
1000
0100
0000
1000
0000
0132
0000
0000
1000
1000
0000
0010
0010
0000
,
1203
0000
0312
0123
0000
2130
0000
3012
0000
0000
0100
0100
0000
0010
0010
2000
,
3203
0000
0010
0000
0000
0000
0010
0000
0000
0000
0010
0000
0010
0000
0000
0000
0300
0000
1000
0000
0000
0000
1000
0000
0020
0230
0320
0230
2300
3000
0200
0000
,
0320
0000
0000
0230
1000
0000
0320
0032
0000
0023
0000
0000
1230
0000
1000
0000
,
2300
0000
0010
0000
0001
0000
3010
0000
2100
0000
0000
0000
3200
0000
2300
0000
0000
0000
0010
0000
0100
0000
0010
0000
3101
0000
0010
0000
2000
3000
0200
0000
,
0320
0000
0000
0230
1000
0000
0320
0032
0000
0023
0000
0000
1230
0000
1000
0000
,
2300
0000
0010
0000
0001
0000
3010
0000
1200
0000
0010
0000
1000
0000
0322
0000
0033
0000
0020
0000
0001
0000
0100
0000
0032
0000
0000
0000
2003
3000
0200
0000
,
0320
0000
0000
0230
1000
0000
0320
0032
0000
0023
0000
0000
1230
0000
1000
0000
,
2300
0000
0010
0000
0001
0000
3010
0000
2100
0000
0000
0000
3200
0000
2300
0000
0000
0000
0010
0000
0100
0000
0010
0000
3101
0000
0010
0000
2000
3000
0200
0000
,
0320
0000
0000
0030
0101
2000
3020
0000
0000
0000
1030
0000
0101
0000
0010
0000
,
0000
0000
0011
0000
0000
0000
0011
0000
0000
0000
0011
0000
0011
0000
0000
0000
1100
0000
0000
0000
0000
0000
0000
0000
1000
0010
1000
0001
0100
0000
0010
0000
,
1001
0000
0000
0000
;
