#TITLE:ACID VISION;
#SUBTITLE:;
#ARTIST:L.E.D.;
#TITLETRANSLIT:;
#SUBTITLETRANSLIT:;
#ARTISTTRANSLIT:;
#CREDIT:;
#BANNER:bn.bmp;
#BACKGROUND:bg.bmp;
#LYRICSPATH:;
#CDTITLE:cdtitle.png;
#MUSIC:ACID VISION.mp3;
#OFFSET:-0.023;
#SAMPLESTART:19.760;
#SAMPLELENGTH:11.480;
#SELECTABLE:YES;
#BPMS:0.000=22.750,5.500=182.000,88.000=364.000,90.000=182.000,117.000=364.000,120.000=182.000,134.000=45.500,136.000=182.000,199.500=45.500,202.500=182.000,265.500=45.500,267.500=182.000;
#STOPS:37.500=0.165
,53.000=0.165
,65.500=0.165
,134.000=0.820
,153.500=0.500
,184.500=0.320
,199.500=0.820
,221.000=0.090
,221.500=0.090
,222.000=0.090
,222.500=0.090
,251.000=0.090
,251.500=0.090
,252.000=0.090
,252.500=0.090
,253.000=0.090
,283.500=0.500
;
#BGCHANGES:;
// cache tags:
#FIRSTBEAT:5.500;
#LASTBEAT:302.500;
#SONGFILENAME:Songs/toune 3/ACID VISION/ACID VISION.sm;
#HASMUSIC:1;
#HASBANNER:1;
#MUSICLENGTH:125.497;
// end cache tags

//---------------dance-single - ----------------
#NOTES:
     dance-single:
     :
     Hard:
     9:
     0.631,0.663,0.191,0.120,0.012,515.000,24.000,15.000,0.000,0.000:
0000
0000
0000
0000
,
0000
0000
0000
0010
1000
0100
0010
0100
,
0010
0001
0100
0010
1000
0001
0100
0001
,
0010
0100
1000
0010
0000
0100
0001
0000
,
0010
0100
0000
0100
0000
1000
0010
0000
,
0100
0001
0000
0010
0001
0100
0010
0100
,
0010
1000
0100
0010
0001
1000
0100
1000
,
0010
0100
0001
0010
0000
0100
1000
0000
,
0010
0100
0000
0100
0000
0001
0000
0010
,
0100
0000
0010
0000
1000
0100
0010
0001
,
0100
0010
0100
0010
1000
0001
0100
0010
,
1000
0100
1000
0000
0001
0010
0000
0100
,
0010
0000
0001
0000
0100
1000
0000
0100
,
0010
0000
0000
1000
0001
1000
0100
0010
,
0001
1000
0010
1000
0001
0100
0010
1000
,
0001
0010
0000
0100
0010
0000
0100
1000
,
0000
0000
0110
0000
0000
0000
0000
0110
0000
0000
0000
0000
0000
0000
0000
0000
,
0100
1000
0001
0010
0100
0010
0001
1000
,
0010
0001
0010
1000
0100
0010
0010
0010
,
0100
1000
0001
0010
1000
0010
0100
1000
,
0010
0100
0100
0100
0001
0010
0100
1000
,
0001
0000
0100
1000
0000
0100
0001
0000
,
0020
0000
0000
0000
0130
0100
0000
0010
,
0001
0000
1000
1000
1000
0010
0000
0100
,
0010
0010
1000
0100
0001
0100
1000
1000
,
0001
0100
0100
0000
0020
1000
1030
0100
,
0010
0001
0100
1000
0100
0100
0010
1000
,
0100
1000
1000
0010
0100
1000
0100
0001
,
0010
0100
0100
0100
0010
0100
1000
0010
,
0100
2002
0000
3003
,
0100
0000
0010
0100
0000
0010
2000
0001
,
3001
0100
0010
0010
0100
1100
0000
0000
,
0101
0000
0000
0000
0000
0000
1001
0000
0000
0000
1010
0000
0000
1100
0000
0000
,
0101
0000
0000
0011
0000
0000
2002
0000
0000
0000
0000
0000
0000
0000
3003
0000
,
0010
0100
0010
0100
1000
1000
0010
0100
,
1000
0100
0010
1000
0100
0010
0001
0100
,
0010
1000
0100
1000
0001
0100
0001
0010
,
0100
0010
0001
0100
1000
0100
0010
1000
,
0100
0010
0001
1001
1000
0100
0100
1000
,
0010
0100
0100
0010
1000
0001
0001
0100
,
0010
0100
0100
0001
0010
1000
0010
0100
,
1000
0010
0100
0001
1000
0100
0010
0001
,
0100
0010
1000
0001
0100
1000
0100
0001
,
0100
1000
0100
0001
0010
1000
0010
0001
,
0010
1000
0010
0100
1000
0010
0100
1000
,
0100
0100
1000
0100
0001
0010
0100
0001
,
0100
0010
1000
0100
0010
0001
0100
0010
,
1000
0100
1000
0010
0100
0001
0010
0100
,
1000
0010
1000
0001
0100
0001
0010
1000
,
0010
0001
1000
0100
1000
0010
0220
0000
,
0000
0000
0000
0000
0330
1000
0001
1000
,
0100
0100
0010
0001
1000
1000
0010
0100
,
1000
0100
0001
0001
0010
0010
0100
0100
,
0100
1000
0010
0010
1000
1000
0001
0100
,
0100
0100
0010
0010
1000
0001
0100
0010
,
0010
0000
0110
1001
0110
1001
1000
1000
,
0100
0010
0001
0001
0100
0010
1000
0100
,
0100
0100
1000
0010
0010
0010
0100
0001
,
0010
1000
0010
0100
1000
0010
0200
0001
,
0001
0301
0010
0010
0100
1000
0010
0100
,
0100
0100
0010
0001
0010
1000
0100
0010
,
0100
0001
1000
0100
1000
0001
0010
0100
,
0010
0001
0010
1000
0100
1000
0011
0101
,
1100
1010
1001
0100
0100
0001
0010
1000
,
1000
0010
0100
1000
0010
0100
0100
0001
,
0001
0010
0010
0010
0100
1000
0010
0100
,
1000
0100
2002
0000
0000
0000
3003
0010
,
1000
0100
1000
0010
1000
0001
0000
0000
,
0001
0010
1000
0010
0100
0010
0001
0000
,
1000
0100
0010
0001
0100
1000
0100
0000
,
0010
1000
0001
0100
0001
1000
0010
0010
,
1000
0100
0100
0010
1000
0001
0001
0100
,
0010
1000
0100
0001
0010
0100
0100
0010
,
0002
1000
1000
1003
0010
0100
0100
0010
,
1000
0001
0100
0010
0010
2002
0000
0000
,
0000
0000
0000
0000
0000
3003
0000
0000
;

//---------------dance-single - ----------------
#NOTES:
     dance-single:
     :
     Medium:
     7:
     0.385,0.362,0.167,0.120,0.012,302.000,21.000,15.000,0.000,0.000:
0000
0000
0000
0000
,
0000
0000
0000
0100
0000
0010
0000
0010
,
0000
1000
0000
0100
0000
1000
0000
1000
,
0000
0010
0001
0000
0000
1000
0000
0000
,
0100
0000
0000
0010
0000
0001
0000
0000
,
1001
0000
0000
0100
0000
0010
0000
0010
,
0000
0001
0000
0100
0000
0001
0000
0001
,
0000
0010
1000
0000
0000
0010
0000
0000
,
0100
0000
0000
0010
0000
0100
0000
1001
,
0000
0100
0001
0100
,
0010
0010
0001
1000
,
0001
0000
0001
0000
1000
0000
0000
0010
,
0000
0000
1000
0000
0010
0000
0000
1001
,
0000
0000
0000
1000
0000
1000
0000
0100
,
0000
1000
0000
1000
0000
0010
0000
1000
,
0000
0100
0000
0010
0000
0000
0010
0000
,
0000
0000
0100
0000
0000
0000
0000
1001
0000
0000
0000
0000
0000
0000
0000
0000
,
0010
1000
0100
0001
,
1000
0000
0001
0000
0100
0010
0100
0000
,
0010
1000
0001
0010
,
0100
0010
0100
0000
1000
0000
0010
0000
,
1000
0000
0110
0000
0000
1001
0000
0000
,
0200
0000
0000
0000
0310
0000
0000
0100
,
0000
0000
0001
0100
0001
0100
0000
0010
,
0100
0001
1000
0001
,
1000
0010
1000
0000
0200
0000
0301
0000
,
0100
0000
0010
0000
0001
0100
0001
0000
,
0010
0001
0010
1000
,
0100
0010
0100
0001
,
0010
2002
0000
3003
,
0010
0000
0100
0000
0000
0100
0002
0000
,
1003
0000
0100
0000
0000
0101
0000
0000
,
1100
0000
0000
0000
0000
0000
1001
0000
0000
0000
0100
0000
0000
0010
0000
0000
,
1000
0000
0000
0001
0000
0000
2002
0000
0000
0000
0000
0000
0000
0000
3003
0000
,
0000
0000
0000
0010
0000
0001
0000
1000
,
0000
0010
0000
1000
0000
0100
0000
0010
,
0000
0001
0100
0001
0000
0010
0000
0100
,
0000
1000
0000
0010
0000
1000
0000
0001
,
0000
0100
0000
1001
0000
0010
0000
0100
,
0000
0010
0000
0001
0000
1000
0000
0100
,
0000
0010
0001
0010
0000
0100
0000
0001
,
0000
0010
0000
0001
0000
0100
0000
0010
,
0000
0100
0000
0010
0001
0010
0000
0010
,
0001
0010
0000
0100
1000
0100
0000
0100
,
1000
0100
0000
0001
0000
0011
0000
0010
,
0000
1010
0000
1000
0000
1100
0000
0010
,
0000
0100
0000
0001
0000
0100
0000
0010
,
0000
0001
0000
1000
0000
0010
0000
0100
,
0000
0110
0000
0001
0000
0010
0000
0100
,
0000
1000
0000
0010
0010
0000
0220
0000
,
0000
0000
0000
0000
0330
0001
1000
0001
,
0000
0010
0000
1000
0000
0001
0000
0010
,
0000
0001
0000
1000
0000
0100
0010
0100
,
0000
0001
0000
0010
0000
0001
0000
0010
,
0000
1000
0000
0100
0000
1001
0000
0100
,
0000
0000
1000
0001
1000
0001
1000
0000
,
0010
1000
0100
0001
,
0010
0000
0001
0100
0100
0000
1000
0000
,
0100
0001
0100
0000
1001
0000
0020
0000
,
1000
0130
0010
1000
,
0100
0001
0100
0000
1000
0000
0010
0000
,
0100
0000
1000
0000
0100
0000
0001
0010
,
0001
0000
0100
0000
1001
0000
0100
0010
,
0010
0100
0100
0010
0000
1000
0000
0001
,
0000
0100
0000
0001
0000
0010
0010
0100
,
0000
1000
0000
0010
0000
0001
0000
1000
,
0000
0010
0200
0000
0000
0000
0300
0100
,
0000
0010
0000
0001
0000
1000
0000
0001
,
0100
1000
0000
0200
0000
0301
0000
1000
,
0100
0001
0000
0200
0000
1300
0000
0010
,
0000
0001
0000
1000
0000
0100
0010
0100
,
1000
0010
0100
1000
,
0010
0000
0001
1000
0100
0000
0110
0000
,
2000
0001
3100
0010
,
0001
0000
0010
0100
0020
0000
0000
0000
,
0000
0000
0000
0000
0000
0030
0000
0000
;

//---------------dance-single - ----------------
#NOTES:
     dance-single:
     :
     Easy:
     5:
     0.234,0.301,0.112,0.096,0.000,180.000,14.000,12.000,0.000,0.000:
0000
0000
0000
0000
,
0000
0000
0000
0000
0000
0100
0000
0000
,
0000
0001
0000
0000
0000
0001
0000
0000
,
0000
0100
0000
0000
0000
0001
0000
0000
,
0000
0000
0000
0100
0000
1000
0000
0000
,
0001
0000
0000
0000
0000
0100
0000
0000
,
0000
1000
0000
0000
0000
1000
0000
0000
,
0000
0100
0000
0000
0000
0000
0000
0000
,
0010
0000
0000
0100
0000
0000
0000
1001
,
0000
0000
1000
0000
,
0100
0000
1000
0000
,
1000
0000
0001
0000
,
0000
0000
0100
0000
0100
0000
0000
0010
,
0000
0000
0000
0001
0000
0000
0000
0010
,
0000
0000
0000
0001
0000
0000
0000
0001
,
0000
0000
0000
0100
0000
0000
0000
0000
,
0000
0110
0000
0000
0000
0000
0000
0000
,
0100
0010
0010
0000
,
0001
0000
0010
0010
,
0100
0000
1000
0000
,
0010
0010
0001
0000
,
1000
0000
0001
0000
0000
1001
0000
0000
,
0020
0000
0030
0000
,
0000
1000
0001
0000
,
1000
1000
1000
0000
,
0001
0001
0020
0030
,
0010
0000
1000
1000
,
0100
0000
0100
0000
,
0010
0000
0010
0100
,
0000
0020
0000
0030
,
0000
0010
0000
2000
,
3000
0110
0000
0000
,
1001
0000
0000
0100
0000
0010
0000
0000
,
0000
0000
0000
0200
0000
0000
0000
0300
,
0000
0000
0000
0010
0000
1000
0000
0100
,
0000
0000
0000
1000
0000
0001
0000
0000
,
0000
1000
0000
1000
0000
0000
0000
0010
,
0000
0001
0000
0100
0000
0000
0000
0010
,
0000
0000
0000
1001
0000
0000
0000
0010
,
0000
0000
0000
1000
0000
0001
0000
0000
,
0000
0100
0000
0010
0000
0000
0000
1000
,
0000
0000
0000
0001
0000
0000
0000
0100
,
0000
0000
0000
0100
0000
0100
0000
0100
,
0000
0000
0000
0010
0000
0010
0000
0010
,
0000
0000
0000
1000
0000
1000
0000
0100
,
0000
0000
0000
0001
0000
0001
0000
0100
,
0000
1001
0000
1000
0000
0010
0000
0001
,
0000
0000
0000
0001
0000
1000
0000
0000
,
0000
0110
0000
0000
0000
0100
0000
0010
,
0000
0000
0000
1001
0000
0000
0020
0000
,
0000
0000
0000
0000
0030
0000
0000
1000
,
0000
0100
0000
0001
0000
0000
0000
0100
,
0000
0010
0000
0000
0000
0010
0000
0010
,
0000
0100
0000
0000
0000
1000
0000
0000
,
0000
0001
0000
0000
0000
1001
0000
0000
,
0000
0000
0010
0100
0010
0100
0000
0000
,
0100
0000
0010
0000
,
0100
0010
0010
0000
,
0100
0000
1001
0200
,
0000
0310
0000
0001
,
0010
0010
0000
0100
,
0000
0001
0000
1000
,
0001
0000
0000
0000
1001
0000
1000
0001
,
1000
0001
1000
0000
0000
0001
0000
1000
,
0000
0001
0000
0000
0000
0100
0000
0100
,
0000
0000
0000
0100
0000
1000
0000
0001
,
0000
0020
0000
0030
,
0000
0100
0000
0010
0000
0000
0000
1000
,
0000
0001
0000
0020
0000
0030
0000
0001
,
0000
1000
0000
0020
0000
0030
0000
0100
,
0000
1000
0000
0000
0000
0010
0000
0010
,
0000
0100
0010
0000
,
0100
0010
0000
0110
,
0002
0000
0013
0001
,
1000
1001
0200
0000
,
0000
0000
0000
0000
0000
0300
0000
0000
;

//---------------dance-single - ----------------
#NOTES:
     dance-single:
     :
     Beginner:
     3:
     0.146,0.181,0.064,0.048,0.000,114.000,8.000,6.000,0.000,0.000:
0000
0000
0000
0000
,
0000
0000
0000
0000
0000
0010
0000
0000
,
0000
0000
0000
0000
0000
1000
0000
0000
,
0000
0000
0000
0000
0000
1000
0000
0000
,
0000
0000
0000
0000
0000
0001
0000
0000
,
0000
0000
0000
0000
0000
0010
0000
0000
,
0000
0000
0000
0000
0000
0001
0000
0000
,
0000
0000
0000
0000
,
0100
0000
0000
0000
0000
0000
0000
1001
,
0000
0000
0001
0000
,
0000
0000
0001
0000
,
0000
0000
1000
0000
,
0000
0000
0010
0000
,
0000
0000
0000
1000
0000
0000
0000
0000
,
0000
0000
0000
0001
0000
0000
0000
0000
,
0000
0000
0000
0100
0000
0000
0000
0000
,
0000
0010
0000
0000
0000
0000
0000
0000
,
0010
0000
0100
0000
,
0000
0000
0100
0000
,
0010
0000
0000
0000
,
0001
0000
1000
0000
,
0001
0000
0000
0000
0000
1001
0000
0000
,
0100
0000
0000
0000
,
0000
1000
0000
0000
,
0001
0001
0000
0000
,
1000
1000
0000
0000
,
0100
0000
0001
0001
,
0000
0000
0010
0000
,
0000
0000
0100
0000
,
0000
0100
0000
0000
,
0000
0010
0000
0000
,
0000
0010
0000
0000
,
1001
0000
0000
0010
0000
0000
0000
0000
,
0000
0000
0000
0020
0000
0000
0000
0030
,
0000
0000
0000
0100
0000
0000
0000
0010
,
0000
0000
0000
0000
0000
1000
0000
0000
,
0000
0000
0000
0001
0000
0000
0000
0100
,
0000
0000
0000
0010
0000
0000
0000
0100
,
0000
0000
0000
1001
0000
0000
0000
0100
,
0000
0000
0000
0001
0000
0000
0000
0000
,
0000
0010
0000
0000
0000
0000
0000
0001
,
0000
0000
0000
0000
0000
0000
0000
0100
,
0000
0000
0000
0010
0000
0010
0000
0000
,
0000
0000
0000
0100
0000
0100
0000
0000
,
0000
0000
0000
0001
0000
0001
0000
0000
,
0000
0000
0000
1000
0000
1000
0000
0000
,
0000
1001
0000
0001
0000
0000
0000
1000
,
0000
0000
0000
1000
0000
0000
0000
0000
,
0000
0010
0000
0000
0000
0010
0000
0000
,
0000
0000
0000
1001
0000
0000
0200
0000
,
0000
0000
0000
0000
0300
0000
0000
0001
,
0000
0000
0000
1000
0000
0000
0000
0010
,
0000
0000
0000
0000
0000
0100
0000
0100
,
0000
0000
0000
0000
0000
0001
0000
0000
,
0000
1000
0000
0000
0000
0001
0000
0000
,
0000
0000
0200
0000
0000
0300
0000
0000
,
0010
0000
0000
0000
,
0010
0000
0100
0000
,
0010
0000
1001
0010
,
0000
0000
0000
0000
,
0100
0100
0000
0010
,
0000
1000
0000
0001
,
0000
0000
1001
0020
,
0000
0000
0030
0000
0000
1000
0000
0000
,
0000
0001
0000
0000
0000
0010
0000
0010
,
0000
0000
0000
0001
0000
0000
0000
1000
,
0000
0200
0000
0300
,
0000
0010
0000
0000
0000
0000
0000
0100
,
0000
0000
0000
0010
0000
0000
0000
1000
,
0000
0000
0000
1000
0000
0000
0000
0010
,
0000
0000
0000
0000
0000
0100
0000
0100
,
0000
0010
0000
0000
,
0001
0000
1000
0000
,
0010
0000
0100
0000
,
0000
0010
0020
0000
,
0000
0000
0000
0000
0000
0030
0000
0000
;
