#TITLE:Read or Die;
#SUBTITLE:- R.O.D. No Teema;
#ARTIST:岩崎琢;
#TITLETRANSLIT:;
#SUBTITLETRANSLIT:;
#ARTISTTRANSLIT:Taku Iwasaki;
#CREDIT:;
#BANNER:readordie - banner.PNG;
#BACKGROUND:readordie - bg.PNG;
#LYRICSPATH:;
#CDTITLE:;
#MUSIC:Read Or Die OST - 02 R.O.D. Theme -Opening Version-.mp3;
#OFFSET:0.200;
#SAMPLESTART:47.849;
#SAMPLELENGTH:12.000;
#SELECTABLE:YES;
#BPMS:0.000=124.918;
#STOPS:;
#BGCHANGES:;
// cache tags:
#FIRSTBEAT:1.000;
#LASTBEAT:188.000;
#SONGFILENAME:Songs/Anime Songs/Read or Die Opening/readordie.sm;
#HASMUSIC:1;
#HASBANNER:1;
#MUSICLENGTH:94.589;
// end cache tags

//---------------dance-single - ----------------
#NOTES:
     dance-single:
     :
     Challenge:
     7:
     0.397,0.571,0.825,0.085,0.206,177.000,78.000,8.000,0.000,1.000:  // measure 1
0000
0000
0000
0000
1000
0000
0000
0001
0000
0000
0100
0000
0010
0000
0000
1000
,  // measure 2
0000
0000
0100
0000
0001
0000
0000
0100
0000
0000
0010
0000
0100
0000
0000
1000
,  // measure 3
0000
0000
0100
0000
0010
0000
0000
0100
0000
0000
0001
0000
0010
0000
0000
0100
,  // measure 4
0000
1000
0110
0000
0110
0000
1001
0000
,  // measure 5
1001
1100
1010
0101
,  // measure 6
0011
0110
1001
0110
,  // measure 7
1001
1000
0100
1000
,  // measure 8
0100
0010
0001
0010
,  // measure 9
0001
0110
0110
1100
,  // measure 10
1100
0110
0110
0011
,  // measure 11
0011
0101
0101
1001
,  // measure 12
1001
1010
1010
1100
,  // measure 13
1100
0000
0000
0000
1100
0000
0000
1100
,  // measure 14
0000
0000
0011
0000
,  // measure 15
0000
0000
0000
0000
0110
0000
0000
1001
,  // measure 16
0000
0000
1001
0000
,  // measure 17
0000
0000
0000
0000
1100
0000
0000
0011
,  // measure 18
0000
0000
0000
0000
1010
0000
0000
0101
,  // measure 19
0000
0000
0000
0000
0110
0000
0000
1001
,  // measure 20
0000
0000
0000
0000
1001
0000
0000
0110
,  // measure 21
0000
2000
0000
3020
,  // measure 22
0000
0230
0000
0302
,  // measure 23
0000
0000
0003
0000
1000
0100
1000
0000
,  // measure 24
1001
0110
1100
0011
,  // measure 25
0110
1010
0101
0110
,  // measure 26
1001
0100
0010
0100
,  // measure 27
0010
0000
0000
0000
0000
0000
0000
0000
0000
0000
0000
0000
0000
0000
0000
0000
1000
0000
0000
0000
0100
0000
0000
0000
0000
0000
0000
0000
0100
0000
0000
0000
0000
0000
0000
0000
0000
0100
0000
0000
0000
0000
0000
0000
0000
0000
0000
0000
0001
0000
0000
0000
0010
0000
0000
0000
0000
0000
0000
0000
0010
0000
0000
0000
,  // measure 28
0000
0000
0000
0000
0000
0010
0000
0000
0000
0000
0000
0000
0000
0000
0000
0000
0100
0000
0000
0000
1000
0000
0000
0000
0000
0000
0000
0000
1000
0000
0000
0000
0000
0000
0000
0000
0000
1000
0000
0000
0000
0000
0000
0000
0000
0000
0000
0000
0010
0000
0000
0000
0001
0000
0000
0000
0000
0000
0000
0000
0001
0000
0000
0000
,  // measure 29
0000
0000
0000
0000
0000
0001
0000
0000
0000
0000
0000
0000
0000
0000
0000
0000
1000
0000
0000
0000
0000
0000
0000
0000
0100
0000
0000
0000
0000
0000
0000
0000
1000
0000
0000
0000
0100
0000
0000
0000
0000
0000
0000
0000
0010
0000
0000
0000
0001
0000
0000
0000
0000
0000
0000
0000
1000
0000
0000
0000
0000
0000
0000
0000
,  // measure 30
0001
0010
0000
0100
1000
0000
0010
0000
0100
0001
0000
0010
0100
0000
1000
0100
,  // measure 31
0000
0010
0001
0000
1000
0000
0000
0100
0000
0000
0010
0000
0001
0000
0000
0100
,  // measure 32
0000
0000
1000
0000
0010
0000
0000
0001
0000
0000
0100
0000
1000
0000
0000
0100
,  // measure 33
0000
0001
0000
0000
1001
0000
0000
1001
,  // measure 34
0000
0000
0110
0000
,  // measure 35
0000
0000
0000
0000
1010
0000
0000
0101
,  // measure 36
0000
0000
0110
0000
,  // measure 37
0000
0000
0000
0000
1100
0000
0000
0011
,  // measure 38
0000
0000
0000
0000
0101
0000
0000
1010
,  // measure 39
0000
0000
0000
0000
1001
0000
0000
0110
,  // measure 40
0000
0000
0000
0000
0110
0000
0000
1001
,  // measure 41
0000
0000
0000
0000
1000
0000
0000
0100
0000
0000
1000
0000
0001
0000
0000
0010
,  // measure 42
0000
0000
0001
0000
0100
0000
0000
0010
0000
0000
0100
0000
0010
0000
0000
0100
,  // measure 43
0000
0000
0010
0000
1100
0000
0000
0011
0000
0000
0110
0000
0110
0000
0000
0101
,  // measure 44
0000
0000
1010
0000
1001
0000
0000
1001
0000
0000
0101
0000
1010
0000
0000
0110
,  // measure 45
0000
0000
0110
0000
0000
0000
0000
0000
2000
0000
0000
0000
0000
0002
0000
0000
,  // measure 46
0000
3223
0000
0000
,  // measure 47
0000
0000
0000
0000
,  // measure 48
0330
0000
0000
0000
;
