#TITLE:In my life, my mind;
#SUBTITLE:Oh Henry!;
#ARTIST:Jeroen Tel;
#TITLETRANSLIT:;
#SUBTITLETRANSLIT:;
#ARTISTTRANSLIT:;
#CREDIT:;
#BANNER:../Fallback-Ban.png;
#BACKGROUND:../Fallback-BG.png;
#LYRICSPATH:;
#CDTITLE:../~CDTitle-@@.png;
#MUSIC:Jeroen Tel - In my life, my mind.ogg;
#OFFSET:-0.038;
#SAMPLESTART:127.121;
#SAMPLELENGTH:27.233;
#SELECTABLE:YES;
#BPMS:0.000=211.515;
#STOPS:;
#BGCHANGES:;
// cache tags:
#FIRSTBEAT:0.000;
#LASTBEAT:1036.000;
#SONGFILENAME:Songs/Oh Henry! Mad Stamina/In my life, my mind (19+)/In my life, my mind.sm;
#HASMUSIC:1;
#HASBANNER:1;
#MUSICLENGTH:296.808;
// end cache tags

//---------------dance-single - @@----------------
#NOTES:
     dance-single:
     @@:
     Challenge:
     19:
     1.000,1.000,0.003,0.000,1.000,4011.000,1.000,0.000,11.000,0.000:
1000
0100
0010
0001
1000
0001
0010
0100
0010
0001
1000
0100
1000
0010
0100
0010
,
1000
0001
0100
0010
0100
0001
1000
0100
1000
0001
0100
0010
1000
0001
0010
0100
,
1000
0010
1000
0001
0100
0010
0100
0001
1000
0010
0100
0010
1000
0100
0010
0001
,
1000
0001
0010
0100
1000
0001
0100
0001
1000
0100
0010
0100
1000
0001
0100
0010
,
1000
0100
0010
0100
1000
0001
1000
0100
0010
0001
0010
0100
1000
0010
1000
0001
,
0100
0010
0100
0001
1000
0100
0010
0001
1000
0010
1000
0001
0010
0001
1000
0100
,
1000
0010
0100
0010
1000
0001
0100
0001
1000
0010
0100
0010
1000
0100
0010
0100
,
1000
0001
0010
0100
1000
0001
0100
0010
1000
0001
0010
0001
1000
0010
0100
0010
,
1000
0100
1000
0001
0010
0001
1000
0100
0010
0001
1000
0100
1000
0010
0100
0010
,
1000
0001
0100
0010
1000
0001
0010
0100
1000
0001
0100
0001
1000
0100
0010
0100
,
1000
0010
0100
0010
1000
0001
0100
0010
0100
0001
1000
0010
1000
0100
0010
0001
,
1000
0001
0010
0100
1000
0001
0100
0001
1000
0100
0010
0100
1000
0001
0100
0010
,
1000
0100
0010
0100
1000
0001
0010
0001
1000
0100
0010
0100
1000
0010
0100
0010
,
1000
0001
0100
0001
1000
0100
0010
0100
1000
0001
0100
0001
1000
0100
0010
0100
,
1000
0010
0100
0001
0100
0010
1000
0001
0100
0001
1000
0010
1000
0100
0010
0001
,
1000
0100
0010
0100
1000
0001
0100
0001
1000
0100
0010
0100
1000
0001
1000
0001
,
0100
0001
1000
0001
0010
0001
1000
0010
1000
0100
0010
0001
1000
0001
0100
0010
,
1000
0001
0100
0001
1000
0010
0100
0001
0010
0100
0010
0001
1000
0100
0010
0001
,
1000
0010
1000
0001
1000
0100
0010
0001
0100
0010
0100
0001
1000
0001
0010
0100
,
1000
0001
0010
0100
0010
0001
1000
0100
1000
0010
0100
0010
1000
0001
0100
0010
,
0100
0001
1000
0001
0010
0001
1000
0010
1000
0100
0010
0001
1000
0001
0100
0010
,
1000
0001
1000
0010
0100
0001
0100
0010
1000
0100
1000
0001
0010
0100
0010
0001
,
1000
0010
1000
0001
1000
0100
0010
0001
0100
0001
1000
0010
0100
0001
1000
0100
,
1000
0001
0010
0100
0010
0001
1000
0100
1000
0010
0100
0010
1000
0001
1000
0010
,
0100
0001
1000
0001
0010
0001
1000
0010
1000
0100
0010
0100
1000
0001
1000
0010
,
0100
0001
1000
0010
1000
0001
0100
0010
1000
0100
1000
0001
0010
0100
0010
0001
,
1000
0010
1000
0001
1000
0100
0010
0001
0100
0010
1000
0010
0100
0001
1000
0100
,
0010
0100
1000
0001
0010
0100
0010
0001
0100
0010
1000
0001
0100
0010
1000
0010
,
0100
0001
1000
0001
0010
0001
1000
0010
1000
0100
0010
0100
1000
0001
0100
0010
,
0100
0001
1000
0010
1000
0001
0100
0001
0010
0100
1000
0001
1000
0100
0010
0100
,
1000
0010
0100
0001
1000
0001
0100
0010
1000
0100
0010
0001
1000
0001
0100
0010
,
1000
0001
0100
0001
1000
0010
0100
0010
1000
0100
0010
0100
1000
0001
1000
0001
,
0100
0010
0100
0001
1000
0010
1000
0001
0100
0001
1000
0010
1000
0100
0010
0001
,
1000
0001
0010
0100
1000
0001
0010
0001
0100
0010
1000
0001
0100
0001
1000
0010
,
1000
0100
0010
0001
1000
0001
0010
0100
1000
0001
0010
0001
0100
0010
1000
0001
,
0100
0001
1000
0010
1000
0001
0100
0001
0010
0100
1000
0001
0010
0100
0010
0001
,
0100
0010
0100
0001
0010
0100
1000
0001
0100
0001
1000
0010
0100
0010
1000
0001
,
1000
0100
0010
0001
1000
0001
0100
0010
1000
0100
0010
0100
1000
0001
0010
0100
,
1000
0010
1000
0001
0100
0010
0100
0001
0010
0100
1000
0001
1000
0010
0100
0010
,
1000
0001
0100
0001
1000
0010
0100
0010
1000
0100
1000
0001
0010
0001
1000
0100
,
1000
0010
0100
0001
0100
0010
1000
0001
1000
0010
0100
0010
1000
0100
0010
0001
,
1000
0001
0010
0100
1000
0001
0010
0001
0100
0010
1000
0001
0100
0001
1000
0010
,
1000
0100
0010
0001
1000
0100
1000
0001
0010
0100
0010
0001
0100
0010
1000
0001
,
0100
0001
1000
0010
1000
0001
0100
0010
1000
0100
0010
0001
1000
0001
0010
0100
,
1000
0010
0100
0001
1000
0001
0100
0010
1000
0100
0010
0100
1000
0001
0010
0100
,
1000
0001
0010
0001
0100
0010
1000
0001
0100
0001
0010
0100
1000
0001
0100
0010
,
1000
0100
0010
0001
1000
0001
0100
0010
1000
0100
0010
0100
1000
0001
0100
0001
,
1000
0010
1000
0100
0010
0001
1000
0001
0010
0100
1000
0010
1000
0001
0100
0010
,
1000
0100
0010
0001
1000
0100
0010
0100
1000
0001
0010
0100
1000
0010
1000
0001
,
0100
0001
1000
0010
0100
0001
1000
0010
1000
0100
0010
0001
1000
0001
0010
0100
,
1000
0010
0100
0010
1000
0001
0100
0001
1000
0010
0100
0010
1000
0100
0010
0001
,
1000
0100
1000
0001
0010
0001
1000
0100
1000
0010
0100
0001
1000
0001
0100
0010
,
1000
0100
0010
0001
1000
0001
0010
0100
1000
0100
0010
0001
0100
0010
1000
0001
,
0100
0001
1000
0010
1000
0001
0100
0010
1000
0100
0010
0100
1000
0001
0010
0100
,
1000
0010
0100
0010
1000
0001
0100
0001
1000
0010
0100
0010
1000
0100
0010
0001
,
1000
0100
1000
0001
0010
0001
1000
0100
1000
0010
0100
0010
1000
0001
0100
0010
,
1000
0100
0010
0100
1000
0001
0010
0001
1000
0100
0010
0100
1000
0010
0100
0001
,
0100
0010
1000
0010
0100
0001
0100
0010
1000
0100
0010
0001
1000
0001
0100
0010
,
1000
0100
1000
0001
0010
0100
1000
0001
1000
0100
0010
0001
0100
0010
1000
0001
,
0100
0001
1000
0010
1000
0001
0100
0010
1000
0100
0010
0001
1000
0001
0100
0010
,
1000
0100
0010
0001
1000
0001
0010
0100
1000
0001
0100
0010
1000
0001
0100
0001
,
1000
0100
0010
0001
1000
0001
0010
0100
1000
0001
0100
0001
1000
0010
0100
0010
,
1000
0100
0010
0100
1000
0001
0100
0010
1000
0100
0010
0100
1000
0001
0100
0010
,
1000
0100
0010
0001
0100
0001
1000
0010
1000
0100
0010
0001
0100
0001
1000
0010
,
1000
0100
0010
0001
1000
0001
0010
0100
1000
0001
0010
0001
0100
0010
1000
0001
,
0100
0001
1000
0010
1000
0001
0100
0010
1000
0100
1000
0001
0010
0100
0010
0001
,
0100
0010
1000
0001
0100
0001
1000
0010
1000
0001
0100
0001
0010
0100
1000
0001
,
1000
0100
0010
0001
1000
0100
0010
0100
1000
0010
0100
0001
1000
0010
0100
0010
,
1000
0100
0010
0100
1000
0001
0010
0100
1000
0001
0010
0001
0100
0010
1000
0001
,
0100
0001
1000
0010
1000
0001
0100
0010
1000
0100
0010
0100
1000
0001
0010
0100
,
1000
0010
1000
0001
0100
0001
1000
0010
1000
0001
0010
0001
1000
0100
0010
0100
,
1000
0001
0100
0010
0100
0001
1000
0010
1000
0001
0010
0100
1000
0010
1000
0001
,
1000
0100
0010
0001
1000
0001
0010
0100
1000
0001
0010
0001
0100
0010
1000
0001
,
0100
0001
1000
0010
1000
0001
0100
0001
0010
0100
1000
0001
0010
0001
1000
0100
,
1000
0010
0100
0001
1000
0010
0100
0010
1000
0001
0100
0001
0010
0100
1000
0100
,
0010
0001
1000
0001
0010
0100
0010
0001
0100
0010
1000
0001
0100
0001
1000
0010
,
1000
0100
0010
0001
1000
0001
0010
0100
1000
0001
0010
0001
0100
0010
1000
0001
,
0100
0001
1000
0010
0100
0001
0100
0010
1000
0100
0010
0100
1000
0001
0100
0010
,
1000
0100
1000
0001
0010
0100
1000
0001
1000
0100
0010
0001
1000
0010
0100
0001
,
1000
0010
1000
0001
0010
0100
0010
0001
1000
0010
0100
0010
1000
0001
0010
0001
,
0100
0010
1000
0001
0100
0001
1000
0010
0100
0001
1000
0010
1000
0100
0010
0100
,
1000
0001
0010
0100
1000
0001
0010
0001
0100
0010
1000
0001
0100
0001
1000
0010
,
1000
0100
0010
0001
1000
0100
0010
0100
1000
0001
0010
0100
1000
0010
0100
0001
,
1000
0001
0100
0010
1000
0001
0100
0001
0010
0100
1000
0001
0010
0001
1000
0100
,
1000
0010
0100
0001
1000
0010
1000
0001
0100
0010
0100
0001
0010
0100
1000
0001
,
1000
0100
0010
0001
1000
0100
0010
0100
1000
0010
0100
0001
1000
0001
0100
0010
,
1000
0100
0010
0100
1000
0001
0010
0100
1000
0001
0100
0001
1000
0010
1000
0001
,
0010
0100
1000
0001
1000
0100
0010
0001
1000
0010
0100
0010
1000
0001
0010
0001
,
0100
0010
1000
0010
0100
0001
1000
0001
0100
0010
0100
0001
0010
0100
1000
0001
,
1000
0100
0010
0100
1000
0001
0010
0100
1000
0010
0100
0010
1000
0001
0100
0001
,
0010
0100
1000
0001
1000
0100
0010
0001
1000
0001
0010
0100
1000
0010
0100
0010
,
1000
0001
1000
0010
0100
0001
0100
0010
1000
0100
0010
0100
1000
0001
0100
0010
,
1000
0100
0010
0001
1000
0001
0010
0100
1000
0001
0010
0001
1000
0100
1000
0010
,
0100
0001
0100
0010
1000
0001
0100
0001
1000
0010
0100
0010
1000
0100
0010
0100
,
1000
0001
0100
0010
1000
0001
0100
0001
1000
0100
0010
0100
1000
0001
0010
0100
,
1000
0001
0100
0001
1000
0010
0100
0010
1000
0001
0100
0001
0010
0100
1000
0100
,
0010
0001
1000
0001
0100
0001
1000
0100
1000
0010
0100
0001
1000
0001
0010
0100
,
1000
0001
0010
0001
1000
0100
0010
0001
0100
0010
0100
0001
1000
0010
0100
0001
,
1000
0100
1000
0001
1000
0010
0100
0001
0010
0100
0010
0001
1000
0001
0100
0010
,
1000
0001
0100
0010
0100
0001
1000
0010
1000
0100
0010
0100
1000
0001
0010
0100
,
0010
0001
1000
0001
0100
0001
1000
0100
1000
0010
0100
0001
1000
0001
0010
0100
,
1000
0001
1000
0100
0010
0001
0010
0100
1000
0010
1000
0001
0100
0010
0100
0001
,
1000
0100
1000
0001
1000
0010
0100
0001
0010
0001
1000
0100
0010
0001
1000
0010
,
0100
0001
1000
0001
0010
0001
1000
0010
1000
0100
0010
0001
1000
0010
0100
0001
,
1000
0010
1000
0001
1000
0100
0010
0001
0100
0010
0100
0001
1000
0001
0010
0100
,
1000
0001
0010
0100
0010
0001
1000
0100
1000
0010
0100
0010
1000
0001
0100
0010
,
0100
0001
1000
0001
0010
0001
1000
0010
1000
0100
0010
0001
1000
0001
0100
0010
,
1000
0001
1000
0010
0100
0001
0100
0010
1000
0100
1000
0001
0010
0100
0010
0001
,
1000
0010
1000
0001
1000
0100
0010
0001
0100
0001
1000
0010
0100
0001
1000
0100
,
1000
0001
0010
0100
0010
0001
1000
0100
1000
0010
0100
0010
1000
0001
1000
0010
,
0100
0001
1000
0001
0010
0001
1000
0010
0100
0001
1000
0100
1000
0001
1000
0010
,
1000
0000
0000
0000
,
0001
0010
0100
1000
0001
1000
0010
0100
0001
0010
0100
1000
0001
1000
0100
0010
,
0001
1000
0010
1000
0001
0100
0001
1000
0100
0010
0100
1000
0001
0100
0010
0100
,
0001
0010
0100
1000
0001
0010
0001
1000
0100
0010
0001
1000
0001
0100
0010
1000
,
0100
0010
0100
1000
0001
0010
0100
1000
0001
1000
0010
0100
0010
1000
0001
0100
,
0001
0010
0100
1000
0001
1000
0100
0010
0001
1000
0010
0100
0001
1000
0010
1000
,
0001
0100
0010
0100
0001
0010
0100
1000
0001
0100
0001
1000
0100
0010
0001
1000
,
0001
0100
0010
0100
0001
1000
0010
1000
0100
0010
0100
1000
0010
0100
0010
1000
,
0001
0100
0001
1000
0010
0100
0001
1000
0100
0010
0100
1000
0001
1000
0010
0100
,
0001
0010
0100
1000
0001
0010
0100
0010
0001
1000
0010
1000
0001
0010
0100
1000
,
0001
0100
0001
1000
0100
0010
0001
1000
0010
0100
0001
1000
0001
0100
0010
1000
,
0100
0010
0001
1000
0010
0100
0010
1000
0001
0010
0100
1000
0001
0100
0001
1000
,
0010
1000
0001
0100
0001
0010
0100
1000
0010
0100
0001
1000
0100
0010
0001
0100
,
0001
1000
0100
0010
0100
1000
0001
0010
0001
1000
0010
1000
0001
0100
0010
1000
,
0001
0010
0100
1000
0001
1000
0100
0010
0001
0100
0010
1000
0001
0010
0100
0010
,
0001
1000
0100
0010
0100
1000
0001
0010
0001
0100
0010
1000
0100
0010
0001
1000
,
0100
0010
0100
1000
0010
0100
0001
1000
0100
0010
0100
1000
0001
0100
0010
0100
,
0001
1000
0010
1000
0001
0100
0010
0100
0001
0010
0100
1000
0001
0010
0100
0010
,
0001
1000
0010
0100
0010
1000
0001
0100
0001
0010
0100
1000
0001
0100
0010
0100
,
0001
0010
0100
1000
0001
1000
0100
0010
0001
1000
0100
1000
0010
0100
0001
1000
,
0001
0100
0010
0100
0001
0010
0001
1000
0100
1000
0010
0100
0001
0010
0100
1000
,
0010
1000
0001
0100
0001
1000
0100
0010
0001
0100
0010
1000
0001
0010
0100
1000
,
0001
0010
0100
0010
0001
1000
0010
0100
0001
1000
0100
1000
0001
0100
0010
0100
,
0001
0010
0100
1000
0001
0010
0100
0010
0001
1000
0010
0100
0010
1000
0001
0010
,
0001
0100
0010
1000
0001
1000
0010
0100
0001
1000
0100
1000
0010
0100
0001
0010
,
0100
1000
0001
1000
0010
0100
0001
1000
0001
0010
0001
1000
0010
0100
0010
1000
,
0100
0010
0001
1000
0001
0010
0100
1000
0010
0100
0001
1000
0100
1000
0001
0100
,
0010
1000
0001
1000
0100
1000
0010
0100
0001
1000
0001
0100
0010
0100
0001
0010
,
0100
1000
0100
0010
0001
1000
0010
0100
0001
1000
0100
1000
0001
0010
0001
0100
,
0010
1000
0001
0100
0010
1000
0010
0100
0001
1000
0001
0010
0100
1000
0001
0010
,
0001
1000
0010
0100
0001
0100
0010
1000
0100
0010
0001
1000
0100
1000
0001
0010
,
0001
0100
0010
1000
0001
0100
0010
0100
0001
0010
0100
0010
0001
1000
0100
0010
,
0001
0100
0010
1000
0001
0100
0001
1000
0100
0010
0100
1000
0001
0010
0100
0010
,
0001
0100
0010
1000
0001
0100
0010
0100
0001
1000
0010
0100
0001
0010
0001
1000
,
0100
1000
0001
0010
0100
1000
0001
0010
0001
0100
0010
1000
0001
1000
0010
0100
,
0001
0010
0100
0010
0001
1000
0100
1000
0001
0010
0100
0010
0001
0100
0010
1000
,
0001
0100
0001
1000
0010
1000
0001
0100
0001
0010
0100
1000
0001
1000
0100
0010
,
0001
0100
0010
1000
0001
1000
0010
0100
0001
0100
0010
1000
0100
0010
0001
1000
,
0100
1000
0001
0010
0001
1000
0100
0010
0001
0100
0010
0100
0001
1000
0010
0100
,
0001
0010
0100
0010
0001
1000
0100
1000
0001
0010
0100
0010
0001
0100
0010
1000
,
0001
0100
0001
1000
0010
1000
0001
0100
0001
0010
0100
0010
0001
1000
0100
0010
,
0001
0100
0010
0100
0001
1000
0010
1000
0001
0100
0010
0100
0001
0010
0100
1000
,
0100
0010
0001
0010
0100
1000
0100
0010
0001
0100
0010
1000
0001
1000
0100
0010
,
0001
0100
0001
1000
0010
0100
0001
1000
0001
0100
0010
1000
0100
0010
0001
1000
,
0100
1000
0001
0010
0001
1000
0100
0010
0001
0100
0010
1000
0001
1000
0100
0010
,
0001
0100
0010
1000
0001
1000
0010
0100
0001
1000
0100
0010
0001
1000
0100
1000
,
0001
0100
0010
1000
0001
1000
0010
0100
0001
1000
0100
1000
0001
0010
0100
0010
,
0001
0100
0010
0100
0001
1000
0100
0010
0001
0100
0010
0100
0001
1000
0100
0010
,
0001
0100
0010
1000
0100
1000
0001
0010
0001
0100
0010
1000
0100
1000
0001
0010
,
0001
0100
0010
1000
0001
1000
0010
0100
0001
1000
0010
1000
0100
0010
0001
1000
,
0100
1000
0001
0010
0001
1000
0100
0010
0001
0100
0001
1000
0010
0100
0010
1000
,
0100
0010
0001
1000
0100
1000
0001
0010
0001
1000
0100
1000
0010
0100
0001
1000
,
0001
0100
0010
1000
0001
0100
0010
0100
0001
0010
0100
1000
0001
0010
0100
0010
,
0001
0100
0010
0100
0001
1000
0010
0100
0001
1000
0010
1000
0100
0010
0001
1000
,
0100
1000
0001
0010
0001
1000
0100
0010
0001
0100
0010
0100
0001
1000
0010
0100
,
0001
0010
0001
1000
0100
1000
0001
0010
0001
1000
0010
1000
0001
0100
0010
0100
,
0001
1000
0100
0010
0100
1000
0001
0010
0001
1000
0010
0100
0001
0010
0001
1000
,
0001
0100
0010
1000
0001
1000
0010
0100
0001
1000
0010
1000
0100
0010
0001
1000
,
0100
1000
0001
0010
0001
1000
0100
1000
0010
0100
0001
1000
0010
1000
0001
0100
,
0001
0010
0100
1000
0001
0010
0100
0010
0001
1000
0100
1000
0010
0100
0001
0100
,
0010
1000
0001
1000
0010
0100
0010
1000
0100
0010
0001
1000
0100
1000
0001
0010
,
0001
0100
0010
1000
0001
1000
0010
0100
0001
1000
0010
1000
0100
0010
0001
1000
,
0100
1000
0001
0010
0100
1000
0100
0010
0001
0100
0010
0100
0001
1000
0100
0010
,
0001
0100
0001
1000
0010
0100
0001
1000
0001
0100
0010
1000
0001
0010
0100
1000
,
0001
0010
0001
1000
0010
0100
0010
1000
0001
0010
0100
0010
0001
1000
0010
1000
,
0100
0010
0001
1000
0100
1000
0001
0010
0100
1000
0001
0010
0001
0100
0010
0100
,
0001
1000
0010
0100
0001
1000
0010
1000
0100
0010
0001
1000
0100
1000
0001
0010
,
0001
0100
0010
1000
0001
0100
0010
0100
0001
1000
0010
0100
0001
0010
0100
1000
,
0001
1000
0100
0010
0001
1000
0100
1000
0010
0100
0001
1000
0010
1000
0001
0100
,
0001
0010
0100
1000
0001
0010
0001
1000
0100
0010
0100
1000
0010
0100
0001
1000
,
0001
0100
0010
1000
0001
0100
0010
0100
0001
0010
0100
1000
0001
1000
0100
0010
,
0001
0100
0010
0100
0001
1000
0010
0100
0001
1000
0100
1000
0001
0010
0001
1000
,
0010
0100
0001
1000
0001
0100
0010
1000
0001
0010
0100
0010
0001
1000
0010
1000
,
0100
0010
0001
0010
0100
1000
0001
1000
0100
0010
0100
1000
0010
0100
0001
1000
,
0001
0100
0010
0100
0001
1000
0010
0100
0001
0010
0100
0010
0001
1000
0100
1000
,
0010
0100
0001
1000
0001
0100
0010
1000
0001
1000
0010
0100
0001
0010
0100
0010
,
0001
1000
0001
0010
0100
1000
0100
0010
0001
0100
0010
0100
0001
1000
0100
0010
,
0001
0100
0010
1000
0001
0100
0001
1000
0010
1000
0001
0010
0001
0100
0010
1000
,
0001
0010
0001
1000
0100
0010
0100
1000
0010
0100
0001
1000
0001
0010
0100
1000
,
0001
1000
0100
0010
0001
1000
0100
1000
0010
0100
0001
1000
0010
1000
0001
0100
,
0001
1000
0100
0010
0100
1000
0001
0010
0001
0100
0010
1000
0001
0100
0001
0010
,
0100
1000
0001
0010
0100
0010
0001
1000
0001
0010
0100
0010
0001
0100
0001
1000
,
0010
0100
0010
1000
0001
1000
0100
0010
0001
0100
0010
0100
0001
1000
0010
1000
,
0100
0010
0001
1000
0100
0010
0100
1000
0001
0010
0100
1000
0010
0100
0001
1000
,
0001
0100
0010
1000
0001
0100
0010
0100
0001
0010
0100
1000
0001
1000
0010
0100
,
0001
0010
0100
1000
0001
0010
0001
1000
0100
0010
0001
1000
0001
0010
0100
1000
,
0010
0100
0010
1000
0001
1000
0010
0100
0001
0010
0100
1000
0010
0000
0000
0000
,
0000
0000
0000
0000
,
4000
0000
0000
0000
,
3001
0100
0010
1000
0001
1000
0010
0100
0010
1000
0001
0100
0001
0010
0100
0010
,
0001
1000
0100
0010
0100
1000
0001
0100
0001
1000
0100
0010
0001
1000
0010
0100
,
0001
0010
0001
1000
0100
0010
0100
1000
0001
0010
0100
0010
0001
0100
0010
1000
,
0001
1000
0010
0100
0001
1000
0100
1000
0001
0100
0010
0100
0001
1000
0100
0010
,
0001
0100
0010
0100
0001
1000
0001
0100
0010
1000
0010
0100
0001
0010
0001
1000
,
0100
0010
0100
1000
0001
0100
0010
1000
0001
0010
0001
1000
0010
1000
0001
0100
,
0001
0010
0100
0010
0001
1000
0100
1000
0001
0010
0100
0010
0001
0100
0010
0100
,
0001
1000
0010
0100
0001
1000
0100
0010
0001
1000
0010
1000
0001
0010
0100
0010
,
0001
0100
0001
1000
0010
1000
0001
0100
0010
1000
0001
0100
0001
0010
0100
0010
,
0001
1000
0100
0010
0001
1000
0010
0100
0001
1000
0100
1000
0001
0100
0010
0100
,
0001
0010
0100
0010
0001
1000
0100
0010
0100
1000
0001
0010
0001
0100
0010
1000
,
0001
1000
0010
0100
0001
1000
0100
1000
0001
0100
0010
0100
0001
1000
0100
0010
,
0001
0100
0010
0100
0001
1000
0010
1000
0001
0100
0010
0100
0001
0010
0100
0010
,
0001
1000
0100
1000
0001
0100
0010
0100
0001
1000
0100
1000
0001
0100
0010
0100
,
0001
0010
0100
1000
0100
0010
0001
1000
0100
1000
0001
0010
0001
0100
0010
1000
,
0001
0100
0010
0100
0001
1000
0100
1000
0001
0100
0010
0100
0001
1000
0001
1000
,
0001
0010
0100
1000
0001
1000
0100
0010
0001
1000
0100
1000
0010
0100
0001
1000
,
0010
1000
0001
0100
0001
1000
0010
0100
0001
0010
0001
1000
0100
0010
0100
1000
,
0010
0100
0001
1000
0010
1000
0001
0100
0001
1000
0010
1000
0100
0010
0001
1000
,
0001
0010
0100
1000
0001
0010
0100
0010
0001
0100
0010
1000
0001
0100
0010
0100
,
0001
0010
0100
0010
0001
1000
0100
0010
0001
1000
0100
1000
0010
0100
0001
1000
,
0010
1000
0001
0100
0001
1000
0010
0100
0001
0010
0100
0010
0001
1000
0100
0010
,
0001
0100
0001
1000
0010
1000
0001
0100
0001
1000
0100
1000
0001
0010
0100
0010
,
0001
1000
0010
0100
0010
1000
0001
0100
0001
1000
0100
0010
0001
0100
0001
1000
,
0001
0010
0100
1000
0001
1000
0100
0010
0001
1000
0100
1000
0010
0100
0001
1000
,
0010
1000
0001
0100
0001
1000
0010
1000
0100
0010
0001
1000
0100
1000
0001
0010
,
0001
0100
0010
1000
0001
0100
0010
0100
0001
1000
0010
1000
0100
0010
0001
0010
,
0100
1000
0001
1000
0100
0010
0100
1000
0010
0100
0001
1000
0010
1000
0001
0100
,
0001
0010
0100
1000
0001
1000
0100
0010
0001
1000
0100
1000
0010
0100
0001
1000
,
0010
1000
0001
0100
0010
1000
0010
0100
0001
0010
0100
0010
0001
1000
0010
0100
,
0001
0010
0001
1000
0100
0010
0001
1000
0001
0010
0100
1000
0001
0100
0010
1000
,
0001
0100
0001
1000
0100
0010
0100
1000
0001
0100
0010
0100
0001
1000
0100
1000
,
0010
0100
0001
1000
0010
1000
0001
0100
0010
1000
0001
0100
0001
0010
0100
0010
,
0001
1000
0100
0010
0001
1000
0100
1000
0010
0100
0001
1000
0010
1000
0001
0100
,
0001
0010
0100
1000
0001
0010
0100
0010
0001
1000
0100
0010
0001
0100
0010
1000
,
0001
1000
0010
0100
0001
1000
0010
1000
0100
0010
0001
1000
0100
1000
0001
0010
,
0001
0100
0010
1000
0001
0100
0001
1000
0010
0100
0010
1000
0100
0010
0001
1000
,
0001
0010
0100
1000
0001
0010
0100
0010
0001
0100
0010
1000
0001
1000
0010
0100
,
0001
0010
0100
0010
0001
1000
0100
0010
0001
1000
0010
1000
0001
0100
0001
1000
,
0100
0010
0001
1000
0001
0010
0100
1000
0001
0100
0010
0100
0001
1000
0100
1000
,
0010
0100
0001
0100
0010
1000
0001
1000
0010
0100
0010
1000
0100
0010
0001
1000
,
0001
0010
0100
0010
0001
1000
0100
0010
0001
0100
0010
0100
0001
1000
0010
1000
,
0100
0010
0001
1000
0001
0010
0100
1000
0001
1000
0100
0010
0001
0100
0010
0100
,
0001
1000
0001
0100
0010
1000
0010
0100
0001
0010
0100
0010
0001
1000
0010
0100
,
0001
0010
0100
1000
0001
0010
0001
1000
0100
1000
0001
0100
0001
0010
0100
1000
,
0001
0100
0001
1000
0010
0100
0010
1000
0100
0010
0001
1000
0001
0100
0010
1000
,
0001
1000
0010
0100
0001
1000
0010
1000
0100
0010
0001
1000
0100
1000
0001
0010
,
0001
1000
0010
0100
0010
1000
0001
0100
0001
0010
0100
1000
0001
0010
0001
0100
,
0010
1000
0001
0100
0010
0100
0001
1000
0001
0100
0010
0100
0001
0010
0001
1000
,
0100
0010
0100
1000
0001
1000
0010
0100
0001
0010
0100
0010
0001
1000
0100
1000
,
0010
0100
0001
1000
0010
0100
0010
1000
0001
0100
0010
1000
0100
0010
0001
1000
,
0001
0010
0100
1000
0001
0010
0100
0010
0001
0100
0010
1000
0001
1000
0100
0010
,
0001
0100
0010
1000
0001
0100
0001
1000
0010
0100
0001
1000
0001
0100
0010
1000
,
0100
0010
0100
1000
0001
1000
0100
0010
0001
0100
0010
1000
0100
0000
0000
0000
,
000M
0000
00M0
0000
,
M000
0000
000M
0000
,
00M0
0000
000M
0000
,
M000
0000
00M0
0000
,
000M
0000
M000
0000
,
000M
0000
0000
0000
;
