#TITLE:Cross Time;
#SUBTITLE:;
#ARTIST:Brandy;
#TITLETRANSLIT:;
#SUBTITLETRANSLIT:;
#ARTISTTRANSLIT:;
#CREDIT:;
#BANNER:crosstime-banner.png;
#BACKGROUND:crosstime-bg.png;
#LYRICSPATH:;
#CDTITLE:;
#MUSIC:266_Cross_Time.mp3;
#OFFSET:0.120;
#SAMPLESTART:45.133;
#SAMPLELENGTH:15.500;
#SELECTABLE:YES;
#BPMS:0.000=160.030;
#STOPS:;
#BGCHANGES:;
// cache tags:
#FIRSTBEAT:1.000;
#LASTBEAT:393.000;
#SONGFILENAME:Songs/Community Keyboard Megapack - Volume 2/(Laggy) Cross Time/crosstime.sm;
#HASMUSIC:1;
#HASBANNER:1;
#MUSICLENGTH:148.408;
// end cache tags

//---------------dance-single - ----------------
#NOTES:
     dance-single:
     :
     Hard:
     11:
     1.000,1.000,1.000,0.553,0.802,870.000,203.000,82.000,0.000,0.000:  // measure 1
0000
0000
1001
1000
0100
0010
0001
0100
,  // measure 2
0010
1000
0000
0000
0010
0001
0100
1000
,  // measure 3
0010
0100
0001
1000
0010
0100
0001
0010
,  // measure 4
0100
1000
0000
0000
1000
0100
0001
0100
,  // measure 5
1000
0000
0100
0000
1001
0000
0100
0000
1000
0100
0010
0100
1001
0000
0100
0000
,  // measure 6
0100
0100
1001
0010
0010
1001
0100
1001
,  // measure 7
0100
0100
1001
1010
0100
0010
0101
1001
,  // measure 8
1000
0100
1001
1001
0010
1100
1010
0011
,  // measure 9
0101
0000
0110
0000
2002
3003
0100
0000
0100
0000
0100
0000
0100
0000
1001
0000
,  // measure 10
0010
0000
0001
0000
0011
0000
0100
0000
1000
0000
0100
0000
1010
0000
0000
1001
,  // measure 11
0000
0000
1001
0000
1001
0000
1001
0000
0100
0000
0010
0010
0010
0000
0101
0000
,  // measure 12
0010
0000
0010
0000
1000
0100
0000
0100
0000
0100
0010
0000
0010
0000
0010
0100
,  // measure 13
0000
1000
0001
0000
0010
0100
0000
0100
0000
0100
0001
0000
0100
0000
0001
1000
,  // measure 14
0000
0010
0100
0000
1000
0001
0010
0000
1001
0000
1001
0000
0110
0000
0000
0000
,  // measure 15
0110
0000
0000
0000
0110
0000
1000
0100
0010
0001
0010
0100
0000
1000
0100
0010
,  // measure 16
0001
0010
0100
1000
0010
0010
0000
0100
0000
0100
1000
0000
1000
0000
1000
0100
,  // measure 17
0000
0001
0010
0000
0010
0100
0000
1000
0000
1000
0100
0000
0001
0000
0001
0010
,  // measure 18
0000
0010
0100
0000
1000
0100
0010
0000
1001
0000
1001
0000
0110
0000
0000
0000
,  // measure 19
0110
0000
0000
0000
0110
0000
0001
0010
0100
1000
0100
0010
0000
0001
0010
0100
,  // measure 20
1000
0100
0010
0000
1001
0000
1000
0000
0100
0000
0010
0000
1001
0000
0000
1001
,  // measure 21
0000
1001
1100
0000
0100
0000
1001
0010
,  // measure 22
0010
0010
1001
0010
0100
1001
0100
1001
,  // measure 23
0100
0010
1100
1100
0001
1000
0011
0011
,  // measure 24
1000
0001
1100
1100
1000
0022
0000
0033
,  // measure 25
0022
0033
0011
0000
1000
0000
0010
1100
,  // measure 26
0001
0000
0001
0000
1100
0000
0010
0000
0100
0000
0010
0000
1100
0000
0010
0100
,  // measure 27
0010
0000
1100
0000
1100
0000
1000
0100
0010
0001
0010
0100
0000
1000
0100
0010
,  // measure 28
0001
0010
0100
0000
0001
0010
0001
0010
0001
0010
0001
0010
1100
0000
0000
1100
,  // measure 29
0000
0000
1100
0000
1100
0000
0000
0110
0000
0000
0110
0000
0011
0000
0000
1100
,  // measure 30
0000
0000
0110
0000
0011
0000
0000
1100
0000
0000
0101
0000
0011
0000
0000
0110
,  // measure 31
0000
0000
0011
0000
0012
0000
0003
0011
0000
0000
0001
0010
0001
0000
0100
1000
,  // measure 32
0100
0000
0001
0010
2100
0000
3000
1100
0000
0000
1000
0100
0010
0000
0010
0100
,  // measure 33
1000
0000
0010
0001
0210
0000
0300
0110
0000
0000
0100
1000
0100
0000
0100
1000
,  // measure 34
0100
0000
0100
1000
0102
0000
0003
0101
0000
0000
0110
0000
2010
0000
3000
1010
,  // measure 35
0000
0000
0110
0000
1002
0000
0003
1001
0000
0000
0001
0010
1000
0000
0001
0010
,  // measure 36
1000
0000
0001
0010
1200
0000
0300
1100
0000
0000
0010
0100
0010
0000
0010
0100
,  // measure 37
0010
0000
0010
0100
0022
0000
0033
0000
0012
0000
0000
0010
0003
0000
0220
0000
,  // measure 38
0330
0000
2200
0000
3300
0000
2100
0000
0000
0100
3100
0000
0220
0000
0330
0000
,  // measure 39
0220
0000
0330
0000
1000
0100
1000
0100
0010
0000
0001
0000
1100
0000
1000
0000
,  // measure 40
0100
0000
0010
0000
0001
0010
0001
0010
0100
0000
1000
0000
0110
0000
0100
0000
,  // measure 41
0100
0000
0100
0000
1000
0100
1000
0100
0010
0000
0001
0000
1010
0000
0001
0000
,  // measure 42
0010
0120
0000
0130
1100
2100
0000
3100
,  // measure 43
0110
0000
0101
0000
0001
0010
0001
0010
0100
0000
1000
0000
1010
0000
1000
0000
,  // measure 44
1000
0000
1000
0000
1000
0100
1000
0100
0010
0000
0001
0000
0011
0000
0010
0000
,  // measure 45
0001
0000
0010
0000
0220
0000
0330
0000
0210
0000
0000
0010
0300
0000
2200
0000
,  // measure 46
3300
0000
0220
0000
0330
0000
0012
0000
0000
0010
0013
0000
2200
0000
3300
0000
,  // measure 47
2200
0000
3300
0000
1001
0000
1000
0100
0010
0001
0010
0100
0000
1000
0100
0010
,  // measure 48
0001
0010
0100
0000
1100
0000
0010
0000
0110
0000
0100
0000
0011
0000
0100
0000
,  // measure 49
1100
0000
0010
0000
0101
0000
0001
0010
0100
1000
0100
0010
0000
0001
0010
0100
,  // measure 50
1000
0100
0010
0000
0100
0100
0000
0010
0000
0010
1000
0000
1000
0000
1000
0100
,  // measure 51
0000
0001
0010
0000
0010
0100
0000
1000
0000
1000
0100
0000
0001
0000
0001
0010
,  // measure 52
0000
0010
0100
0000
0100
0100
0000
0010
0000
0010
1000
0000
1000
0000
1000
0100
,  // measure 53
0000
0001
0010
0000
1001
0000
1000
0100
0010
0001
0010
0100
0000
0001
0010
0100
,  // measure 54
1000
0100
0010
0000
1001
0000
0100
0000
0110
0000
1001
0000
0110
0000
0000
0110
,  // measure 55
0000
0000
0110
0000
1001
0000
1000
0000
0001
0100
1000
0100
1001
0000
0100
0000
,  // measure 56
0010
0001
1010
0100
0001
0011
0010
0101
,  // measure 57
0001
0010
1100
1100
0001
0100
1010
1010
,  // measure 58
0100
0100
0011
0011
0001
2200
3300
2200
,  // measure 59
0000
0000
3300
0000
0110
0000
1000
0000
0100
0001
0100
1000
0100
0000
1001
0000
,  // measure 60
0010
0000
0010
0000
1100
0000
1000
0000
0100
0000
0010
0000
0101
0000
0000
0101
,  // measure 61
0000
0000
0101
0000
0011
0000
1010
0000
0100
0010
0001
0010
0100
0000
0101
0000
,  // measure 62
0010
0000
0010
0000
0010
0100
1000
0100
0010
0001
0010
0100
1000
0100
0010
0001
,  // measure 63
0010
1000
0010
0001
0010
1000
0100
0001
0100
1000
0100
1000
0100
0010
0001
0010
,  // measure 64
0001
0010
2002
0000
0000
0000
0000
0000
0000
0000
0000
0000
0000
0000
0000
0000
,  // measure 65
0000
0000
0000
0000
,  // measure 66
3003
0000
1000
0010
0100
0001
0010
0100
,  // measure 67
1000
0100
0001
0100
1000
0010
0100
0001
,  // measure 68
0100
0000
0010
0000
1000
0000
0001
0000
0010
0000
0100
0000
1000
0000
0100
0100
,  // measure 69
0000
0100
0000
0100
0010
0001
0000
0001
,  // measure 70
0100
0010
1000
0100
0010
0001
0010
1000
,  // measure 71
0010
0001
0100
0010
1000
0100
0001
0100
,  // measure 72
1000
0000
0100
0000
0010
0000
0001
0000
1000
0000
0001
0000
0010
0000
1000
1000
,  // measure 73
0000
0010
0000
0010
0100
1000
0000
1000
,  // measure 74
0010
0000
0001
0000
0011
0000
0001
0010
0001
0000
0010
0100
0010
0000
1000
0100
,  // measure 75
1000
0000
0100
0010
0100
0000
0010
0001
0010
0000
0010
0100
0010
0000
0100
1000
,  // measure 76
0100
0000
0100
0010
0100
0000
0010
0001
0010
0000
0100
0010
0100
0000
1000
0100
,  // measure 77
1000
0000
0010
0100
0010
0001
0010
0100
0010
0001
0010
0100
1000
0100
0010
0001
,  // measure 78
0010
0100
1000
0100
0010
0001
0010
0000
0001
0010
0001
0000
0010
0100
0010
0000
,  // measure 79
1000
0100
1000
0000
0100
0010
0100
0000
0010
0001
0010
0000
0001
0010
0001
0000
,  // measure 80
0010
0100
0010
0000
1000
0100
1000
0010
0100
0010
0100
0001
0010
0001
0010
0100
,  // measure 81
0010
0001
0010
0100
0010
0100
0010
0100
1000
0100
1000
0010
0100
0010
0100
0001
,  // measure 82
0010
0001
0010
0100
1000
0100
1000
0100
0010
0000
0001
0000
1100
0000
1000
0000
,  // measure 83
0100
0000
0010
0000
0001
0100
0001
0100
0010
0000
1000
0000
0110
0000
0100
0000
,  // measure 84
0100
0000
0100
0000
1000
0010
1000
0010
0100
0000
0001
0000
1010
0000
0001
0000
,  // measure 85
0010
0120
0000
0130
1100
2100
0000
3100
,  // measure 86
0110
0000
0101
0000
0001
1000
0001
1000
0010
0000
0100
0000
1010
0000
1000
0000
,  // measure 87
1000
0000
1000
0000
1000
0001
1000
0001
0100
0000
0010
0000
0011
0000
0010
0000
,  // measure 88
0001
0000
0010
0000
0010
0001
0010
0100
1000
0100
0010
0001
0010
0100
1000
0100
,  // measure 89
0010
0001
0220
0000
0330
0000
0220
0000
0000
0330
2002
0000
3003
0000
1001
0000
,  // measure 90
1001
0000
1010
0000
2010
0000
3000
2010
3000
0000
0110
0000
0000
0000
0110
0000
,  // measure 91
0000
0000
0011
0000
0022
0000
0033
0021
0030
0000
0101
0000
0000
0000
1010
0000
,  // measure 92
0000
0000
1010
0000
2010
0000
3000
2010
3000
0000
1010
0000
0000
0000
1010
0000
,  // measure 93
0000
0000
1001
0000
0102
0000
0003
0102
0003
0000
1100
0000
1020
0000
0030
1020
,  // measure 94
0030
0000
1100
0000
0210
0000
0300
0210
0300
0000
0010
0100
0010
0000
0100
0010
,  // measure 95
0100
0000
0100
0010
2100
0000
3000
2100
3000
0000
1000
0100
0001
0000
0001
0100
,  // measure 96
1000
0000
1000
0100
0012
0000
0003
0012
0003
0000
0001
0010
0001
0000
0010
0100
,  // measure 97
0010
0000
0100
1000
0210
0000
0300
0210
0300
0010
0001
0010
1200
0000
0300
1200
,  // measure 98
0300
1000
0100
0010
0102
0000
0003
0102
0003
0001
0010
0100
2020
0000
3030
2020
,  // measure 99
0000
3030
2020
0000
3030
0000
0000
0000
0000
0000
0000
0000
0000
0000
0000
0000
;

//---------------dance-single - ----------------
#NOTES:
     dance-single:
     :
     Challenge:
     12:
     1.000,1.000,1.000,0.553,0.873,950.000,246.000,82.000,0.000,0.000:  // measure 1
0000
0000
1001
1000
0100
0010
0001
0100
,  // measure 2
0010
1000
0000
0000
0010
0001
0100
1000
,  // measure 3
0010
0100
0001
1000
0010
0100
0001
0010
,  // measure 4
0100
1000
0000
0000
1000
0100
0001
0100
,  // measure 5
1000
0000
0100
0000
1001
0000
0100
0000
1000
0100
0010
0100
1001
0000
0100
0000
,  // measure 6
0100
0100
1001
0010
0010
1001
0100
1001
,  // measure 7
0100
0100
1001
1010
0100
0010
0101
1001
,  // measure 8
1000
0100
1001
1001
0010
1100
1010
0011
,  // measure 9
0101
0000
0110
0000
2002
3003
0100
0000
0100
1000
0100
0000
0100
0000
1001
0000
,  // measure 10
0010
0000
0001
0000
0011
0000
0100
0000
1000
0000
0100
0000
1010
0000
0000
1001
,  // measure 11
0000
0100
1001
0010
1001
0000
1001
0000
0100
0000
0010
0010
0010
0000
0101
0000
,  // measure 12
0010
0000
0010
0000
1000
0100
0000
0100
0000
0100
0010
0000
0010
0000
0010
0100
,  // measure 13
0000
1000
0001
0000
0110
0100
0000
0100
0011
0100
0001
0000
0110
0000
0001
1000
,  // measure 14
0011
0010
0100
0000
1001
0001
0010
0000
1001
0000
1001
0000
0110
0000
0000
0000
,  // measure 15
0110
0000
0000
0000
0110
0000
1000
0100
0010
0001
0010
0100
0000
1000
0100
0010
,  // measure 16
0001
0010
0100
1000
0011
0010
0000
0100
0101
0100
1000
0000
1100
0000
1000
0100
,  // measure 17
0110
0001
0010
0000
0110
0100
0000
1000
0110
1000
0100
0000
0011
0000
0001
0010
,  // measure 18
1100
0010
0100
0000
1100
0100
0010
0000
1001
0000
1001
0000
0110
0000
0000
0000
,  // measure 19
0110
0000
0000
0000
0110
0000
0001
0010
0100
1000
0100
0010
0000
0001
0010
0100
,  // measure 20
1000
0100
0010
0000
1001
0000
1000
0000
0100
0000
0010
0000
1001
0000
0000
1001
,  // measure 21
0000
0000
1001
0000
1100
0000
0100
0000
0100
0010
0100
0010
1001
0000
0010
0000
,  // measure 22
0010
0010
1001
0010
0100
1001
0100
1001
,  // measure 23
0100
0010
1100
1100
0001
1000
0011
0011
,  // measure 24
1000
0000
0001
0000
1100
0000
1100
0000
1000
0000
0022
0030
0010
0000
0013
0000
,  // measure 25
0012
0000
0013
0000
0011
0000
0100
0000
1000
0000
1000
0100
0010
0000
1100
0000
,  // measure 26
0001
0000
0001
0000
1100
0000
0010
0000
0100
0000
0010
0000
1100
0000
1000
0101
,  // measure 27
0010
0000
1100
0000
1100
0000
1000
0100
0010
0001
0010
0100
0000
1000
0100
0010
,  // measure 28
0001
0010
0100
0000
0001
0010
0001
0010
0001
0010
0001
0010
1100
0010
0001
1010
,  // measure 29
0100
0010
1001
0010
1100
0010
0100
1001
0100
0010
0101
0010
1100
0010
0100
0011
,  // measure 30
1000
0010
0101
0010
1100
0000
0000
1100
0000
0000
0101
0000
0011
0000
0000
0110
,  // measure 31
0000
0000
0011
0000
0012
0000
0103
0011
0100
0000
0001
0010
0001
0000
0100
1000
,  // measure 32
0100
0000
0001
0010
2100
0000
3010
1100
0010
0000
1000
0100
0010
0000
0010
0100
,  // measure 33
1000
0000
0010
0001
0210
0000
0301
0110
0001
0000
0100
1000
0100
0000
0100
1000
,  // measure 34
0100
0000
0100
1000
0102
0000
0003
0101
0000
0000
0110
0000
2010
0000
3000
1010
,  // measure 35
0000
0000
0110
0000
1002
0000
0103
1001
0010
0000
0001
0010
1000
0000
0001
0010
,  // measure 36
1000
0000
0001
0010
1200
0000
0301
1100
0001
0000
0010
0100
0010
0000
0010
0100
,  // measure 37
0010
0000
0010
0100
0022
0030
0013
0000
0012
0000
0000
0010
0003
0000
0220
0000
,  // measure 38
0330
0000
2200
0000
3300
0000
2100
0000
0000
0100
3100
0000
0220
0000
0330
0000
,  // measure 39
0220
0000
0330
0000
1000
0100
1000
0100
0010
0000
0001
0000
1100
0000
1000
0000
,  // measure 40
0100
0000
0010
0000
0001
0010
0001
0010
0100
0000
1000
0000
0110
0000
0100
0000
,  // measure 41
0100
0000
0100
0000
1000
0100
1000
0100
0010
0000
0001
0000
1010
0000
0001
0000
,  // measure 42
0010
0120
0100
0130
1010
2100
0100
3100
,  // measure 43
0110
0000
0101
0000
0001
0010
0001
0010
0100
0000
1000
0000
1010
0000
1000
0000
,  // measure 44
1000
0000
1000
0000
1000
0100
1000
0100
0010
0000
0001
0000
0011
0000
0010
0000
,  // measure 45
0001
0000
0010
0000
0220
0030
0310
0000
0220
0000
0030
0010
0300
0000
2200
0000
,  // measure 46
3300
0000
0220
0000
0330
0000
0012
0000
0000
0010
0013
0000
2200
0300
3100
0000
,  // measure 47
2200
0300
3100
0000
1001
0000
1000
0100
0010
0001
0010
0100
0000
1000
0100
0010
,  // measure 48
0001
0010
0100
0000
1100
0000
0010
0000
0110
0000
0100
0000
0011
0000
0100
0000
,  // measure 49
1100
0000
0010
0000
0101
0000
0001
0010
0100
1000
0100
0010
0000
0001
0010
0100
,  // measure 50
1000
0100
0010
0000
0100
0100
0000
0010
0000
0010
1000
0000
1000
0000
1000
0100
,  // measure 51
0010
0001
0010
0000
0110
0100
0000
1000
0011
1000
0100
0000
0011
0000
0001
0010
,  // measure 52
1100
0010
0100
0000
0110
0100
0000
0010
0101
0010
1000
0000
1100
0000
1000
0100
,  // measure 53
0110
0001
0010
0000
1001
0000
1000
0100
0010
0001
0010
0100
0000
0001
0010
0100
,  // measure 54
1000
0100
0010
0000
1001
0000
0100
0000
0110
0000
1001
0000
0110
0000
0000
0110
,  // measure 55
0000
0000
0110
0000
1001
0000
1000
0000
0001
0100
1000
0100
1001
0000
0100
0000
,  // measure 56
0010
0001
1010
0100
0001
0011
0010
0101
,  // measure 57
0001
0010
1100
1100
0001
0100
1010
1010
,  // measure 58
0100
0000
0100
0000
0011
0000
0011
0000
0001
0000
2200
0300
3100
0000
2200
0300
,  // measure 59
0100
0000
3100
0000
0110
0000
1000
0000
0100
0001
0100
1000
0100
0000
1001
0000
,  // measure 60
0010
0000
0010
0000
1100
0000
1000
0000
0100
0000
0010
0000
1001
0100
0010
1001
,  // measure 61
0010
0100
1001
0010
0101
0000
1100
0000
0100
0010
0001
0010
0100
0000
0101
0000
,  // measure 62
0010
0000
0010
0000
0010
0100
1001
0100
0010
0001
0010
0100
1001
0100
0010
1001
,  // measure 63
0010
0100
1001
0100
0010
1001
1001
0010
1001
0100
0010
1001
1001
0100
0010
1001
,  // measure 64
0010
0100
2002
0000
0000
0000
0000
0000
0000
0000
0000
0000
0000
0000
0000
0000
,  // measure 65
0000
0000
0000
0000
,  // measure 66
3003
0000
1000
0010
0100
0001
0010
0100
,  // measure 67
1000
0100
0011
0110
1000
0010
0100
0001
,  // measure 68
0100
0000
0010
0000
1100
0000
0011
0000
0010
0000
0100
0000
1000
0000
0100
0100
,  // measure 69
0000
0100
0000
0100
0010
0001
0000
0001
,  // measure 70
0100
0010
1010
1100
0010
0001
0010
1000
,  // measure 71
0100
0001
0110
0011
1000
0100
0001
0100
,  // measure 72
1000
0000
0100
0000
0110
0000
0011
0000
1000
0000
0001
0000
0010
0000
1000
1000
,  // measure 73
0000
0010
0000
0010
0100
1000
0000
1000
,  // measure 74
0010
0000
0001
0000
0011
0000
0001
0010
0001
0000
0010
0100
0010
0000
1000
0100
,  // measure 75
1000
0000
0100
0010
0100
0000
0010
0001
0010
0000
0010
0100
0010
0000
0100
1000
,  // measure 76
0100
0000
0100
0010
0100
0000
0010
0001
0010
0000
0100
0010
0100
0000
1000
0100
,  // measure 77
1000
0000
0010
0100
0010
0001
0010
0100
0010
0001
0010
0100
1000
0100
0010
0001
,  // measure 78
0010
0100
1000
0100
0010
0001
0010
0000
0001
0010
0001
0000
0010
0100
0010
0000
,  // measure 79
1000
0100
1000
0000
0100
0010
0100
0000
0010
0001
0010
0000
0001
0010
0001
0000
,  // measure 80
0010
0100
0010
0000
1000
0100
1000
0010
0100
0010
0100
0001
0010
0001
0010
0100
,  // measure 81
0010
0001
0010
0100
0010
0100
0010
0100
1000
0100
1000
0010
0100
0010
0100
0001
,  // measure 82
0010
0001
0010
0100
1000
0100
1000
0100
0010
0000
0001
0000
1100
0000
1000
0000
,  // measure 83
0100
0000
0010
0000
0001
0100
0001
0100
0010
0000
1000
0000
0110
0000
0100
0000
,  // measure 84
0100
0000
0100
0000
1000
0010
1000
0010
0100
0000
0001
0000
1010
0000
0001
0000
,  // measure 85
0010
0120
0100
0130
1100
2100
0100
3100
,  // measure 86
0110
0000
0101
0000
0001
1000
0001
1000
0010
0000
0100
0000
1010
0000
1000
0000
,  // measure 87
1000
0000
1000
0000
1000
0001
1000
0001
0100
0000
0010
0000
0011
0000
0010
0000
,  // measure 88
0001
0000
0010
0000
0010
0001
0010
0100
1000
0100
0010
0001
0010
0100
1000
0100
,  // measure 89
0010
0001
0220
0000
0330
0000
0220
0000
0000
0330
2002
0000
3003
0000
1001
0000
,  // measure 90
1001
0000
1010
0000
2010
0000
3000
2010
3000
0000
0110
0000
0000
0000
0110
0000
,  // measure 91
0000
0000
0011
0000
0022
0000
0033
0021
0030
0000
0101
0000
0000
0000
1010
0000
,  // measure 92
0000
0000
1010
0000
2010
0000
3000
2010
3000
0000
1010
0000
0000
0000
1010
0000
,  // measure 93
0000
0000
1001
0000
0102
0000
0003
0102
0003
0000
1100
0000
1020
0000
0030
1020
,  // measure 94
0030
0000
1100
0000
0210
0000
0301
0210
0301
0000
0010
0100
0010
0000
0100
0010
,  // measure 95
0100
0000
0100
0010
2100
0000
3010
2100
3010
0000
1000
0100
0001
0000
0001
0100
,  // measure 96
1000
0000
1000
0100
0012
0000
0103
0012
0103
0000
0001
0010
0001
0000
0010
0100
,  // measure 97
0010
0000
0100
1000
0201
0010
1300
0210
1300
0010
0001
0010
1200
0010
0301
0210
,  // measure 98
1300
0010
0001
0010
0102
1000
0013
0102
1003
0100
0010
0001
2020
0000
3030
2020
,  // measure 99
0000
3030
2020
0000
3030
0000
0000
0000
0000
0000
0000
0000
0000
0000
0000
0000
;
