#TITLE:City of Traitors;
#SUBTITLE:;
#ARTIST:Betwixt & Between;
#TITLETRANSLIT:;
#SUBTITLETRANSLIT:;
#ARTISTTRANSLIT:;
#CREDIT:owenviau1;
#BANNER:BG.PNG;
#BACKGROUND:BG.PNG;
#LYRICSPATH:;
#CDTITLE:../ov1!title.png;
#MUSIC:Betwixt & Between - City of Traitors.mp3;
#OFFSET:-0.117;
#SAMPLESTART:25.550;
#SAMPLELENGTH:29.999;
#SELECTABLE:YES;
#BPMS:0.000=150.000;
#STOPS:;
#BGCHANGES:;
// cache tags:
#FIRSTBEAT:0.000;
#LASTBEAT:789.000;
#SONGFILENAME:Songs/owenviau1 Simfiles 6/City of Traitors - [owenviau1] v1.0.1/City of Traitors.sm;
#HASMUSIC:1;
#HASBANNER:1;
#MUSICLENGTH:320.909;
// end cache tags

//---------------dance-single - 1 (owenviau1)----------------
#NOTES:
     dance-single:
     1 (owenviau1):
     Beginner:
     1:
     0.093,0.211,0.047,0.006,0.000,193.000,15.000,2.000,0.000,0.000:
0000
1000
0000
0000
0000
0000
0000
0000
,
0000
0010
0000
0000
0000
0000
0000
0000
,
0000
0001
0000
0000
0000
0000
0000
0000
,
0000
0100
0000
0000
0000
0000
0000
0000
,
0000
0010
0000
0000
0000
0000
0000
0000
,
0000
1000
0000
0000
0000
0000
0000
0000
,
0000
0001
0000
0000
0000
0000
0000
0000
,
0000
0100
0000
0000
0000
0000
0000
0000
,
0000
1000
0000
0000
0000
0000
0000
0000
,
0000
0100
0000
0000
0000
0000
0000
0000
,
0000
0001
0000
0000
0000
0000
0000
0000
,
0000
1000
0000
0000
0000
0000
0001
0000
,
0000
0000
0000
0000
,
0000
1000
0000
0000
,
0000
0000
0000
1000
,
1001
0000
0000
0000
,
0110
0010
0000
0000
,
0000
1000
0001
0001
,
1000
0000
0000
0000
,
0000
0000
1000
0001
,
1000
0000
0000
0000
,
0000
0000
0000
0001
,
1000
0000
0000
0000
,
0000
0000
0000
0000
,
1001
0000
0000
0000
,
0000
0000
1000
0001
,
1000
0000
0000
0000
,
0000
0100
0000
0000
,
0010
0000
0000
0000
,
0000
0000
0000
0000
,
0100
0001
0100
0000
,
0000
0000
0000
0000
,
0110
0000
0000
0000
,
0000
0000
0000
0000
,
1000
0000
0000
0000
,
0000
0000
0000
0000
,
0001
0000
0000
0000
,
0000
0000
0100
0100
,
0100
0000
0000
0000
,
0000
0000
0010
1000
,
0001
0000
0000
0000
,
0000
0000
0000
0000
,
1000
0000
0000
0000
,
0000
0000
0000
0000
,
0010
0000
0000
0000
,
0000
0000
0000
0000
,
0001
0000
0000
0000
,
1000
0000
0000
0000
,
1001
0000
0000
0000
,
0000
0000
0000
0000
,
0000
0001
0000
0000
,
0000
0000
0000
0000
,
0000
1000
0000
0000
,
0000
0000
0000
0000
,
0000
0010
0000
0000
,
0000
0000
0000
0000
,
0000
0100
0000
0000
,
0000
0000
0000
0000
,
0000
0001
0000
0000
,
0000
0000
0000
0000
,
0000
1000
0000
0000
,
0000
0000
0000
0000
,
0000
0010
0000
0000
,
0000
0000
0000
2000
,
3001
0000
0000
0000
,
0000
0000
0000
0000
,
1000
0000
0000
0000
,
0000
0000
0000
0000
,
0010
0000
0000
0000
,
0000
0000
0000
0000
,
0100
0000
0000
0000
,
0000
0000
0000
0000
,
0001
0000
0000
0000
,
0000
0000
0000
0000
,
1000
0000
0000
0000
,
0000
0000
0000
0000
,
0010
0000
0000
0000
,
0001
0000
0000
0000
,
0000
0000
0000
0000
,
0100
0000
0000
0000
,
0001
0000
0000
0000
,
0000
0000
0000
1000
,
1000
0000
0000
0000
,
0000
0000
0010
0010
,
0000
0000
0000
0000
,
0000
0000
0000
0001
,
1000
0000
0000
0000
,
0000
0010
0000
0000
,
1001
0000
0000
0000
,
1000
0000
0000
0000
,
0010
0000
0000
0000
,
0000
0100
0000
0000
,
0000
0001
0000
0000
,
0000
1000
0000
0000
,
0000
0010
0000
0000
,
0000
0000
0001
1000
,
0002
0003
0000
0000
,
0000
0000
0000
0000
,
1001
0000
0000
0000
,
1000
0000
0000
0000
,
0010
0000
0000
0000
,
0100
0000
0000
0000
,
0001
0000
0000
0000
,
0100
0000
0000
0000
,
0010
0000
0000
0000
,
1000
0000
0000
1000
,
1001
0000
0000
0000
,
1000
0000
0000
0000
,
0001
0000
0000
0000
,
0100
0000
0000
0000
,
0010
0000
0000
0000
,
1000
0000
0000
0000
,
0001
0000
0000
0000
,
0010
0000
0000
0000
,
0110
0000
0000
0000
,
1000
0000
0000
0000
,
0001
0000
0000
0000
,
0100
0000
0000
0000
,
0001
0000
0000
0000
,
1000
0000
0000
0000
,
0100
0000
0000
0000
,
0010
0000
0000
0000
,
1001
0000
0000
0000
,
1000
0000
0000
0000
,
0010
0000
0000
0000
,
1000
0000
0000
0000
,
0100
0000
0000
0000
,
0010
0000
0000
0000
,
0001
0000
0000
0000
,
0100
0000
0000
0000
,
0110
0000
0000
0000
,
1000
0000
0000
0000
,
0001
0000
0000
0000
,
0100
0000
0000
0000
,
0001
0000
0000
0000
,
1000
0000
0000
0000
,
0100
0000
0000
0000
,
0010
0000
0000
0000
,
1001
0000
0000
0000
,
1000
0000
0000
0000
,
0010
0000
0000
0000
,
1000
0000
0000
0000
,
0100
0000
0000
0000
,
0010
0000
0000
0000
,
0001
0000
0000
0000
,
0100
0000
0000
0000
,
0110
0000
0000
0000
,
1000
0000
0000
0000
,
0001
0000
0000
0000
,
0100
0000
0000
0000
,
0001
0000
0000
0000
,
1000
0000
0000
0000
,
0100
0000
0000
0000
,
0010
0000
0000
0000
,
1001
0000
0000
0000
,
1000
0000
0000
0000
,
0010
0000
0000
0000
,
1000
0000
0000
0000
,
0100
0000
0000
0000
,
0010
0000
0000
0000
,
0000
0000
0001
0000
0000
0001
0000
0000
,
0000
0000
0100
0000
0000
0100
0000
0000
,
0110
0000
0000
0000
,
0001
0000
0000
0000
,
1000
0000
0000
0000
,
0100
0000
0000
0000
,
0001
0000
0000
0000
,
1000
0000
0000
0000
,
0100
0000
0000
0000
,
0010
0000
0000
0000
,
0001
0000
0000
0000
,
1000
0000
0000
0000
,
0010
0000
0000
0000
,
1000
0000
0000
0000
,
0100
0000
0000
0000
,
0010
0000
0000
0000
,
0001
0000
0000
0000
,
0100
0000
0000
0000
,
0010
0000
0000
0000
,
1000
0000
0000
0000
,
0001
0000
0000
0000
,
0100
0000
0000
0000
,
0001
0000
0000
0000
,
1000
0000
0000
0000
,
0100
0000
0000
0000
,
0010
0000
0000
0000
,
0001
0000
1000
0000
0000
1000
0000
0000
,
0000
0000
0010
0000
0000
0010
0000
0000
,
0000
0000
0100
0000
0000
0100
0000
0000
,
0000
0000
0001
0000
0000
0001
0000
0000
,
0000
0000
1000
0000
0000
1000
0000
0000
,
0000
0000
0100
0000
0000
0100
0000
0000
,
0000
0000
0010
0000
0000
0010
0000
0000
,
0000
0000
0001
0000
0000
0001
0000
0000
;

//---------------dance-single - 5 (owenviau1)----------------
#NOTES:
     dance-single:
     5 (owenviau1):
     Easy:
     5:
     0.348,0.332,0.009,0.012,0.000,775.000,3.000,4.000,0.000,0.000:
0000
1000
0000
0010
0000
0100
0000
0001
,
0000
0010
0000
0100
0000
1000
0000
0010
,
0000
0100
0000
0001
0000
1000
0000
0100
,
0000
0010
0000
1000
0000
0001
0000
1000
,
0000
0100
0000
0001
0000
1000
0000
0010
,
0000
0100
0000
1000
0000
0001
0000
1000
,
0000
0010
0000
0100
0000
0010
0000
1000
,
0000
0001
0000
0010
0000
0100
0000
1000
,
0000
0001
0000
1000
0000
0010
0000
1000
,
0000
0001
0000
0100
0000
0010
0000
1000
,
0000
0001
0000
0010
0000
0100
0000
0001
,
0000
1000
0000
0010
0000
1000
1000
0000
,
0010
0100
0001
0010
,
0001
1000
0010
0100
,
0001
1000
0100
1000
,
0010
0000
0000
0000
,
1000
0100
0010
0001
,
0100
0000
0001
0000
1000
0000
0010
0001
,
0100
0001
0010
0100
,
1000
0000
0001
0000
1000
0100
0010
0001
,
1000
0001
0100
0001
,
1000
0000
0010
0000
0100
0000
0001
1000
,
0100
0010
1000
0001
,
0010
0000
0001
0000
0100
0000
0010
0100
,
1000
0001
0100
0001
,
0010
0000
0100
0000
1000
0000
0001
1000
,
0010
0001
1000
0010
,
0100
0010
1000
0100
,
0010
0001
0100
0010
,
0100
0001
0010
0100
,
1000
0100
0010
0001
0100
0000
0001
0000
,
1000
0001
0010
0001
,
0100
0010
1000
0100
,
1000
0000
0010
0000
0100
0000
0001
1000
,
0010
0100
1000
0010
,
0100
0000
0001
0000
0010
0100
1000
0100
,
0010
0001
0100
0010
,
1000
0000
0100
0000
0001
0000
0100
0001
,
1000
0010
0100
0001
,
1000
0000
0010
0000
0001
0010
0200
0000
,
1300
0001
0010
0100
,
1000
0000
0010
0000
0100
0000
0001
1000
,
0010
0001
0100
0001
,
1000
0000
0010
0000
0100
0000
0001
0010
,
1000
0100
1000
0010
,
0100
0001
1000
0001
,
0010
0001
0100
0010
,
1000
0000
0001
0000
0010
0000
0100
0001
,
2000
3000
0000
0000
,
0000
0000
0000
0000
,
0000
0010
0100
0001
,
1000
0100
1000
0010
,
0100
0001
1000
0100
,
0010
0001
1000
0001
,
0100
0010
1000
0100
,
1000
0001
0100
0001
,
1000
0010
0100
0010
,
1000
0001
0100
0001
,
1000
0100
0010
0001
,
0100
0010
1000
0001
,
0010
0001
0100
0010
,
1000
0100
0010
0001
,
1000
0001
1000
0010
,
0100
0001
1000
0020
,
0130
1000
0001
0010
,
0100
0001
1000
0010
,
0100
0010
1000
0001
,
1000
0100
0001
1000
,
0100
0001
0010
1000
,
0001
0100
0001
1000
,
0100
1000
0001
0100
,
0010
1000
0100
0010
,
0001
0100
0010
1000
,
0001
1000
0100
1000
,
0010
0100
0001
0010
,
1000
0100
0010
0001
,
1000
0010
0100
0001
,
0010
0100
1000
0010
,
0100
0001
1000
0001
,
0010
0001
0100
0010
,
1000
0100
0001
0010
,
0100
0001
1000
0010
,
0100
0010
1000
0001
,
1000
0100
0001
1000
,
0100
0001
0010
1000
,
0001
0100
0001
1000
,
0100
1000
0001
0100
,
0010
1000
0100
0010
,
0001
0100
0010
1000
,
0001
1000
0100
1000
,
0010
0100
0001
0010
,
1000
0100
0010
0001
,
1000
0010
0100
0001
,
0010
0100
1000
0010
,
0100
0001
1000
0001
,
0010
0001
0100
0010
,
2000
3000
0000
0000
,
0000
0000
0000
0000
,
1001
1000
0001
0010
,
0100
0001
1000
0010
,
0100
0010
1000
0001
,
1000
0100
0001
1000
,
0100
0001
0010
1000
,
0001
0100
0001
1000
,
0100
1000
0001
0100
,
0010
1000
0100
0010
,
0001
0100
0010
1000
,
0001
1000
0100
1000
,
0010
0100
0001
0010
,
1000
0100
0010
0001
,
1000
0010
0100
0001
,
0010
0100
1000
0010
,
0100
0001
1000
0001
,
0010
0001
0100
0010
,
0100
1000
0001
0010
,
0100
0001
1000
0010
,
0100
0010
1000
0001
,
1000
0100
0001
1000
,
0100
0001
0010
1000
,
0001
0100
0001
1000
,
0100
1000
0001
0100
,
0010
1000
0100
0010
,
0001
0100
0010
1000
,
0001
1000
0100
1000
,
0010
0100
0001
0010
,
1000
0100
0010
0001
,
1000
0010
0100
0001
,
0010
0100
1000
0010
,
0100
0001
1000
0001
,
0010
0001
1000
0010
,
0110
0001
0010
0100
,
0001
1000
0010
0100
,
0010
1000
0001
1000
,
0010
0100
0001
1000
,
0001
0010
1000
0001
,
0100
0001
1000
0100
,
1000
0001
0100
0010
,
1000
0100
0010
0001
,
0100
0010
1000
0001
,
1000
0100
1000
0010
,
0100
0001
0010
1000
,
0100
0010
0001
1000
,
0010
0100
0001
0010
,
0100
1000
0010
0100
,
0001
1000
0001
0010
,
0001
0100
0010
0100
,
1000
0001
0010
0100
,
0001
1000
0010
0100
,
0010
1000
0001
1000
,
0100
0001
1000
0100
,
0001
0010
1000
0001
,
0100
0001
1000
0100
,
1000
0001
0100
0010
,
1000
0100
0010
0001
,
0100
0010
1000
0001
,
1000
0100
1000
0010
,
0100
0001
0010
1000
,
0100
0010
0001
1000
,
0010
0100
0001
0010
,
0100
1000
0010
0100
,
0001
1000
0001
0010
,
0001
0100
0010
1000
,
1001
0001
0010
0100
,
0001
1000
0010
0100
,
0010
1000
0001
1000
,
0010
0100
0001
1000
,
0001
0010
1000
0001
,
0100
0001
1000
0100
,
1000
0001
0100
0010
,
1000
0100
0010
0001
,
0100
0010
1000
0001
,
1000
0100
1000
0010
,
0100
0001
0010
1000
,
0100
0010
0001
1000
,
0010
0100
0001
0010
,
0100
1000
0010
0100
,
0001
1000
0001
0010
,
0001
1000
0010
0100
,
1000
0001
0010
0100
,
0010
1000
0001
1000
,
0010
0100
0001
1000
,
0001
0010
0100
1000
,
0001
0010
1000
0001
,
0100
0001
1000
0100
,
1000
0001
0100
0010
,
1000
0100
0010
0001
,
0100
0010
1000
0001
,
1000
0100
1000
0010
,
0100
0001
0010
1000
,
0100
0010
0001
1000
,
0010
0100
0001
0010
,
0100
1000
0010
0100
,
0001
1000
0001
0010
,
0001
0100
0010
1000
,
0001
0000
0000
0000
;

//---------------dance-single - 9 (owenviau1)----------------
#NOTES:
     dance-single:
     9 (owenviau1):
     Medium:
     9:
     0.725,0.676,0.019,0.025,0.224,1613.000,6.000,8.000,54.000,0.000:
0000
1000
0010
0100
0000
0001
0100
0010
,
0000
1000
0100
0010
0000
0001
0100
0010
,
0000
1000
0001
1000
0000
0010
0100
0001
,
0000
0010
0100
1000
0000
0010
0100
0001
,
0000
1000
0010
0100
0000
0001
1000
0001
,
0000
0100
0010
1000
0000
0001
0010
0001
,
0000
1000
0001
0100
0000
0010
1000
0010
,
0000
0100
0001
0100
0000
1000
0100
0010
,
0000
0001
0100
0010
0000
0001
0010
0100
,
0000
1000
0001
0010
0000
1000
0010
0100
,
0000
0001
0010
0100
0000
1000
0001
0100
,
0000
0010
0001
0100
0000
1000
0100
0010
,
0001
0100
0001
1000
0010
0100
0001
0010
,
0001
0100
0010
1000
0100
0010
0001
0100
,
0010
1000
0001
0100
0001
1000
0010
0100
,
2002
3003
0000
0000
,
1001
0001
0100
0010
1000
0010
0100
0001
,
1000
0000
0001
0000
0010
0000
0001
0000
0100
0000
0010
0000
1000
0001
1000
0000
,
0100
0010
0001
1000
0010
1000
0100
0010
,
0001
0000
0010
0000
0100
0000
0001
0000
0010
0100
1000
0000
0100
0010
0001
1000
,
0001
1000
0001
0100
0001
1000
0010
0100
,
0010
0000
1000
0000
0001
0000
0100
0000
0010
0000
1000
0000
0001
0100
0001
0000
,
0010
0100
1000
0010
0100
0001
1000
0001
,
0010
0000
0001
0000
1000
0000
0010
0000
0100
0000
0004
0000
1003
0100
0010
0001
,
1000
0010
0100
0001
0010
0001
1000
0001
,
0100
0000
0010
0000
1000
0000
0001
0000
1000
0100
1000
0000
0001
0010
0100
1000
,
0001
0100
0010
1000
0100
1000
0001
1000
,
0010
0100
0001
0010
0100
0001
0010
0100
,
1000
0000
0010
1000
0010
0000
1000
0001
1000
0000
0100
0000
0010
0000
0001
0000
,
1000
0001
0100
0010
1000
0100
0010
0001
,
0100
1000
0010
0100
0001
0000
1000
0000
0100
0000
0010
0000
0001
0000
1000
0000
,
0010
0000
0000
1000
0000
0000
0001
0000
0000
0100
0000
0000
0001
0000
0000
0010
0000
0000
1000
0000
0100
0000
0010
0000
,
0001
0100
0001
1000
0100
0010
0001
0100
,
0010
0000
1000
0000
0100
0000
1000
0000
0001
0000
1000
0000
0001
0100
0001
0000
,
0010
0100
1000
0001
0100
1000
0100
0001
,
1000
0000
0010
0000
0100
0000
0001
0000
0010
0100
0010
0000
0001
1000
0001
0100
,
0010
1000
0100
1000
0001
0010
0100
0001
,
1000
0000
0001
0000
0100
0000
0010
0000
1000
0000
0001
0000
1000
0010
0100
0000
,
0001
0010
0100
1000
0010
1000
0001
0010
,
0001
0000
0000
0000
0100
0000
0000
0000
0010
0000
0000
0000
0100
0000
0000
0000
1000
0000
0001
0000
1000
0000
0000
0000
0004
4000
0000
0000
0000
0000
0000
0000
,
3013
0100
1000
0001
0010
0001
1000
0001
,
0100
0000
0010
0000
1000
0000
0100
0000
0001
0000
1000
0000
0001
0010
0001
0000
,
0100
0010
1000
0100
1000
0001
0100
0010
,
1000
0000
0001
0000
1000
0000
0010
0000
0001
0100
0001
0000
1000
0010
1000
0000
,
0100
0010
0001
1000
0001
0100
0010
1000
,
0001
0000
0010
0000
0001
0000
1000
0000
0001
0000
0010
0000
1000
0100
1000
0000
,
0100
0000
0010
0000
0001
0100
0001
1000
0001
0000
0010
0000
0100
0000
1000
0000
,
0001
0000
0100
0000
0010
0000
0001
0000
1000
0010
0100
0000
0001
1000
0010
1000
,
0002
0003
0000
0000
,
0000
0000
0000
0000
,
0000
1000
0010
0100
0001
1000
0001
0100
,
0010
1000
0100
1000
0001
0100
0010
1000
,
0001
0010
0001
0100
0010
1000
0100
0010
,
0001
1000
0001
0100
0010
1000
0100
0010
,
0001
0100
0010
0100
0001
1000
0100
0010
,
0001
1000
0001
0100
0010
1000
0100
1000
,
0001
0100
0010
1000
0001
0010
0001
0100
,
0010
1000
0100
0010
0001
1000
0001
0100
,
0010
1000
0100
0010
0001
0100
0010
0100
,
0001
1000
0100
0010
0001
0100
0010
1000
,
0100
0010
0001
1000
0001
0100
0010
1000
,
0100
1000
0001
0100
0010
1000
0001
1000
,
0010
0100
0010
1000
0001
0100
0001
1000
,
0010
0000
0000
0000
0001
0000
0000
0000
1000
0000
0000
0000
0100
0000
0000
0000
0010
0000
0000
0000
0001
0000
0000
0000
2MM0
0MM0
0MM0
0MM0
0MM0
0MM0
0MM0
0MM0
,
3MM1
1000
0001
0100
0001
0010
1000
0100
,
0010
0001
0010
0100
1000
0010
0100
0001
,
1000
0001
0010
0001
0100
0010
1000
0100
,
1000
0001
0100
0010
1000
0100
0010
0001
,
0100
0001
1000
0010
0100
0010
1000
0001
,
0100
0010
0100
0001
1000
0100
0010
0100
,
1000
0001
0010
0100
1000
0001
0100
0010
,
1000
0100
1000
0010
0100
0001
1000
0001
,
0010
0001
1000
0010
0100
0001
1000
0001
,
0010
0001
0100
0010
1000
0001
1000
0100
,
1000
0010
0100
0001
1000
0001
0010
0001
,
0100
0010
1000
0001
1000
0100
1000
0010
,
0100
0001
0010
0100
1000
0010
0100
0001
,
1000
0010
0001
0100
0010
1000
0001
0100
,
1000
0010
0100
0001
1000
0001
0010
0001
,
0100
0010
1000
0100
1000
0001
0100
0010
,
1000
0100
0010
0001
0010
0100
1000
0010
,
0100
0000
0001
0000
1000
0000
0001
0000
0010
0000
0001
0000
0100
0001
0010
0000
,
1000
0100
1000
0001
0100
0010
1000
0100
,
0010
0000
0001
0000
0100
0000
0001
0000
1000
0001
1000
0000
0100
0000
0010
0000
,
1000
0001
0100
0010
0100
0001
1000
0100
,
0010
0000
0100
0000
1000
0000
0001
0000
0010
0000
0100
0000
1000
0100
0010
0000
,
0001
1000
0001
0100
1000
0010
0100
0001
,
1000
0000
0001
0000
0010
0000
0001
0000
1000
0000
0010
0000
1000
0001
1000
0010
,
0100
0001
0010
0001
0100
0010
1000
0001
,
1000
0100
1000
0010
0100
0001
1000
0001
,
0010
0001
0100
0010
1000
0001
1000
0100
,
1000
0010
0100
0001
0010
0100
1000
0010
,
0100
0001
1000
0010
0001
0100
0010
1000
,
0001
0100
1000
0010
0100
0001
1000
0001
,
0010
0001
0100
0010
1000
0100
1000
0001
,
0100
0000
0000
0000
0010
0000
0000
0000
1000
0000
0000
0000
0001
0000
0000
0000
0100
0000
0000
0000
0001
0000
0000
0000
2MM0
0MM0
0MM0
0MM0
0MM0
0MM0
0MM0
0MM0
,
3MM2
0MM0
0MM0
0MM0
0MM0
0MM0
0MM0
0MM0
0MM0
0000
0000
0000
0000
0000
0000
0000
0000
0000
0000
0000
0000
0000
0000
0000
0000
0000
0000
0000
0000
0000
0000
0000
,
1003
0000
0100
0000
0010
0000
0001
0000
1000
0000
0010
0000
,
1001
0001
0100
0010
1000
0010
0100
0001
,
1000
0000
0001
0000
0010
0000
0001
0000
0100
0000
0010
0000
1000
0001
1000
0000
,
0100
0010
0001
1000
0010
1000
0100
0010
,
0001
0000
0010
0000
0100
0000
0001
0000
0010
0100
1000
0000
0100
0010
0001
1000
,
0001
1000
0001
0100
0001
1000
0010
0100
,
0010
0000
1000
0000
0001
0000
0100
0000
0010
0000
1000
0000
0001
0100
0001
0000
,
0010
0100
1000
0010
0100
0001
1000
0001
,
0010
0000
0001
0000
1000
0000
0010
0000
0100
0010
0001
0000
1000
0100
0010
0001
,
1000
0010
0100
0001
0010
0001
1000
0001
,
0100
0000
0010
0000
1000
0000
0001
0000
1000
0100
1000
0000
0001
0010
0100
1000
,
0001
0100
0010
1000
0100
1000
0001
1000
,
0010
0000
0100
0000
0001
0000
0010
0000
1000
0001
0100
0000
0010
1000
0100
0010
,
0001
0010
0100
1000
0001
1000
0010
0001
,
1000
0000
0001
0000
0100
0000
0010
0000
1000
0000
0100
0000
0010
1000
0001
0000
,
0100
0010
0001
1000
0100
0010
0001
1000
,
0010
0000
1000
0000
0001
0000
0100
0000
0001
1000
0001
0000
1000
0010
1000
0001
,
0010
0100
0001
1000
0100
0010
0001
0100
,
0010
0000
1000
0000
0100
0000
1000
0000
0001
0000
1000
0000
0001
0100
0001
0000
,
0010
0100
1000
0001
0100
1000
0100
0001
,
1000
0000
0010
0000
0100
0000
0001
0000
0010
0100
0010
0000
0001
1000
0001
0100
,
0010
1000
0100
1000
0001
0010
0100
0001
,
1000
0000
0001
0000
0100
0000
0010
0000
1000
0000
0001
0000
1000
0010
0100
0000
,
0001
0010
0100
1000
0010
1000
0001
0010
,
0001
0000
0100
0000
0010
0000
0100
0000
1000
0001
1000
0000
0100
0010
0001
1000
,
0010
0100
1000
0001
0010
0001
1000
0001
,
0100
0000
0010
0000
1000
0000
0100
0000
0001
0000
1000
0000
0001
0010
0001
0000
,
0100
0010
1000
0100
1000
0001
0100
0010
,
1000
0000
0001
0000
1000
0000
0010
0000
0001
0100
0001
0000
1000
0010
1000
0000
,
0100
0010
0001
1000
0001
0100
0010
1000
,
0001
0000
0010
0000
0001
0000
1000
0000
0001
0000
0010
0000
1000
0100
1000
0000
,
0100
0010
0001
1000
0001
0010
0100
1000
,
0001
0000
0100
0000
0010
0000
0001
0000
1000
0010
0100
0000
0001
1000
0010
0100
,
0001
1000
0001
0100
1000
0010
0100
0001
,
1000
0000
0001
0000
0010
0000
0001
0000
0100
0000
0010
0000
1000
0001
1000
0000
,
0100
0010
0001
1000
0010
1000
0100
0010
,
0001
0000
1000
0000
0100
0000
0001
0000
0010
0100
1000
0000
0100
0010
0001
1000
,
0001
1000
0001
0100
0001
1000
0010
0100
,
0010
0000
1000
0000
0001
0000
0100
0000
0010
0000
1000
0000
0001
0100
0001
0000
,
0010
0100
1000
0010
0100
0001
1000
0001
,
0010
0000
0001
0000
1000
0000
0010
0000
0100
0010
0001
0000
1000
0100
0010
0001
,
1000
0010
0100
0001
0010
0001
1000
0001
,
0100
0000
0010
0000
1000
0000
0001
0000
1000
0100
1000
0000
0001
0010
0100
1000
,
0001
0100
0010
1000
0100
1000
0001
1000
,
0010
0000
0100
0000
0001
0000
0010
0000
1000
0001
0100
0000
0010
1000
0100
0010
,
0001
0010
0100
1000
0001
1000
0010
0001
,
1000
0000
0001
0000
0100
0000
0010
0000
1000
0000
0100
0000
0010
1000
0001
0000
,
0100
0010
0001
1000
0100
0010
0001
1000
,
0010
1000
0001
0100
0001
0010
0100
1000
,
0010
0100
0001
1000
0100
0010
0001
0100
,
0010
0000
1000
0000
0001
0000
0100
0000
0010
0000
1000
0000
0001
0100
0001
0000
,
0010
0100
1000
0001
0010
0100
1000
0001
,
1000
0000
0010
0000
0100
0000
0001
0000
0010
0100
0010
0000
0001
1000
0001
0100
,
0010
1000
0100
1000
0001
0010
0100
0001
,
1000
0000
0001
0000
0100
0000
0010
0000
1000
0000
0001
0000
1000
0010
0100
0000
,
0001
0010
0100
1000
0010
1000
0001
0010
,
0001
0000
0100
0000
0010
0000
0100
0000
1000
0001
1000
0000
0100
0010
0001
1000
,
0010
0100
1000
0001
0010
0001
1000
0001
,
0100
0000
0010
0000
1000
0000
0100
0000
0001
0000
1000
0000
0001
0010
0001
0000
,
0100
0010
1000
0100
1000
0001
0100
0010
,
1000
0000
0001
0000
1000
0000
0010
0000
0001
0100
0001
0000
1000
0010
1000
0000
,
0100
0010
0001
1000
0001
0100
0010
1000
,
0001
0000
0010
0000
0001
0000
1000
0000
0001
0000
0010
0000
1000
0100
1000
0000
,
0100
0010
0001
1000
0001
0010
0100
1000
,
0010
0100
0001
1000
0001
0100
0010
1000
,
1MM1
0001
0100
0010
1000
0010
0100
0001
,
1000
0000
0001
0000
0010
0000
0001
0000
0100
0000
0010
0000
1000
0001
1000
0000
,
0100
0010
0001
1000
0010
1000
0100
0001
,
1000
0000
0010
0000
0100
0000
0001
0000
0010
0100
1000
0000
0100
0010
0001
1000
,
0001
1000
0001
0100
0001
1000
0010
0100
,
0010
0000
1000
0000
0001
0000
0100
0000
0010
0000
1000
0000
0001
0100
0001
0000
,
0010
0100
1000
0001
0100
1000
0100
0001
,
0010
0000
0001
0000
1000
0000
0010
0000
0100
0010
0001
0000
1000
0100
0010
0001
,
1000
0010
0100
0001
0010
0001
1000
0001
,
0100
0000
0010
0000
1000
0000
0001
0000
1000
0100
1000
0000
0001
0010
0100
1000
,
0001
0100
0010
1000
0100
1000
0001
1000
,
0010
0000
0100
0000
0001
0000
0010
0000
1000
0001
0100
0000
0010
1000
0100
0010
,
0001
0010
0100
1000
0001
1000
0010
0001
,
1000
0000
0001
0000
0100
0000
0010
0000
1000
0000
0100
0000
0010
0001
1000
0000
,
0100
0010
0001
1000
0100
0010
0001
1000
,
0010
0000
1000
0000
0001
0000
0100
0000
0001
1000
0001
0000
1000
0010
1000
0001
,
0010
0100
0001
1000
0100
0010
0001
0100
,
0010
0000
1000
0000
0100
0000
1000
0000
0001
0000
0010
0000
0001
0100
0001
0000
,
0010
0100
1000
0001
0100
1000
0100
0001
,
1000
0000
0010
0000
0100
0000
0001
0000
0010
0100
0010
0000
0001
1000
0001
0100
,
0010
1000
0100
1000
0001
0010
0100
0001
,
1000
0000
0001
0000
0100
0000
0010
0000
1000
0000
0001
0000
1000
0010
0100
0000
,
0001
0010
0100
1000
0010
1000
0001
0010
,
0001
0000
0100
0000
0010
0000
0100
0000
1000
0001
1000
0000
0100
0010
0001
1000
,
0010
0100
1000
0001
0010
0001
1000
0001
,
0100
0010
1000
0100
0001
1000
0001
0010
,
0100
0010
1000
0100
1000
0001
0100
0010
,
1000
0001
1000
0010
0001
0010
0100
1000
,
0100
0010
0001
1000
0001
0100
0010
1000
,
0001
0010
0001
1000
0001
0010
0100
1000
,
0100
0010
0001
1000
0001
0010
0100
1000
,
0001
0100
0010
0001
1000
0100
0010
0002
,
2000
0000
0000
0000
,
0000
0000
0000
0000
,
0000
0000
0000
0000
,
0000
3003
0000
0000
;

//---------------dance-single - 13 (owenviau1)----------------
#NOTES:
     dance-single:
     13 (owenviau1):
     Hard:
     13:
     1.000,1.000,0.003,0.019,1.000,2983.000,1.000,6.000,40.000,0.000:
0001
0000
1000
0100
0010
0001
1000
0000
0001
0000
0010
0100
1000
0001
0100
0000
,
0010
0000
1000
0100
1000
0001
0100
0000
0010
0000
1000
0100
0010
0001
1000
0000
,
0010
0000
0100
1000
0001
0100
0001
0000
1000
0000
0010
0100
0001
1000
0100
0000
,
0010
0000
0001
1000
0100
1000
0001
0000
0010
0000
0100
1000
0010
0100
0001
0000
,
0010
0000
0100
1000
0001
1000
0010
0000
0100
0000
0001
0100
0001
1000
0010
0000
,
0100
0000
0010
0001
1000
0010
0100
0000
0001
0000
0010
0100
1000
0001
0100
0000
,
0010
0000
1000
0100
1000
0001
0100
0000
0010
0000
1000
0100
0010
0001
1000
0000
,
0010
0000
0100
1000
0001
0100
0001
0000
1000
0000
0010
0100
0001
1000
0100
0000
,
0010
0000
0001
1000
0100
1000
0001
0000
0010
0000
0100
1000
0010
0100
0001
0000
,
0010
0000
0100
1000
0001
1000
0010
0000
0100
0000
0001
0100
0001
1000
0010
0000
,
0100
0000
0010
0001
1000
0010
0100
0000
0001
0000
0010
0100
1000
0001
0100
0000
,
0010
0000
1000
0100
1000
0001
0100
0000
0010
0000
1000
0100
0010
0001
0100
0001
,
1000
0010
0100
0001
1000
0100
1000
0010
0100
0001
0010
0001
0100
0001
1000
0010
,
1000
0100
0010
0001
0100
0010
1000
0010
0100
0001
0010
0001
1000
0001
0100
0010
,
1000
0100
0010
0001
1000
0010
1000
0100
0010
0001
0100
0010
1000
0100
0010
0001
,
2M00
0000
0000
00M0
3000
0000
000M
0000
M000
0000
0000
000M
0000
M00M
0000
0000
,
1000
0010
1000
0001
0100
0010
1000
0001
0010
0001
1000
0001
0100
0010
1000
0100
,
0010
0001
0100
0010
1000
0001
0010
0001
1000
0100
1000
0010
0100
0001
0010
0100
,
1000
0001
0010
0100
1000
0001
0100
0001
1000
0010
1000
0001
0100
0010
1000
0001
,
0010
0001
0100
0010
1000
0100
1000
0001
1000
0010
0100
0001
0010
0001
1000
0001
,
0100
0010
1000
0100
1000
0001
1000
0010
0100
0001
0010
0100
1000
0010
1000
0001
,
0100
0010
1000
0100
1000
0001
1000
0010
0100
0001
0010
0001
1000
0001
0100
0010
,
1000
0100
1000
0001
0100
0010
1000
0001
0010
0001
0100
0010
1000
0100
1000
0001
,
0100
0000
0000
0001
0000
0000
1000
0000
0000
0010
0000
0000
0100
0000
0000
0001
0000
0000
1000
0000
0000
0010
0000
0000
1000
0000
0000
0001
0000
0000
1000
0000
0100
0000
0010
0000
0001
0000
1000
0000
0001
0000
0100
0000
0001
0000
1000
0000
,
0100
0010
0001
1000
0001
0100
0010
1000
0100
1000
0010
0100
0001
0010
0100
1000
,
0001
0100
0001
0010
0100
1000
0010
0100
0001
1000
0001
0000
1000
0100
0010
0001
,
1000
0010
1000
0001
0100
0010
1000
0100
1000
0001
0100
0001
0010
0100
1000
0010
,
0100
0001
1000
0100
0010
0001
0100
0010
1000
0001
0010
0001
1000
0001
0100
0010
,
1000
0100
1000
0001
1000
0010
0100
0001
0010
0001
1000
0001
0100
0010
1000
0100
,
0010
0001
0100
0010
1000
0001
0010
0001
1000
0010
0100
0001
1000
0100
0010
0001
,
1000
0010
1000
0001
0100
0000
0010
0000
1000
0001
1000
0010
0100
0010
1000
0001
,
0010
0000
0000
0001
0000
0000
1000
0000
0000
0001
0000
0000
0100
0000
0000
0010
0000
0000
1000
0000
0000
0100
0000
0000
1000
0000
0000
0001
0000
0000
1000
0000
0000
0100
0000
0000
0010
0000
0000
0000
1000
0000
0000
0000
0001
0000
0000
0000
,
0010
0100
1000
0010
0100
0001
0010
0100
1000
0001
0010
0100
1000
0001
0100
0001
,
1000
0010
1000
0001
0100
0010
1000
0001
0010
0001
0100
0010
1000
0100
1000
0001
,
1000
0010
0100
0001
0010
0001
1000
0001
0100
0010
1000
0100
1000
0001
1000
0010
,
0100
0001
0010
0100
1000
0010
1000
0001
0100
0010
1000
0100
1000
0001
1000
0010
,
0100
0001
0010
0001
1000
0001
0100
0010
1000
0100
1000
0001
0100
0010
1000
0001
,
0010
0001
0100
0010
1000
0100
1000
0001
0100
0001
1000
0010
0100
0001
1000
0010
,
1000
0001
0010
0001
0100
0010
1000
0001
0010
0001
1000
0001
0100
0010
1000
0100
,
0010
0000
0000
0001
0000
0000
0100
0000
0000
0010
0000
0000
1000
0000
0000
0001
0000
0000
0010
0000
0000
0001
0000
0000
1000
0000
0000
0100
0000
0000
1000
0000
0000
0001
0000
0000
1000
0000
0100
0000
0010
0000
0001
0000
1000
0000
0100
0000
,
0010
0001
0010
0100
1000
0001
0100
0001
1000
0010
1000
0001
0100
0010
1000
0001
,
0010
0001
0100
0010
1000
0100
1000
0001
1000
0010
0100
0001
0010
0001
1000
0001
,
0100
0010
1000
0100
1000
0001
1000
0010
0100
0001
0010
0100
1000
0010
1000
0001
,
0100
0010
1000
0100
1000
0001
1000
0010
0100
0001
0010
0001
1000
0001
0100
0010
,
1000
0100
1000
0001
0100
0010
1000
0001
0010
0001
0100
0010
1000
0100
1000
0001
,
0100
0001
1000
0010
1000
0001
0100
0001
1000
0010
1000
0001
0100
0010
1000
0001
,
0010
0001
1000
0001
0100
0010
1000
0100
0010
0001
0100
0010
1000
0001
0010
0001
,
1000
0100
1000
0010
0100
0001
0010
0100
1000
0001
0010
0100
1000
0010
1000
0001
,
0020
0030
0000
0000
,
0000
0000
0000
0000
,
0000
0000
1000
0100
0010
0001
1000
0010
0100
0001
0010
0001
0100
0001
1000
0010
,
1000
0100
0010
0001
0100
0010
1000
0010
0100
0001
0010
0001
1000
0001
0100
0010
,
1000
0100
0010
0001
1000
0010
1000
0100
0010
0001
0100
0010
1000
0100
0010
0001
,
1000
0001
0100
0001
1000
0010
0100
0001
1000
0100
1000
0010
0100
0001
0010
0001
,
0100
0001
1000
0010
1000
0100
0010
0001
0100
0010
1000
0010
0100
0001
0010
0001
,
1000
0001
0100
0010
1000
0100
0010
0001
1000
0010
1000
0100
0010
0001
0100
0010
,
1000
0100
0010
0001
1000
0010
0100
0001
0010
0100
1000
0001
1000
0100
1000
0010
,
0100
0001
0010
0001
0100
0001
1000
0010
1000
0100
0010
0001
0100
0010
1000
0010
,
0100
0001
0010
0001
1000
0001
0100
0010
1000
0100
0010
0001
1000
0010
1000
0100
,
0010
0001
0100
0010
1000
0100
0010
0001
0100
0010
0100
0001
1000
0010
0100
0001
,
1000
0100
1000
0010
0100
0001
0010
0001
0100
0001
1000
0010
1000
0100
0010
0001
,
0100
0010
1000
0010
0100
0001
0010
0001
1000
0001
0100
0010
1000
0100
0010
0001
,
1000
0010
1000
0100
0010
0001
0100
0010
1000
0100
0010
0001
1000
0010
1000
0100
,
0010
0001
0100
0010
1000
0100
1000
0001
0100
0001
0010
0100
4000
0000
0000
0000
,
3002
0000
0000
0000
1003
0010
0100
0001
1000
0010
0100
0001
1000
0100
1000
0010
,
0100
0001
0010
0001
0100
0001
1000
0010
1000
0100
0010
0001
0100
0010
1000
0010
,
0100
0001
0010
0001
1000
0001
0100
0010
1000
0100
0010
0001
1000
0010
1000
0100
,
0010
0001
0100
0010
1000
0100
0010
0001
1000
0001
0100
0001
1000
0010
0100
0001
,
1000
0100
1000
0010
0100
0001
0010
0001
0100
0001
1000
0010
1000
0100
0010
0001
,
0100
0010
1000
0010
0100
0001
0010
0001
1000
0001
0100
0010
1000
0100
0010
0001
,
1000
0010
1000
0100
0010
0001
0100
0010
1000
0100
0010
0001
1000
0010
0100
0001
,
0010
0100
1000
0001
1000
0100
1000
0010
0100
0001
0010
0001
0100
0001
1000
0010
,
1000
0100
0010
0001
0100
0010
1000
0010
0100
0001
0010
0001
1000
0001
0100
0010
,
1000
0100
0010
0001
1000
0010
1000
0100
0010
0001
0100
0010
1000
0100
0010
0001
,
0100
0010
0100
0001
1000
0010
0100
0001
1000
0100
1000
0010
0100
0001
0010
0001
,
0100
0001
1000
0010
1000
0100
0010
0001
0100
0010
1000
0010
0100
0001
0010
0001
,
1000
0001
0100
0010
1000
0100
0010
0001
1000
0010
1000
0100
0010
0001
0100
0010
,
1000
0100
0010
0001
1000
0010
1000
0100
0010
0001
0100
0010
1000
0100
1000
0001
,
0100
0001
0010
0100
1000
0010
0100
0001
0010
0100
1000
0001
0010
0100
0010
0001
,
1000
0010
1000
0100
0010
0001
0100
0010
1000
0100
1000
0001
1000
0010
0100
0001
,
1000
0001
0100
0001
1000
0010
0100
0001
1000
0100
1000
0010
0100
0001
0010
0001
,
0100
0001
1000
0010
1000
0100
0010
0001
0100
0010
1000
0010
0100
0001
0010
0001
,
1000
0001
0100
0010
1000
0100
0010
0001
1000
0010
1000
0100
0010
0001
0100
0010
,
1000
0100
0010
0001
1000
0001
0100
0001
1000
0010
0100
0001
1000
0100
1000
0010
,
0100
0001
0010
0001
0100
0001
1000
0010
1000
0100
0010
0001
0100
0010
1000
0010
,
0100
0001
0010
0001
1000
0001
0100
0010
1000
0100
0010
0001
1000
0010
1000
0100
,
0010
0001
0100
0010
1000
0100
0010
0001
1000
0010
0100
0001
0010
0100
1000
0001
,
1000
0100
1000
0010
0100
0001
0010
0001
0100
0001
1000
0010
1000
0100
0010
0001
,
0100
0010
1000
0010
0100
0001
0010
0001
1000
0001
0100
0010
1000
0100
0010
0001
,
1000
0010
1000
0100
0010
0001
0100
0010
1000
0100
0010
0001
0100
0010
0100
0001
,
1000
0010
0100
0001
1000
0100
1000
0010
0100
0001
0010
0001
0100
0001
1000
0010
,
1000
0100
0010
0001
0100
0010
1000
0010
0100
0001
0010
0001
1000
0001
0100
0010
,
1000
0100
0010
0001
1000
0010
1000
0100
0010
0001
0100
0010
1000
0100
0010
0001
,
1000
0010
1000
0100
0010
0001
0100
0010
1000
0100
1000
0001
0100
0001
0010
0100
,
1000
0100
0010
0001
0100
0010
1000
0001
0100
0001
1000
0100
1000
0010
0100
0001
,
0010
0000
0000
0100
0000
0000
1000
0000
0000
0001
0000
0000
1000
0000
0000
0000
0010
0000
1000
0000
0001
0000
0100
0000
0001
0000
1000
0000
0100
0000
0010
0000
0001
0000
0100
0000
0010
0000
1000
0000
0100
0000
1000
0000
0001
0000
1000
0000
,
0M20
0M00
0M00
0M00
0M00
0M00
0M00
0M00
0M00
0000
0000
0000
0000
0000
0000
0000
0000
0000
0000
0000
0000
0000
0000
0000
0000
0000
0000
0000
0000
0000
0000
0000
,
0130
0000
0001
0000
0100
0000
0010
0000
1000
0000
0001
00M0
,
1000
0010
1000
0001
0100
0010
0100
0001
1000
0100
1000
0010
0100
0001
0010
0001
,
0100
0001
1000
0010
1000
0100
0010
0001
0100
0010
1000
0010
0100
0001
0010
0001
,
1000
0001
0100
0010
1000
0100
0010
0001
1000
0010
1000
0100
0010
0001
0100
0010
,
1000
0100
0010
0001
1000
0001
0100
0001
1000
0010
0100
0001
1000
0100
1000
0010
,
0100
0001
0010
0001
0100
0001
1000
0010
1000
0100
0010
0001
0100
0010
1000
0010
,
0100
0001
0010
0001
1000
0001
0100
0010
1000
0100
0010
0001
1000
0010
1000
0100
,
0010
0001
0100
0010
1000
0100
0010
0001
1000
0010
0100
0001
0010
0100
1000
0001
,
1000
0100
1000
0010
0100
0001
0010
0001
0100
0001
1000
0010
1000
0100
0010
0001
,
0100
0010
1000
0010
0100
0001
0010
0001
1000
0001
0100
0010
1000
0100
0010
0001
,
1000
0010
1000
0100
0010
0001
0100
0010
1000
0100
0010
0001
0100
0010
0100
0001
,
1000
0010
0100
0001
1000
0100
1000
0010
0100
0001
0010
0001
0100
0001
1000
0010
,
1000
0100
0010
0001
0100
0010
1000
0010
0100
0001
0010
0001
1000
0001
0100
0010
,
1000
0100
0010
0001
1000
0010
1000
0100
0010
0001
0100
0010
1000
0100
0010
0001
,
1000
0010
1000
0100
0010
0001
0100
0010
1000
0100
1000
0001
0100
0001
0010
0100
,
1000
0010
0100
0001
0010
0100
1000
0001
0010
0100
0010
0001
1000
0010
1000
0100
,
0010
0001
0100
0010
1000
0100
1000
0001
1000
0010
0100
0001
1000
0001
0100
0001
,
1000
0010
0100
0001
1000
0100
1000
0010
0100
0001
0010
0001
0100
0001
1000
0010
,
1000
0100
0010
0001
0100
0010
1000
0010
0100
0001
0010
0001
1000
0001
0100
0010
,
1000
0100
0010
0001
1000
0010
1000
0100
0010
0001
0100
0010
1000
0100
0010
0001
,
1000
0001
0100
0001
1000
0010
0100
0001
1000
0100
1000
0010
0100
0001
0010
0001
,
0100
0001
1000
0010
1000
0100
0010
0001
0100
0010
1000
0010
0100
0001
0010
0001
,
1000
0001
0100
0010
1000
0100
0010
0001
1000
0010
1000
0100
0010
0001
0100
0010
,
1000
0100
0010
0001
1000
0010
0100
0001
0010
0100
1000
0001
1000
0100
1000
0010
,
0100
0001
0010
0001
0100
0001
1000
0010
1000
0100
0010
0001
0100
0010
1000
0010
,
0100
0001
0010
0001
1000
0001
0100
0010
1000
0100
0010
0001
1000
0010
1000
0100
,
0010
0001
0100
0010
1000
0100
0010
0001
0100
0010
0100
0001
1000
0010
0100
0001
,
1000
0100
1000
0010
0100
0001
0010
0001
0100
0001
1000
0010
1000
0100
0010
0001
,
0100
0010
1000
0010
0100
0001
0010
0001
1000
0001
0100
0010
1000
0100
0010
0001
,
1000
0010
1000
0100
0010
0001
0100
0010
1000
0100
0010
0001
1000
0010
1000
0100
,
0010
0001
0100
0010
1000
0100
1000
0001
0100
0001
0010
0100
1000
0100
0010
0001
,
0100
0010
1000
0001
0100
0001
1000
0100
1000
0010
0100
0001
0010
0100
1000
0001
,
0100
0010
0100
0001
1000
0010
0100
0001
1000
0100
1000
0010
0100
0001
0010
0001
,
0100
0001
1000
0010
1000
0100
0010
0001
0100
0010
1000
0010
0100
0001
0010
0001
,
1000
0001
0100
0010
1000
0100
0010
0001
1000
0010
1000
0100
0010
0001
0100
0010
,
1000
0100
0010
0001
1000
0001
0100
0001
1000
0010
0100
0001
1000
0100
1000
0010
,
0100
0001
0010
0001
0100
0001
1000
0010
1000
0100
0010
0001
0100
0010
1000
0010
,
0100
0001
0010
0001
1000
0001
0100
0010
1000
0100
0010
0001
1000
0010
1000
0100
,
0010
0001
0100
0010
1000
0100
0010
0001
1000
0010
0100
0001
0010
0100
1000
0001
,
1000
0100
1000
0010
0100
0001
0010
0001
0100
0001
1000
0010
1000
0100
0010
0001
,
0100
0010
1000
0010
0100
0001
0010
0001
1000
0001
0100
0010
1000
0100
0010
0001
,
1000
0010
1000
0100
0010
0001
0100
0010
1000
0100
0010
0001
0100
0010
0100
0001
,
1000
0010
0100
0001
1000
0100
1000
0010
0100
0001
0010
0001
0100
0001
1000
0010
,
1000
0100
0010
0001
0100
0010
1000
0010
0100
0001
0010
0001
1000
0001
0100
0010
,
1000
0100
0010
0001
1000
0010
1000
0100
0010
0001
0100
0010
1000
0100
0010
0001
,
1000
0010
1000
0100
0010
0001
0100
0010
1000
0100
1000
0001
0100
0001
0010
0100
,
1000
0010
0100
0001
0010
0100
1000
0001
0010
0100
0010
0001
1000
0010
1000
0100
,
0010
0001
0100
0010
1000
0100
1000
0001
1000
0010
0100
0001
1000
0001
0100
0001
,
1000
0010
0100
0001
1000
0100
1000
0010
0100
0001
0010
0001
0100
0001
1000
0010
,
1000
0100
0010
0001
0100
0010
1000
0010
0100
0001
0010
0001
1000
0001
0100
0010
,
1000
0100
0010
0001
1000
0010
1000
0100
0010
0001
0100
0010
1000
0100
0010
0001
,
1000
0001
0100
0001
1000
0010
0100
0001
1000
0100
1000
0010
0100
0001
0010
0001
,
0100
0001
1000
0010
1000
0100
0010
0001
0100
0010
1000
0010
0100
0001
0010
0001
,
1000
0001
0100
0010
1000
0100
0010
0001
1000
0010
1000
0100
0010
0001
0100
0010
,
1000
0100
0010
0001
1000
0010
0100
0001
0010
0100
1000
0001
1000
0100
1000
0010
,
0100
0001
0010
0001
0100
0001
1000
0010
1000
0100
0010
0001
0100
0010
1000
0010
,
0100
0001
0010
0001
1000
0001
0100
0010
1000
0100
0010
0001
1000
0010
1000
0100
,
0010
0001
0100
0010
1000
0100
0010
0001
0100
0010
0100
0001
1000
0010
0100
0001
,
1000
0100
1000
0010
0100
0001
0010
0001
0100
0001
1000
0010
1000
0100
0010
0001
,
0100
0010
1000
0010
0100
0001
0010
0001
1000
0001
0100
0010
1000
0100
0010
0001
,
1000
0010
1000
0100
0010
0001
0100
0010
1000
0100
0010
0001
1000
0010
1000
0100
,
0010
0001
0100
0010
1000
0100
1000
0001
0100
0001
0010
0100
1000
0100
0010
0001
,
0100
0010
1000
0001
0100
0001
1000
0100
1000
0010
0100
0001
0010
0100
1000
0001
,
1000
0010
0100
0001
1000
0010
0100
0001
1000
0100
1000
0010
0100
0001
0010
0001
,
0100
0001
1000
0010
1000
0100
0010
0001
0100
0010
1000
0010
0100
0001
0010
0001
,
1MMM
0MM0
MMM1
M0M0
M1MM
M00M
MM1M
0M0M
1MMM
0000
0100
0000
0010
0000
0001
0000
1000
0000
0010
0000
1000
0000
0100
0000
0010
0000
0001
0000
0100
0000
0010
0000
,
1000
0100
0010
0001
1000
0001
0100
0001
1000
0010
0100
0001
1000
0100
1000
0010
,
0100
0001
0010
0001
0100
0001
1000
0010
1000
0100
0010
0001
0100
0010
1000
0010
,
0100
0001
0010
0001
1000
0001
0100
0010
1000
0100
0010
0001
1000
0010
1000
0100
,
0010
0001
0100
0010
1000
0100
0010
0001
1000
0010
0100
0001
0010
0100
1000
0001
,
1000
0100
1000
0010
0100
0001
0010
0001
0100
0001
1000
0010
1000
0100
0010
0001
,
0100
0010
1000
0010
0100
0001
0010
0001
1000
0001
0100
0010
1000
0100
0010
0001
,
1000
0010
1000
0100
0010
0001
0100
0010
1000
0100
0010
0001
0100
0010
0100
0001
,
1000
0010
0100
0001
1000
0100
1000
0010
0100
0001
0010
0001
0100
0001
1000
0010
,
1000
0100
0010
0001
0100
0010
1000
0010
0100
0001
0010
0001
1000
0001
0100
0010
,
1000
0100
0010
0001
1000
0010
1000
0100
0010
0001
0100
0010
1000
0100
0010
0001
,
1000
0010
1000
0100
0010
0001
0100
0010
1000
0100
1000
0001
0100
0001
0010
0100
,
1000
0010
0100
0001
0010
0100
1000
0001
0010
0100
0010
0001
1000
0010
1000
0100
,
0010
0001
0100
0010
1000
0100
1000
0001
1000
0010
0100
0001
1000
0001
0100
0001
,
1000
0010
0100
0001
1000
0100
1000
0010
0100
0001
0010
0001
0100
0001
1000
0010
,
1000
0100
0010
0001
0100
0010
1000
0010
0100
0001
0010
0001
1000
0001
0100
0010
,
1000
0100
0010
0001
1000
0010
1000
0100
0010
0001
0100
0010
1000
0100
0010
0001
,
1000
0001
0100
0001
1000
0010
0100
0001
1000
0100
1000
0010
0100
0001
0010
0001
,
0100
0001
1000
0010
1000
0100
0010
0001
0100
0010
1000
0010
0100
0001
0010
0001
,
1000
0001
0100
0010
1000
0100
0010
0001
1000
0010
1000
0100
0010
0001
0100
0010
,
1000
0100
0010
0001
1000
0010
0100
0001
0010
0100
1000
0001
1000
0100
1000
0010
,
0100
0001
0010
0001
0100
0001
1000
0010
1000
0100
0010
0001
0100
0010
1000
0010
,
0100
0001
0010
0001
1000
0001
0100
0010
1000
0100
0010
0001
1000
0010
1000
0100
,
0010
0001
0100
0010
1000
0100
0010
0001
0100
0010
0100
0001
1000
0010
0100
0001
,
1000
0100
1000
0010
0100
0001
0010
0001
0100
0001
1000
0010
1000
0100
0010
0001
,
0100
0010
1000
0010
0100
0001
0010
0001
1000
0001
0100
0010
1000
0100
0010
0001
,
1000
0010
1000
0100
0010
0001
0100
0010
1000
0100
0010
0001
1000
0010
1000
0100
,
0010
0001
0100
0010
1000
0100
1000
0001
0100
0001
0010
0100
1000
0100
0010
0001
,
0100
0010
1000
0001
0100
0001
1000
0100
1000
0010
0100
0001
0010
0100
1000
0010
,
1000
0001
0100
0010
1000
0001
0100
0001
1000
0100
0010
0001
1000
0010
1000
0100
,
0010
0001
0100
0010
1000
0100
0010
0001
1000
0010
0100
0001
0010
0100
1000
0001
,
1000
0100
1000
0010
0100
0001
0010
0001
0100
0001
1000
0010
0100
0001
2000
0000
,
0002
0000
0000
0000
,
0000
0000
0000
0000
,
0000
0000
0000
0000
,
0000
3003
0000
0000
;

//---------------dance-single - 20 (owenviau1)----------------
#NOTES:
     dance-single:
     20 (owenviau1):
     Challenge:
     20:
     1.000,1.000,0.003,0.019,1.000,3906.000,1.000,6.000,17.000,0.000:

0100
0000
0010
0001
1000
0010
0100
0000
0001
0000
0010
0100
1000
0001
0100
0000
,
0010
0000
1000
0100
1000
0001
0100
0000
0010
0000
1000
0100
0010
0001
1000
0000
,
0010
0000
0100
1000
0001
0100
0001
0000
1000
0000
0010
0100
0001
1000
0100
0000
,
0010
0000
0001
1000
0100
1000
0001
0000
0010
0000
0100
1000
0010
0100
0001
0000
,
0010
0000
0100
1000
0001
1000
0010
0000
0100
0000
0001
0100
0001
1000
0010
0000
,
0100
0000
0010
0001
1000
0010
0100
0000
0001
0000
0010
0100
1000
0001
0100
0000
,
0010
0000
1000
0100
1000
0001
0100
0000
0010
0000
1000
0100
0010
0001
1000
0000
,
0010
0000
0100
1000
0001
0100
0001
0000
1000
0000
0010
0100
0001
1000
0100
0000
,
0010
0000
0001
1000
0100
1000
0001
0000
0010
0000
0100
1000
0010
0100
0001
0000
,
0010
0000
0100
1000
0001
1000
0010
0000
0100
0000
0001
0100
0001
1000
0010
0000
,
0100
0000
0010
0001
1000
0010
0100
0000
0001
0000
0010
0100
1000
0001
0100
0000
,
0010
0000
1000
0100
1000
0001
0100
0000
0010
0000
1000
0100
0010
0001
0100
0001
,
1000
0010
0100
0001
1000
0100
1000
0010
0100
0001
0010
0001
0100
0001
1000
0010
,
1000
0100
0010
0001
0100
0010
1000
0010
0100
0001
0010
0001
1000
0001
0100
0010
,
1000
0100
0010
0001
1000
0010
1000
0100
0010
0001
0100
0010
1000
0100
0010
0001
,
2M00
0000
0000
00M0
3000
0000
000M
0000
M000
0000
0000
000M
0000
M00M
0000
0000
,
1000
0010
1000
0001
0100
0010
1000
0100
0010
0001
1000
0010
1000
0001
0100
0010
1000
0001
0010
0001
1000
0001
0100
0010
,
1000
0100
1000
0001
0010
0001
0100
0001
1000
0010
1000
0100
0010
0001
0100
0010
1000
0100
1000
0010
0100
0001
0010
0001
,
1000
0001
0100
0010
1000
0100
0010
0001
1000
0001
0010
0100
1000
0100
0010
0001
0100
0001
1000
0010
1000
0001
1000
0010
,
0100
0001
0010
0100
1000
0010
1000
0100
0010
0001
0100
0010
1000
0100
1000
0001
0010
0001
1000
0010
1000
0001
0100
0001
,
0010
0100
1000
0010
0100
0001
1000
0100
1000
0010
0100
0001
0100
0010
1000
0100
0010
0001
1000
0100
0010
0001
0100
0001
,
1000
0010
0100
0001
0010
0001
0100
0010
1000
0100
0010
0001
0100
0010
1000
0001
0010
0001
0100
0010
1000
0010
0100
0001
,
0010
0100
1000
0100
0010
0001
0100
0010
1000
0010
0100
0001
0100
0010
1000
0001
0010
0100
1000
0100
0010
0001
1000
0010
,
1000
0000
0000
0000
0000
0000
0000
0000
0100
0000
0000
0000
0000
0000
0000
0000
0010
0000
0000
0000
0000
0000
0000
0000
0001
0000
0000
0000
0000
0000
0000
0000
0100
0000
0000
0000
0000
0000
0000
0000
0001
0000
0000
0000
0000
0000
0000
0000
1000
0000
0000
0000
0000
0000
0000
0000
0100
0000
0000
0000
0000
0000
0000
0000
1000
0000
0000
0000
0000
0000
0000
0000
0010
0000
0000
0000
0000
0000
0000
0000
0100
0000
0000
0000
0000
0000
0000
0000
0001
0000
0000
0000
0000
0000
0000
0000
1000
0000
0000
0000
0000
0000
0000
0000
0010
0000
0000
0000
0000
0000
0000
0000
0100
0000
0000
0000
0000
0000
0000
0000
0001
0000
0000
0000
0000
0000
0010
0000
0000
0000
0000
0000
0100
0000
0000
0000
0000
0000
1000
0000
0000
0000
0000
0000
0100
0000
0000
0000
0000
0000
0010
0000
0000
0000
0000
0000
0001
0000
0000
0000
0000
0000
0010
0000
0000
0000
0000
0000
0100
0000
0000
0000
0000
0000
1000
0000
0000
0000
0000
0000
0100
0000
0000
0000
0000
0000
0010
0000
0000
0000
0000
0000
,
0001
0010
0100
1000
0001
0100
0010
1000
0001
0010
0100
1000
0010
1000
0001
0100
0001
1000
0100
0010
0001
0100
0010
1000
,
0001
0000
0100
0000
0010
0000
1000
0000
0001
0000
0100
0000
0001
0000
1000
0000
0010
0000
1000
0000
0100
0000
0010
0000
0001
0000
0100
0000
0010
0000
1000
0000
0000
0001
0000
0000
0010
0000
0100
0000
0001
0000
0010
0000
0001
0000
1000
0000
,
0001
0100
0010
1000
0100
0010
0001
1000
0001
0010
0100
1000
0100
0010
0001
0100
0001
1000
0010
1000
0001
1000
0010
0100
,
0001
0010
0100
1000
0010
1000
0100
0010
0001
0100
0010
1000
0100
1000
0001
0010
0001
1000
0010
1000
0001
0100
0001
0010
,
0100
1000
0010
0100
0001
1000
0100
1000
0010
0100
0001
0100
0010
1000
0100
0010
0001
1000
0100
0010
0001
0100
0001
1000
,
0010
0100
0001
0010
0001
0100
0010
1000
0100
0010
0001
0100
0010
1000
0001
0010
0001
0100
0010
1000
0010
0100
0001
0010
,
0100
0000
1000
0000
0100
0000
0010
0000
0001
0000
0100
0000
0010
0000
0000
1000
0000
0000
0001
0000
0000
0100
0000
0000
0001
0000
1000
0000
0001
0000
0010
0000
0100
0000
1000
0000
0100
0000
0010
0000
0001
0000
1000
0000
0010
0000
1000
0000
,
0100
0010
0001
0100
0001
1000
0100
1000
0010
0100
0001
1000
0010
0100
0001
1000
0001
0100
0010
0000
1000
0000
0001
0000
,
0100
0010
1000
0001
0100
0010
1000
0100
0010
0001
1000
0010
1000
0001
0100
0010
1000
0001
0010
0001
1000
0001
0100
0010
,
1000
0100
1000
0001
0010
0001
0100
0001
1000
0010
1000
0100
0010
0001
0100
0010
1000
0100
1000
0010
0100
0001
0010
0001
,
1000
0001
0100
0010
1000
0100
0010
0001
1000
0001
0010
0100
1000
0100
0010
0001
0100
0001
1000
0010
1000
0001
1000
0010
,
0100
0001
0010
0100
1000
0010
1000
0100
0010
0001
0100
0010
1000
0100
1000
0001
0010
0001
1000
0010
1000
0001
0100
0001
,
0010
0100
1000
0010
0100
0001
1000
0100
1000
0010
0100
0001
0100
0010
1000
0100
0010
0001
1000
0100
0010
0001
0100
0001
,
1000
0010
0100
0001
0010
0001
0100
0010
1000
0100
0010
0001
0100
0010
1000
0001
0010
0001
0100
0010
1000
0010
0100
0001
,
0010
0100
1000
0100
0010
0001
0100
0010
1000
0010
0100
0001
0100
0010
1000
0001
0010
0100
1000
0100
0010
0001
1000
0010
,
1000
0000
0000
0000
0000
0000
0000
0000
0100
0000
0000
0000
0000
0000
0000
0000
0010
0000
0000
0000
0000
0000
0000
0000
0001
0000
0000
0000
0000
0000
0000
0000
0100
0000
0000
0000
0000
0000
0000
0000
0001
0000
0000
0000
0000
0000
0000
0000
1000
0000
0000
0000
0000
0000
0000
0000
0100
0000
0000
0000
0000
0000
0000
0000
1000
0000
0000
0000
0000
0000
0000
0000
0010
0000
0000
0000
0000
0000
0000
0000
0100
0000
0000
0000
0000
0000
0000
0000
0001
0000
0000
0000
0000
0000
0000
0000
1000
0000
0000
0000
0000
0000
0000
0000
0010
0000
0000
0000
0000
0000
0000
0000
0100
0000
0000
0000
0000
0000
0000
0000
0001
0000
0000
0000
0000
0000
0000
0000
0010
0000
0000
0000
0000
0000
0000
0000
0100
0000
0000
0000
0000
0000
0000
0000
1000
0000
0000
0000
0000
0000
0010
0000
0000
0000
0000
0000
1000
0000
0000
0000
0000
0000
0001
0000
0000
0000
0000
0000
0100
0000
0000
0000
0000
0000
0001
0000
0000
0000
0000
0000
1000
0000
0000
0000
0000
0000
0010
0000
0000
0000
0000
0000
,
1000
0100
1000
0001
0100
0010
1000
0100
0010
0001
1000
0010
1000
0001
0100
0010
1000
0001
0010
0001
1000
0001
0100
0010
,
1000
0100
1000
0001
0010
0001
0100
0001
1000
0010
1000
0100
0010
0001
0100
0010
1000
0100
1000
0010
0100
0001
0010
0001
,
1000
0001
0100
0010
1000
0100
0010
0001
1000
0001
0010
0100
1000
0100
0010
0001
0100
0001
1000
0010
1000
0001
1000
0010
,
0100
0001
0010
0100
1000
0010
1000
0100
0010
0001
0100
0010
1000
0100
1000
0001
0010
0001
1000
0010
1000
0001
0100
0001
,
0010
0100
1000
0010
0100
0001
1000
0100
1000
0010
0100
0001
0100
0010
1000
0100
0010
0001
1000
0100
0010
0001
0100
0001
,
1000
0010
0100
0001
0010
0001
0100
0010
1000
0100
0010
0001
0100
0010
1000
0001
0010
0001
0100
0010
1000
0010
0100
0001
,
0010
0000
0000
0100
0000
0000
1000
0000
0000
0001
0000
0000
0100
0000
0010
0000
1000
0000
0010
0000
0100
0000
0001
0000
0100
0000
0000
0010
0000
0000
1000
0000
0000
0010
0000
0000
0100
0000
0001
0000
1000
0000
0100
0000
0000
0010
0000
0000
,
0001
0000
1000
0000
0100
0000
0010
0000
0001
0000
0100
0000
0010
0000
1000
0000
0010
0000
1000
0000
0100
0000
0010
0000
0001
0000
0000
1000
0000
0000
0010
0000
0100
0000
0001
0000
1000
0000
0000
0010
0000
0000
1000
0000
0000
0001
0000
0000
,
0200
0300
0000
0000
,
0000
0000
0000
0000
,
0000
0000
0010
0100
1000
0001
1000
0010
0100
0001
1000
0010
0100
0001
1000
0010
,
1000
0100
0010
0001
0100
0010
1000
0010
0100
0001
0010
0001
1000
0001
0100
0010
,
1000
0100
0010
0001
1000
0010
1000
0100
0010
0001
0100
0010
1000
0100
0010
0001
,
1000
0001
0100
0001
1000
0010
0100
0001
1000
0100
1000
0010
0100
0001
0010
0001
,
0100
0001
1000
0010
1000
0100
0010
0001
0100
0010
1000
0010
0100
0001
0010
0001
,
1000
0001
0100
0010
1000
0100
0010
0001
1000
0010
1000
0100
0010
0001
0100
0010
,
1000
0100
0010
0001
1000
0010
0100
0001
0010
0100
1000
0001
1000
0100
1000
0010
,
0100
0001
0010
0001
0100
0001
1000
0010
1000
0100
0010
0001
0100
0010
1000
0010
,
0100
0001
0010
0001
1000
0001
0100
0010
1000
0100
0010
0001
1000
0010
1000
0100
,
0010
0001
0100
0010
1000
0100
0010
0001
0100
0010
0100
0001
1000
0010
0100
0001
,
1000
0100
1000
0010
0100
0001
0010
0001
0100
0001
1000
0010
1000
0100
0010
0001
,
0100
0010
1000
0010
0100
0001
0010
0001
1000
0001
0100
0010
1000
0100
0010
0001
,
1000
0010
1000
0100
0010
0001
0100
0010
1000
0100
0010
0001
1000
0010
1000
0100
,
0010
0001
0100
0010
1000
0100
1000
0001
0100
0001
0010
0100
4000
0000
0000
0000
,
3002
0000
0000
0000
1003
0010
0100
0001
1000
0010
0100
0001
1000
0100
1000
0010
,
0100
0001
0010
0001
0100
0001
1000
0010
1000
0100
0010
0001
0100
0010
1000
0010
,
0100
0001
0010
0001
1000
0001
0100
0010
1000
0100
0010
0001
1000
0010
1000
0100
,
0010
0001
0100
0010
1000
0100
0010
0001
1000
0001
0100
0001
1000
0010
0100
0001
,
1000
0100
1000
0010
0100
0001
0010
0001
0100
0001
1000
0010
1000
0100
0010
0001
,
0100
0010
1000
0010
0100
0001
0010
0001
1000
0001
0100
0010
1000
0100
0010
0001
,
1000
0010
1000
0100
0010
0001
0100
0010
1000
0100
0010
0001
1000
0010
0100
0001
,
0010
0100
1000
0001
1000
0100
1000
0010
0100
0001
0010
0001
0100
0001
1000
0010
,
1000
0100
0010
0001
0100
0010
1000
0010
0100
0001
0010
0001
1000
0001
0100
0010
,
1000
0100
0010
0001
1000
0010
1000
0100
0010
0001
0100
0010
1000
0100
0010
0001
,
0100
0010
0100
0001
1000
0010
0100
0001
1000
0100
1000
0010
0100
0001
0010
0001
,
0100
0001
1000
0010
1000
0100
0010
0001
0100
0010
1000
0010
0100
0001
0010
0001
,
1000
0001
0100
0010
1000
0100
0010
0001
1000
0010
1000
0100
0010
0001
0100
0010
,
1000
0100
0010
0001
1000
0010
1000
0100
0010
0001
0100
0010
1000
0100
1000
0001
,
0100
0001
0010
0100
1000
0010
0100
0001
0010
0100
1000
0001
0010
0100
0010
0001
,
1000
0010
1000
0100
0010
0001
0100
0010
1000
0100
1000
0001
1000
0010
0100
0001
,
1000
0001
0100
0001
1000
0010
0100
0001
1000
0100
1000
0010
0100
0001
0010
0001
,
0100
0001
1000
0010
1000
0100
0010
0001
0100
0010
1000
0010
0100
0001
0010
0001
,
1000
0001
0100
0010
1000
0100
0010
0001
1000
0010
1000
0100
0010
0001
0100
0010
,
1000
0100
0010
0001
1000
0001
0100
0001
1000
0010
0100
0001
1000
0100
1000
0010
,
0100
0001
0010
0001
0100
0001
1000
0010
1000
0100
0010
0001
0100
0010
1000
0010
,
0100
0001
0010
0001
1000
0001
0100
0010
1000
0100
0010
0001
1000
0010
1000
0100
,
0010
0001
0100
0010
1000
0100
0010
0001
1000
0010
0100
0001
0010
0100
1000
0001
,
1000
0100
1000
0010
0100
0001
0010
0001
0100
0001
1000
0010
1000
0100
0010
0001
,
0100
0010
1000
0010
0100
0001
0010
0001
1000
0001
0100
0010
1000
0100
0010
0001
,
1000
0010
1000
0100
0010
0001
0100
0010
1000
0100
0010
0001
0100
0010
0100
0001
,
1000
0010
0100
0001
1000
0100
1000
0010
0100
0001
0010
0001
0100
0001
1000
0010
,
1000
0100
0010
0001
0100
0010
1000
0010
0100
0001
0010
0001
1000
0001
0100
0010
,
1000
0100
0010
0001
1000
0010
1000
0100
0010
0001
0100
0010
1000
0100
0010
0001
,
1000
0010
1000
0100
0010
0001
0100
0010
1000
0100
1000
0001
0100
0001
0010
0100
,
1000
0100
0010
0001
0100
0010
1000
0001
0100
0001
1000
0100
1000
0010
0100
0001
,
0010
0000
0000
0100
0000
0000
1000
0000
0000
0100
0000
0000
0010
0000
0100
0000
0001
0000
1000
0000
0001
0000
0100
0000
0001
0000
1000
0000
0100
0000
0010
0000
0001
0000
0100
0000
0010
0000
1000
0000
0100
0000
1000
0000
0001
0000
1000
0000
,
0M20
0M00
0M00
0M00
0M00
0M00
0M00
0M00
0M00
0000
0000
0000
0000
0000
0000
0000
0000
0000
0000
0000
0000
0000
0000
0000
0000
0000
0000
0000
0000
0000
0000
0000
,
1030
0000
0001
0000
1000
0000
0010
0000
1000
0000
0001
00M0
,
1000
0001
1000
0010
0100
0010
1000
0100
0010
0001
1000
0010
1000
0001
0100
0010
1000
0001
0010
0001
1000
0001
0100
0010
,
1000
0100
1000
0001
0010
0001
0100
0001
1000
0010
1000
0100
0010
0001
0100
0010
1000
0100
1000
0010
0100
0001
0010
0001
,
1000
0001
0100
0010
1000
0100
0010
0001
1000
0001
0010
0100
1000
0100
0010
0001
0100
0001
1000
0010
1000
0001
1000
0010
,
0100
0001
0010
0100
1000
0010
1000
0100
0010
0001
0100
0010
1000
0100
1000
0001
0010
0001
1000
0010
1000
0001
0100
0001
,
0010
0100
1000
0010
0100
0001
1000
0100
1000
0010
0100
0001
0100
0010
1000
0100
0010
0001
1000
0100
0010
0001
0100
0001
,
1000
0010
0100
0001
0010
0001
0100
0010
1000
0100
0010
0001
0100
0010
1000
0001
0010
0001
0100
0010
1000
0010
0100
0001
,
1000
0010
1000
0001
0100
0010
1000
0100
0010
0001
1000
0010
1000
0001
0100
0010
1000
0001
0010
0001
1000
0001
0100
0010
,
1000
0100
1000
0001
0010
0001
0100
0001
1000
0010
1000
0100
0010
0001
0100
0010
1000
0100
1000
0010
0100
0001
0010
0001
,
1000
0001
0100
0010
1000
0100
0010
0001
1000
0001
0010
0100
1000
0100
0010
0001
0100
0001
1000
0010
1000
0001
1000
0010
,
0100
0001
0010
0100
1000
0010
1000
0100
0010
0001
0100
0010
1000
0100
1000
0001
0010
0001
1000
0010
1000
0001
0100
0001
,
0010
0100
1000
0010
0100
0001
1000
0100
1000
0010
0100
0001
0100
0010
1000
0100
0010
0001
1000
0100
0010
0001
0100
0001
,
1000
0010
0100
0001
0010
0001
0100
0010
1000
0100
0010
0001
0100
0010
1000
0001
0010
0001
0100
0010
1000
0010
0100
0001
,
0010
0100
1000
0001
0100
0010
1000
0100
0010
0001
1000
0010
1000
0001
0100
0010
1000
0001
0010
0001
1000
0001
0100
0010
,
1000
0100
1000
0001
0010
0001
0100
0001
1000
0010
1000
0100
0010
0001
0100
0010
1000
0100
1000
0010
0100
0001
0010
0001
,
1000
0001
0100
0010
1000
0100
0010
0001
1000
0001
0010
0100
1000
0100
0010
0001
0100
0001
1000
0010
1000
0001
1000
0010
,
0100
0001
0010
0100
1000
0010
1000
0100
0010
0001
0100
0010
1000
0100
1000
0001
0010
0001
1000
0010
1000
0001
0100
0001
,
0010
0100
1000
0010
0100
0001
1000
0100
1000
0010
0100
0001
0100
0010
1000
0100
0010
0001
1000
0100
0010
0001
0100
0001
,
1000
0010
0100
0001
0010
0001
0100
0010
1000
0100
0010
0001
0100
0010
1000
0001
0010
0001
0100
0010
1000
0010
0100
0001
,
0100
0010
1000
0001
0100
0010
1000
0100
0010
0001
1000
0010
1000
0001
0100
0010
1000
0001
0010
0001
1000
0001
0100
0010
,
1000
0100
1000
0001
0010
0001
0100
0001
1000
0010
1000
0100
0010
0001
0100
0010
1000
0100
1000
0010
0100
0001
0010
0001
,
1000
0001
0100
0010
1000
0100
0010
0001
1000
0001
0010
0100
1000
0100
0010
0001
0100
0001
1000
0010
0100
0001
1000
0010
,
0100
0001
0010
0100
1000
0010
1000
0100
0010
0001
0100
0010
1000
0100
1000
0001
0010
0001
0100
0010
1000
0001
0100
0001
,
0010
0100
1000
0010
0100
0001
1000
0100
1000
0010
0100
0001
0100
0010
1000
0100
0010
0001
1000
0100
0010
0001
0100
0001
,
1000
0010
0100
0001
0010
0001
0100
0010
1000
0100
0010
0001
0100
0010
1000
0001
0010
0001
0100
0010
1000
0010
0100
0001
,
1000
0100
1000
0001
0100
0010
1000
0100
0010
0001
1000
0010
1000
0001
0100
0010
1000
0001
0010
0001
1000
0001
0100
0010
,
1000
0100
1000
0001
0010
0001
0100
0001
1000
0010
1000
0100
0010
0001
0100
0010
1000
0100
1000
0010
0100
0001
0010
0001
,
1000
0001
0100
0010
1000
0100
0010
0001
1000
0001
0010
0100
1000
0100
0010
0001
0100
0001
1000
0010
1000
0001
1000
0010
,
0100
0001
0010
0100
1000
0010
1000
0100
0010
0001
0100
0010
1000
0100
1000
0001
0010
0001
1000
0010
1000
0001
0100
0001
,
0010
0100
1000
0010
0100
0001
1000
0100
1000
0010
0100
0001
0100
0010
1000
0100
0010
0001
1000
0100
0010
0001
0100
0001
,
1000
0010
0100
0001
0010
0001
0100
0010
1000
0100
0010
0001
0100
0010
1000
0001
0010
0001
0100
0010
1000
0100
0010
0001
,
1000
0010
1000
0001
0100
0010
1000
0100
0010
0001
1000
0010
1000
0001
0100
0010
1000
0001
0010
0001
1000
0001
0100
0010
,
1000
0100
1000
0001
0010
0001
0100
0001
1000
0010
1000
0100
0010
0001
0100
0010
1000
0100
1000
0010
0100
0001
0010
0001
,
1000
0001
0100
0010
1000
0100
0010
0001
1000
0001
0010
0100
1000
0100
0010
0001
0100
0001
1000
0010
1000
0001
1000
0010
,
0100
0001
0010
0100
1000
0010
1000
0100
0010
0001
0100
0010
1000
0100
1000
0001
0010
0001
1000
0010
1000
0001
0100
0001
,
0010
0100
1000
0010
0100
0001
1000
0100
1000
0010
0100
0001
0100
0010
1000
0100
0010
0001
1000
0100
0010
0001
0100
0001
,
1000
0010
0100
0001
0010
0001
0100
0010
1000
0100
0010
0001
0100
0010
1000
0001
0010
0001
0100
0010
1000
0010
0100
0001
,
1000
0001
0100
0010
1000
0100
0010
0001
0100
0010
1000
0100
1000
0010
0100
0001
0010
0001
1000
0001
0100
0010
1000
0100
,
0010
0001
1000
0001
0010
0100
1000
0100
0010
0001
0100
0001
1000
0100
0010
0001
1000
0010
0100
0001
0010
0100
1000
0010
,
1000
0100
0010
0001
0100
0010
1000
0100
1000
0001
0010
0001
1000
0010
1000
0001
0100
0001
0010
0100
1000
0010
0100
0001
,
1000
0100
1000
0010
0100
0001
0100
0010
1000
0100
0010
0001
1000
0100
0010
0001
0100
0001
1000
0010
0100
0001
0010
0001
,
0100
0010
1000
0100
0010
0001
0100
0010
1000
0001
0010
0001
0100
0010
1000
0010
0100
0001
1000
0100
0010
0001
1000
0100
,
0010
0001
0100
0010
1000
0100
1000
0010
0100
0001
0010
0001
1000
0001
0100
0010
1000
0100
0010
0001
1000
0001
0010
0100
,
1000
0100
0010
0001
0100
0001
1000
0010
1000
0001
1000
0010
0100
0001
0010
0100
1000
0010
1000
0100
0010
0001
0100
0010
,
1000
0100
1000
0001
0010
0001
1000
0010
1000
0001
0100
0001
0010
0100
1000
0010
0100
0001
1000
0100
1000
0010
0100
0001
,
0100
0010
1000
0100
0010
0001
1000
0100
0010
0001
0100
0001
1000
0010
0100
0001
0010
0001
0100
0010
1000
0100
0010
0001
,
0100
0010
1000
0001
0010
0001
0100
0010
1000
0010
0100
0001
0010
0001
0100
0010
1000
0100
0010
0001
0100
0010
1000
0100
,
1000
0000
0010
0000
0100
0000
0001
0000
0010
0000
0001
0000
1000
0000
0000
0010
0000
0000
1000
0000
0000
0001
0000
0000
0100
0000
0000
0010
0000
0000
1000
0000
0000
0100
0000
0000
0010
0000
0000
0001
0000
0000
0100
0000
0000
0010
0000
0000
,
1000
0001
0010
0001
1000
0001
0100
0010
1000
0100
0010
0001
0100
0010
1000
0001
,
1000
0010
1000
0001
0100
0001
0010
0100
1000
0010
0100
0001
1000
0100
1000
0010
0100
0001
0100
0010
1000
0100
0010
0001
,
1000
0100
0010
0001
0100
0001
1000
0010
0100
0001
0010
0001
0100
0010
1000
0100
0010
0001
0100
0010
1000
0001
0010
0001
,
0100
0010
1000
0010
0100
0001
0010
0001
1000
0010
0100
0010
1000
0100
0010
0001
1000
0010
1000
0001
0100
0010
1000
0001
,
0010
0001
1000
0001
0100
0010
1000
0100
1000
0001
0010
0001
0100
0001
1000
0010
1000
0100
0010
0001
0100
0010
1000
0100
,
1000
0010
0100
0001
0010
0001
1000
0001
0100
0010
1000
0100
0010
0001
1000
0001
0010
0100
1000
0100
0010
0001
0100
0001
,
1000
0010
1000
0001
1000
0010
0100
0001
0010
0100
1000
0010
1000
0100
0010
0001
0100
0010
1000
0100
1000
0001
0010
0001
,
1000
0010
1000
0001
0100
0001
0010
0100
1000
0010
0100
0001
1000
0100
1000
0010
0100
0001
0100
0010
1000
0100
0010
0001
,
1000
0100
0010
0001
0100
0001
1000
0010
0100
0001
0010
0001
0100
0010
1000
0100
0010
0001
0100
0010
1000
0001
0010
0001
,
0100
0010
1000
0010
0100
0001
1000
0010
1000
0001
0100
0010
1000
0100
0010
0001
1000
0010
1000
0001
0100
0010
1000
0001
,
0010
0001
1000
0001
0100
0010
1000
0100
1000
0001
0010
0001
0100
0001
1000
0010
1000
0100
0010
0001
0100
0010
1000
0100
,
1000
0010
0100
0001
0010
0001
1000
0001
0100
0010
1000
0100
0010
0001
1000
0001
0010
0100
1000
0100
0010
0001
0100
0001
,
1000
0010
1000
0001
1000
0010
0100
0001
0010
0100
1000
0010
1000
0100
0010
0001
0100
0010
1000
0100
1000
0001
0010
0001
,
1000
0010
1000
0001
0100
0001
0010
0100
1000
0010
0100
0001
1000
0100
1000
0010
0100
0001
0100
0010
1000
0100
0010
0001
,
1000
0100
0010
0001
0100
0001
1000
0010
0100
0001
0010
0001
0100
0010
1000
0100
0010
0001
0100
0010
1000
0001
0010
0001
,
0100
0000
0010
0000
1000
0000
0010
0000
0100
0000
0001
0000
1000
0000
0000
0100
0000
0000
0010
0000
0000
0001
0000
0000
0100
0000
0000
0001
0000
0000
1000
0000
0000
0010
0000
0000
0100
0000
0000
0001
0000
0000
0010
0000
0000
0001
0000
0000
,
1000
0010
0100
0001
0010
0100
1000
0010
0100
0001
1000
0100
1000
0001
0100
0010
,
1000
0010
0100
0001
0010
0001
1000
0001
0100
0010
1000
0100
0010
0001
1000
0001
0010
0100
1000
0100
0010
0001
0100
0001
,
1000
0010
1000
0001
1000
0010
0100
0001
0010
0100
1000
0010
1000
0100
0010
0001
0100
0010
1000
0100
1000
0001
0010
0001
,
1000
0010
1000
0001
0100
0001
0010
0100
1000
0010
0100
0001
1000
0100
1000
0010
0100
0001
0100
0010
1000
0100
0010
0001
,
1000
0100
0010
0001
0100
0001
1000
0010
0100
0001
0010
0001
0100
0010
1000
0100
0010
0001
0100
0010
1000
0001
0010
0001
,
0100
0010
1000
0010
0100
0001
0100
0010
1000
0001
0100
0010
1000
0100
0010
0001
1000
0010
1000
0001
0100
0010
1000
0001
,
0010
0001
1000
0001
0100
0010
1000
0100
1000
0001
0010
0001
0100
0001
1000
0010
1000
0100
0010
0001
0100
0010
1000
0100
,
1000
0010
0100
0001
0010
0001
1000
0001
0100
0010
1000
0100
0010
0001
1000
0001
0010
0100
1000
0100
0010
0001
0100
0001
,
1000
0010
0100
0001
1000
0010
0100
0001
0010
0100
1000
0010
1000
0100
0010
0001
0100
0010
1000
0100
1000
0001
0010
0001
,
0100
0010
1000
0001
0100
0001
0010
0100
1000
0010
0100
0001
1000
0100
1000
0010
0100
0001
0100
0010
1000
0100
0010
0001
,
1000
0100
0010
0001
0100
0001
1000
0010
0100
0001
0010
0001
0100
0010
1000
0100
0010
0001
0100
0010
1000
0001
0010
0001
,
0100
0010
1000
0010
0100
0001
1000
0100
1000
0001
0100
0010
1000
0100
0010
0001
1000
0010
1000
0001
0100
0010
1000
0001
,
0010
0001
1000
0001
0100
0010
1000
0100
1000
0001
0010
0001
0100
0001
1000
0010
1000
0100
0010
0001
0100
0010
1000
0100
,
1000
0010
0100
0001
0010
0001
1000
0001
0100
0010
1000
0100
0010
0001
1000
0001
0010
0100
1000
0100
0010
0001
0100
0001
,
1000
0010
1000
0001
1000
0010
0100
0001
0010
0100
1000
0010
1000
0100
0010
0001
0100
0010
1000
0100
1000
0001
0010
0001
,
1000
0010
1000
0001
0100
0001
0010
0100
1000
0010
0100
0001
1000
0100
1000
0010
0100
0001
0100
0010
1000
0100
0010
0001
,
1000
0100
0010
0001
0100
0001
1000
0010
0100
0001
0010
0001
0100
0010
1000
0100
0010
0001
0100
0010
1000
0001
0010
0001
,
0100
0010
1000
0100
0010
0001
1000
0010
1000
0001
0100
0010
1000
0100
0010
0001
1000
0010
1000
0001
0100
0010
1000
0001
,
0010
0001
1000
0001
0100
0010
1000
0100
1000
0001
0010
0001
0100
0001
1000
0010
1000
0100
0010
0001
0100
0010
1000
0100
,
1000
0010
0100
0001
0010
0001
1000
0001
0100
0010
1000
0100
0010
0001
1000
0001
0010
0100
1000
0100
0010
0001
0100
0001
,
1000
0010
1000
0001
1000
0010
0100
0001
0010
0100
1000
0010
1000
0100
0010
0001
0100
0010
1000
0100
1000
0001
0010
0001
,
1000
0010
1000
0001
0100
0001
0010
0100
1000
0010
0100
0001
1000
0100
1000
0010
0100
0001
0100
0010
1000
0100
0010
0001
,
1000
0100
0010
0001
0100
0001
1000
0010
0100
0001
0010
0001
0100
0010
1000
0100
0010
0001
0100
0010
1000
0001
0010
0001
,
0100
0010
1000
0010
0100
0001
1000
0001
0100
0010
1000
0100
0010
0001
0100
0010
1000
0100
1000
0010
0100
0001
0010
0001
,
1000
0001
0100
0010
1000
0100
0010
0001
1000
0001
0010
0100
1000
0100
0010
0001
0100
0001
1000
0100
0010
0001
1000
0010
,
1000
0001
0100
0001
1000
0010
0100
0001
1000
0100
1000
0010
0100
0001
0010
0001
,
0100
0001
1000
0010
1000
0100
0010
0001
0100
0010
1000
0010
0100
0001
0010
0001
,
1000
0001
0100
0010
1000
0100
0010
0001
1000
0010
1000
0100
0010
0001
0100
0010
,
1000
0100
0010
0001
1000
0001
0100
0001
1000
0010
0100
0001
1000
0100
1000
0010
,
0100
0001
0010
0001
0100
0001
1000
0010
1000
0100
0010
0001
0100
0010
1000
0010
,
0100
0001
0010
0001
1000
0001
0100
0010
1000
0100
0010
0001
1000
0010
1000
0100
,
0010
0001
0100
0010
1000
0100
0010
0001
1000
0010
0100
0001
0010
0100
1000
0001
,
1000
0100
1000
0010
0100
0001
0010
0001
0100
0001
1000
0010
0100
0001
2000
0000
,
0002
0000
0000
0000
,
0000
0000
0000
0000
,
0000
0000
0000
0000
,
0000
3003
0000
0000
;
