#TITLE:Winter;
#SUBTITLE:;
#ARTIST:Banya;
#TITLETRANSLIT:;
#SUBTITLETRANSLIT:;
#ARTISTTRANSLIT:;
#CREDIT:;
#BANNER:Winter.png;
#BACKGROUND:Winter-bg.png;
#LYRICSPATH:;
#CDTITLE:!DBStitle.png;
#MUSIC:Winter (Full Version).mp3;
#OFFSET:-0.290;
#SAMPLESTART:81.696;
#SAMPLELENGTH:22.826;
#SELECTABLE:YES;
#BPMS:0.000=168.000;
#STOPS:;
#BGCHANGES:;
// cache tags:
#FIRSTBEAT:0.000;
#LASTBEAT:496.500;
#SONGFILENAME:Songs/Keyboard Collaboration II/Omegix - Winter/Winter.sm;
#HASMUSIC:1;
#HASBANNER:1;
#MUSICLENGTH:179.887;
// end cache tags

//---------------dance-single - ----------------
#NOTES:
     dance-single:
     :
     Hard:
     12:
     1.000,1.000,0.289,0.756,1.000,1466.000,52.000,136.000,0.000,2.000:  // measure 1
0012
0000
0000
0000
2003
3000
0200
0300
0012
0000
0000
0000
2003
3000
0200
0300
,  // measure 2
0001
0001
0010
0100
1000
0100
0010
0100
1000
0010
1000
0100
0010
0001
0010
0100
,  // measure 3
1002
0000
0000
0000
0203
0300
0020
0030
1002
0000
0000
0000
0203
0300
0020
0030
,  // measure 4
0001
0001
0010
0100
1000
0100
0010
0001
0010
1000
0010
0100
1000
0100
0010
0100
,  // measure 5
0001
0010
0001
1000
0001
0010
0001
1000
0001
0010
0001
1000
0001
0010
0001
1000
,  // measure 6
0011
0101
0011
0101
,  // measure 7
0011
0000
0101
0000
0011
0010
0110
0100
,  // measure 8
1200
0000
0000
0000
0302
0003
0020
0030
1200
0000
0000
0000
0302
0003
0020
0030
,  // measure 9
1000
1000
0100
0010
0001
0010
0100
0010
0001
0100
0001
0010
0100
1000
0100
0010
,  // measure 10
1000
0100
1000
0001
1000
0100
1000
0001
1000
0100
1000
0001
1000
0100
1000
0001
,  // measure 11
1100
1010
1100
1010
,  // measure 12
1100
0000
1010
0000
1100
0100
0110
0010
,  // measure 13
0021
0000
0000
0000
2030
3000
0200
0300
0021
0000
0000
0000
2030
3000
0200
0300
,  // measure 14
0001
0010
0100
0010
0001
0010
0100
0010
0100
0001
0100
0010
0100
1000
0100
0001
,  // measure 15
1000
0010
1000
0001
1000
0010
1000
0001
1000
0010
1000
0001
1000
0010
1000
0001
,  // measure 16
1100
1001
1100
1001
,  // measure 17
1200
0300
0000
0000
1200
0300
0000
0000
1200
0300
0000
0000
1200
0300
0000
0000
,  // measure 18
0012
0003
0000
0000
0012
0003
0000
0000
0012
0003
0010
0000
1020
0030
1000
0000
,  // measure 19
1002
0103
1000
0000
1000
0100
1000
0000
1000
0100
1000
0000
1000
0100
1000
0000
,  // measure 20
0100
0010
0100
0000
0100
0010
0100
0000
0100
0010
0100
0000
0100
0010
0100
0000
,  // measure 21
0001
0010
0001
0000
0001
0010
0001
0000
0001
0010
0001
0000
0001
0010
0001
0000
,  // measure 22
1000
0010
1000
0000
1000
0010
1000
0000
1000
0010
1000
0000
1000
0010
1000
0000
,  // measure 23
1000
0001
1000
0000
1000
0001
1000
0000
1000
0001
1000
0010
1000
0001
1000
0100
,  // measure 24
1001
0000
0000
0000
1000
0000
0100
0000
0010
0000
0000
0000
1000
0000
0001
0000
1000
0000
0000
0000
0010
1000
0000
0000
0010
1000
0000
0000
0010
1000
0000
0000
,  // measure 25
1000
1000
0100
0010
1000
1000
0100
0010
1000
1000
0100
0010
1000
1000
0100
0010
,  // measure 26
1001
0000
0000
0000
0001
0000
0010
0000
0100
0000
1000
0000
0001
0000
1000
0000
0001
0000
0000
0000
0100
0001
0000
0000
0100
0001
0000
0000
0100
0001
0000
0000
,  // measure 27
0001
0001
0010
0100
0001
0001
0010
0100
0001
0001
0010
0100
0001
0001
0010
0100
,  // measure 28
0011
0000
0000
0000
1000
0000
0001
0000
0100
0000
0010
0000
1000
0000
0100
0000
0010
0000
0000
0000
0010
1000
0000
0000
0010
1000
0000
0000
0010
1000
0000
0000
,  // measure 29
0010
0010
0100
1000
0010
0010
0100
1000
0010
0010
0100
1000
0010
0010
0100
1000
,  // measure 30
0011
0000
0000
0000
0001
0000
1000
0000
0010
0000
0100
0000
0001
0000
0010
0000
0100
0000
0000
0000
0100
0001
0000
0000
0100
0001
0000
0000
0100
0001
0000
0000
,  // measure 31
0100
0100
0010
0001
0100
0100
0010
0001
0100
0100
0010
0001
0100
0100
0010
0001
,  // measure 32
1000
0100
0010
0001
0100
0010
0100
1000
0001
0010
0100
1000
0010
0100
0010
0001
,  // measure 33
1000
0100
0010
0001
0100
0010
1000
0001
1000
0100
0010
0001
1000
0100
0010
0100
,  // measure 34
0001
0000
1000
0001
1000
0000
0001
0010
1000
0001
0010
0001
0100
0001
0010
0001
,  // measure 35
1000
0010
0100
0010
0001
0010
0100
0010
1000
0100
0010
0100
0001
0100
0010
0100
,  // measure 36
1000
0100
0010
0001
1000
0100
0010
0001
0001
0010
0100
1000
0001
0010
0100
0010
,  // measure 37
1000
0000
0001
1000
0001
0000
1000
0100
0001
0010
0100
0010
1000
0010
0100
0010
,  // measure 38
0001
0100
1000
0100
0010
0100
1000
0100
0001
1000
0100
1000
0010
1000
0100
1000
,  // measure 39
0001
0010
0100
1000
0001
0010
0100
1000
1000
0100
0010
0001
1000
0100
0010
0100
,  // measure 40
0001
0000
1000
0010
1000
0000
0001
0010
1000
0100
0010
0100
0001
0100
0010
0100
,  // measure 41
1000
0001
0010
0001
0100
0001
0010
0001
1000
0010
0001
0010
0100
0010
0001
0010
,  // measure 42
1000
0100
0010
0100
1000
0100
0010
0100
1000
0100
0010
0100
1000
0100
0010
0100
,  // measure 43
0001
0010
0001
0010
0001
0010
0001
0010
0100
0010
0100
1000
0010
0100
0001
0010
,  // measure 44
1000
0100
1000
0100
1000
0100
1000
0100
0010
0100
0010
0001
0100
0010
1000
0100
,  // measure 45
0001
0010
0100
0001
0100
0010
0100
1000
0100
0010
0100
0001
0100
0010
0001
0010
,  // measure 46
2100
0000
0010
0000
0010
0010
0010
0010
,  // measure 47
3001
0010
0001
0010
0100
0010
0100
0010
0001
0100
0001
0100
1000
0010
1000
0010
,  // measure 48
0001
0010
0100
0010
1000
0100
0010
0100
0001
0010
0100
0010
1000
0100
0010
0100
,  // measure 49
0001
1000
0001
1000
0100
0010
0100
0010
0001
0010
0001
0010
0100
1000
0100
1000
,  // measure 50
0001
0010
0100
0010
0001
0010
0100
0010
0001
0010
0100
0010
0001
0010
0100
0010
,  // measure 51
1000
0100
1000
0100
0010
0100
0010
0100
1000
0100
1000
0100
0010
0001
0010
0001
,  // measure 52
1000
0100
0010
0001
0100
0010
1000
0001
0010
0100
1000
0010
0100
0001
0010
0001
,  // measure 53
1000
0100
1000
0001
1000
0100
1000
0001
1000
0100
1000
0001
1000
0100
1000
0001
,  // measure 54
1000
0100
0010
0001
0100
0010
1000
0001
0010
0100
1000
0010
0100
0001
0100
0010
,  // measure 55
0001
0001
0010
0100
1000
1000
0100
0010
0001
0001
0010
0100
1000
1000
0100
0010
,  // measure 56
0001
0010
0001
0010
0100
0010
0100
0010
0001
0100
0001
0100
0001
0010
0100
1000
,  // measure 57
0002
0000
0010
0100
1000
0100
1000
0100
,  // measure 58
2003
0000
0000
0000
0000
0000
3010
0000
0000
0100
0010
0001
2000
0000
0000
0000
0000
0000
3010
0000
0000
0100
0000
0000
,  // measure 59
0020
2030
0000
3020
,  // measure 60
0031
0000
0000
0010
0100
0010
0001
0000
0000
0100
0000
0000
0002
0000
0000
0000
0000
0000
2003
0000
0000
0000
0000
0000
,  // measure 61
3002
2003
0000
3020
,  // measure 62
2030
0000
3020
0032
0203
0000
2300
3020
,  // measure 63
0032
0000
0203
2300
3020
0000
0032
2003
,  // measure 64
3200
0000
0320
0230
2300
0000
3002
0203
,  // measure 65
0320
0000
0230
0302
2003
0000
3020
0230
,  // measure 66
2300
0000
0001
0100
0001
3200
0320
0032
,  // measure 67
0203
0000
1000
0001
1000
0320
0230
2300
,  // measure 68
3020
0000
1000
0001
1000
0230
0320
0230
,  // measure 69
0302
0000
0100
0010
0100
2003
3200
0320
,  // measure 70
2130
3012
0000
2003
,  // measure 71
3001
0010
0100
1000
0010
0100
0010
0001
0100
1000
0100
0010
0001
0100
0010
0100
,  // measure 72
0002
0000
0000
0000
1003
0100
0010
0001
1000
0100
0010
0001
0200
0000
0000
0000
,  // measure 73
2300
0000
0001
0000
0001
0001
0001
0001
,  // measure 74
3002
0000
0000
0000
0000
0000
1003
0000
0000
0001
0100
0010
2000
0000
0000
0000
0000
0000
3010
0000
0000
0100
0000
0000
,  // measure 75
0020
0230
0000
0302
,  // measure 76
0103
0000
0000
1000
0010
0100
0010
0000
0000
0100
0000
0000
0020
0000
0000
0000
0000
0000
2030
0000
0000
0000
0000
0000
,  // measure 77
3002
0000
2003
0000
0000
0001
0010
3200
,  // measure 78
0302
0000
0000
0103
0010
0100
0001
0000
0000
1000
0000
0000
0200
0000
0000
0000
0000
0000
0302
0000
0000
0000
0000
0000
,  // measure 79
0023
0230
0000
2300
,  // measure 80
3002
0000
0023
0230
0320
0000
0230
2300
,  // measure 81
3002
0000
0023
0230
0320
0000
0230
2300
,  // measure 82
3200
0000
0320
0230
2300
0000
3200
0320
,  // measure 83
2030
0000
0000
0000
0000
0000
0010
0001
,  // measure 84
3010
0010
1000
1000
0001
1000
1000
0100
,  // measure 85
0020
0000
0000
0000
2030
0000
0000
0000
0000
0000
3001
0010
0100
0010
1000
0010
,  // measure 86
0100
0100
0001
0001
1000
0001
0001
0010
,  // measure 87
0200
0000
0000
0000
0302
0000
0000
0000
0000
0000
1003
0100
0010
0100
0001
0100
,  // measure 88
0012
1000
0103
0100
0012
1000
0103
0100
,  // measure 89
0012
0000
1000
0000
0103
1000
0100
0010
0001
0100
0010
1000
0001
0010
0100
0010
,  // measure 90
1001
0000
0000
0000
0001
0000
0010
0000
0100
0000
0000
0000
0001
0000
1000
0000
0100
0000
0000
0000
0010
1000
0000
0000
0010
1000
0000
0000
0010
1000
0000
0000
,  // measure 91
0001
0001
1000
0100
0001
0001
1000
0100
0001
0001
1000
0100
0001
0001
1000
0100
,  // measure 92
1001
0000
0000
0000
1000
0000
0100
0000
0010
0000
0100
0000
1000
0000
0001
0000
0010
0000
0000
0000
0100
0001
0000
0000
0100
0001
0000
0000
0100
0001
0000
0000
,  // measure 93
1000
1000
0001
0010
1000
1000
0001
0010
1000
1000
0001
0010
1000
1000
0001
0010
,  // measure 94
1001
0000
0000
0000
0010
0000
0001
0000
0100
0000
0010
0000
0100
0000
1000
0000
0100
0000
0000
0000
1000
0010
0000
0000
1000
0010
0000
0000
1000
0010
0000
0000
,  // measure 95
0100
0100
1000
0010
0100
0100
1000
0010
0100
0100
1000
0010
0100
0100
1000
0010
,  // measure 96
1001
0000
0000
0000
0100
0000
1000
0000
0010
0000
0100
0000
0010
0000
0001
0000
0010
0000
0000
0000
0001
0100
0000
0000
0001
0100
0000
0000
0001
0100
0000
0000
,  // measure 97
0010
0010
0001
0100
0010
0010
0001
0100
0010
0010
0001
0100
0010
0010
0001
0100
,  // measure 98
0001
0100
0010
0100
1000
0100
0010
1000
0001
0010
0100
0010
0001
0010
0100
1000
,  // measure 99
0001
0100
0010
0100
1000
0100
0010
0001
1000
0010
0100
0010
0001
0100
0010
0100
,  // measure 100
0001
0000
1000
0010
1000
0000
0001
0010
1000
0100
0010
0100
0001
0100
0010
0100
,  // measure 101
1000
0010
0100
0010
0001
0010
0100
0010
1000
0100
0010
0100
0001
0100
0010
0100
,  // measure 102
0001
0010
0100
1000
0010
0100
0001
0010
1000
0100
0010
0001
1000
0010
0100
0010
,  // measure 103
1000
0000
0001
0100
0001
0000
1000
0100
0001
1000
0100
1000
0010
1000
0100
1000
,  // measure 104
0001
0010
0100
0010
1000
0010
0100
0010
0001
0100
0010
0100
1000
0100
0010
0100
,  // measure 105
1000
0100
0010
0001
0100
0010
1000
0100
0001
0010
0100
1000
0001
0100
0010
0100
,  // measure 106
0001
0000
1000
0001
1000
0000
0001
0010
1000
0001
0010
0001
0100
0001
0010
0001
,  // measure 107
1000
0010
0100
0010
0001
0010
0100
0010
1000
0100
0010
0100
0001
0100
0010
0100
,  // measure 108
1000
0010
0001
0010
1000
0010
0001
0010
1000
0010
0001
0010
1000
0010
0001
0010
,  // measure 109
1000
0001
1000
0001
1000
0001
1000
0001
0100
0010
0100
1000
0001
0010
0100
1000
,  // measure 110
0001
1000
0001
1000
0001
1000
0001
1000
0100
0010
0100
1000
0001
0010
0100
1000
,  // measure 111
0100
0010
0100
0010
0100
1000
0100
0001
0100
0010
0001
0010
1000
0010
0100
0010
,  // measure 112
1002
0000
1000
0000
1000
1000
1000
1000
,  // measure 113
1003
0100
0010
0001
0100
0010
0100
1000
0001
0100
0010
0100
0001
0010
0100
1000
,  // measure 114
0001
0100
0010
0100
0001
0100
0010
0100
0001
0100
0010
0100
0001
0100
0010
0100
,  // measure 115
0001
0010
0100
1000
0010
0100
0010
0001
1000
0010
0100
0010
1000
0100
0010
0001
,  // measure 116
1000
0010
0100
0010
1000
0010
0100
0010
1000
0010
0100
0010
1000
0010
0100
0010
,  // measure 117
1000
0100
1000
0100
0010
0001
0010
0001
0100
0010
0100
0010
0001
0010
0001
0010
,  // measure 118
0100
0001
0010
0001
0100
0001
0010
0001
0100
0001
0010
0001
0100
0001
0010
0001
,  // measure 119
0100
1000
0100
0001
0100
1000
0100
0001
0100
1000
0100
0001
0100
1000
0100
0001
,  // measure 120
1000
0100
0010
0001
0100
0010
1000
0001
0010
0100
1000
0010
0100
0001
0010
0100
,  // measure 121
1000
1000
0100
0010
0001
0001
0010
0100
1000
1000
0100
0010
0001
0001
0010
0100
,  // measure 122
0010
0100
1000
0100
0010
0001
0100
0010
1000
0001
0010
0100
1000
0100
0010
0001
,  // measure 123
0020
2000
0000
0000
,  // measure 124
0000
0030
0000
0000
,  // measure 125
0000
3000
0000
0000
0000
0000
0000
0000
;
