#TITLE:Chupa Chupa;
#SUBTITLE:;
#ARTIST:TNT "El Cesar" ft. Kastrofobia;
#TITLETRANSLIT:;
#SUBTITLETRANSLIT:;
#ARTISTTRANSLIT:;
#CREDIT:;
#BANNER:chupachupabanner.png;
#BACKGROUND:;
#LYRICSPATH:;
#CDTITLE:!tizaTitle.png;
#MUSIC:TNT ''El Cesar'' Ft[1]. Kastrofobia - Chupa Chupa  (www.FlowExclusivo.Com).ogg;
#OFFSET:-0.060;
#SAMPLESTART:88.061;
#SAMPLELENGTH:16.000;
#SELECTABLE:YES;
#BPMS:0.000=120.000;
#STOPS:;
#BGCHANGES:;
// cache tags:
#FIRSTBEAT:16.000;
#LASTBEAT:514.000;
#SONGFILENAME:Songs/Reggaeton and more/Chupa Chupa/Pollinosis.sm;
#HASMUSIC:1;
#HASBANNER:1;
#MUSICLENGTH:259.992;
// end cache tags

//---------------dance-single - ----------------
#NOTES:
     dance-single:
     :
     Challenge:
     11:
     0.641,0.816,0.458,0.077,0.563,1028.000,119.000,20.000,535.000,0.000:

0000
0000
0000
0000
,
0000
0000
0000
0000
,
0000
0000
0000
0000
,
0000
0000
0000
0000
,
MMMM
1000
0001
1000
0000
0001
1000
0001
,
0000
1000
0100
0010
0001
0010
0100
1000
,
0000
0010
0100
0010
0000
0100
0010
0100
,
0000
0010
1000
0100
0010
0100
1000
0010
,
0000
1000
0100
0010
0000
0001
0010
0100
,
0000
1000
0010
0100
0001
0100
0010
1000
,
0000
0001
0100
1000
0000
1000
0100
0001
,
0000
0010
1000
0001
0100
1000
0010
0100
,
0101
0001
0100
0010
1000
0000
1001
0000
,
1000
0100
0010
0100
1000
0000
1001
0000
,
0001
0100
0010
1000
0010
0100
0001
0010
,
0100
1000
0100
0010
0001
0000
0110
0000
,
1M00
10M0
100M
10M0
1M00
M000
011M
M000
,
00M1
0M01
00M1
M001
0M01
00M0
011M
00M0
,
0M01
M001
00M1
0M01
00M1
M001
0M01
00M1
,
100M
10M0
1M00
10M0
100M
10M0
1M01
00M0
,
1001
0000
1000
0001
0000
0000
0000
0000
0101
0000
0001
0100
0000
0000
0000
0000
,
1010
0000
1000
0010
0100
0001
0100
0010
1000
0000
0100
0010
0000
0000
0000
0000
,
1001
0000
0010
0100
0000
0000
0000
0000
0110
0000
0010
0100
0000
0000
0000
0000
,
1001
0000
1000
0100
0001
0000
1000
0010
0001
0000
0001
1000
0000
0000
0000
0000
,
1000
0000
0100
0010
0000
0000
0000
0000
0001
0000
0010
0100
0000
0000
0000
0000
,
1000
0000
0100
0010
0100
1000
0100
0010
0100
0000
1000
0001
0000
0000
0000
0000
,
1001
0000
0001
0100
0000
0000
0000
0000
1001
0000
1000
0010
0000
0000
0000
0000
,
1000
0100
0010
0100
1000
0000
0001
0100
0010
0000
1000
0001
0000
0000
1000
0001
,
1000
0000
1000
0001
0000
0000
0001
0100
0010
0000
0010
1000
0000
0000
1000
0100
,
0010
0001
0010
0100
1000
0010
0100
0001
0100
0000
0010
1000
0000
0000
1000
0001
,
0010
0000
0000
0000
0001
0000
0000
0000
0100
0000
0000
0000
0000
0000
0010
0000
0000
0000
0000
0000
0001
0000
0000
0000
1000
0000
0000
0000
0000
0000
0100
0000
0000
0000
0001
0000
0000
0000
0000
0000
0000
0000
0001
0000
0000
0010
0000
0000
,
0100
0010
0001
0100
0010
0100
0001
0010
0100
0000
0010
0000
0001
0000
0000
0000
,
M00M
0000
1000
0100
0010
0000
0001
0100
0000
0100
0001
0010
0100
0000
1001
0000
,
M00M
0000
0000
1000
0100
0000
0100
0010
0000
0010
0001
1000
0001
0000
1001
0000
,
0MM0
0000
1000
0100
0010
0001
0010
0100
1000
0000
1000
0010
0000
0010
0100
0001
,
1000
0001
0100
0010
0100
0010
1000
0001
0100
0010
0000
0100
0000
0000
1001
0000
,
M00M
1000
0100
0001
0010
1000
0100
0001
,
0010
0001
0100
1000
0010
0001
0100
1000
,
MMM0
1000
0010
0001
1000
0100
0001
0010
,
1000
0001
0100
1000
0010
0001
1000
0100
,
MMMM
0001
0100
0010
1000
0010
0100
0001
,
0010
0100
0010
0001
1000
0010
0100
0010
,
MMMM
1000
0100
0010
0001
0100
1000
0001
,
0010
1000
0100
0010
0001
0010
0100
1001
,
M00M
1100
0100
0110
0MM0
0110
0010
0011
,
00MM
0011
0001
0100
0110
0010
1000
1010
,
M0MM
1001
0010
1001
MMMM
0110
1000
0110
,
0MM0
0110
0001
0110
1000
0110
0001
0110
,
MMM0
1100
0010
0101
0MMM
0011
0100
1010
,
M0M0
1010
0100
0011
1000
0101
0010
1100
,
MM0M
1001
0110
1001
M0MM
0011
0110
1100
,
MMM0
1010
0101
0011
1100
1001
0110
1001
,
1000
0100
0010
0100
2000
0000
0002
3003
,
1001
0001
0100
0010
0200
0000
0002
0303
,
M1M1
MM1M
M1MM
1MMM
M1MM
MM1M
MMM1
M1MM
,
1MMM
MMM1
MM1M
1MMM
M2MM
M0MM
M02M
M33M
,
0011
0001
0010
0100
2000
0000
0200
3300
,
1100
1000
0010
0100
0020
0000
0200
0330
,
M11M
MM1M
1MMM
M1MM
M11M
MM1M
MMM1
M1MM
,
M11M
1MMM
MMM1
1MMM
M11M
MMMM
1MM1
MMMM
,
1100
0000
0010
0001
0000
0000
0000
0000
0101
0000
0010
1000
0000
0000
0000
0000
,
1001
0000
1000
0010
0100
0010
1000
0100
0010
0000
0010
0001
0000
0000
0000
0000
,
1001
0000
0010
0100
0000
0000
0000
0000
0110
0000
1000
0001
0000
0000
0000
0000
,
1100
0000
1000
0100
0010
0000
0001
0100
0010
0000
0010
1000
0000
0000
0000
0000
,
1100
0000
0100
0100
0000
0000
0000
0000
1001
0000
1000
1000
0000
0000
0000
0000
,
0001
0010
0100
1000
0100
0010
0001
0010
0100
0000
1000
0001
0000
0000
0000
0000
,
1001
0000
1000
0010
0000
0000
0000
0000
1010
0000
0010
0100
0000
0000
0000
0000
,
0110
0000
0100
0001
0010
0000
0100
1000
0010
0000
0010
0100
0000
0000
1000
0010
,
0100
0000
0001
0100
0000
0100
0001
1000
0010
0000
0010
0100
0000
0100
0001
1000
,
0010
0000
1000
0000
0001
0000
0100
0000
0010
0000
1000
0000
0100
0000
0010
0000
0001
0000
0000
0000
0001
0000
0010
0000
0000
0000
0000
1100
0000
0000
0000
0000
,
0000
0000
0000
0000
1000
0000
0010
0000
0001
0000
0000
0000
0001
0000
0010
0000
1000
0000
0000
0000
1000
0000
0100
0000
0000
0000
0000
1001
0000
0000
0000
0000
,
0000
0000
0000
0000
1000
0000
0010
0000
0100
0000
0000
0000
0001
0000
0100
0000
0010
0000
0000
0000
1000
0000
0001
0000
0000
0000
0000
1001
0000
0000
0000
0000
,
0000
0000
1000
0100
0001
0100
1000
0010
0100
0001
0100
0010
0000
0000
0010
1000
,
0100
0010
0001
0010
0100
1000
0010
0100
0010
1000
0001
1000
0000
1000
0010
0000
,
0000
0000
0010
1000
0001
0010
0100
0010
0001
0000
0001
0100
0000
0010
1000
0001
,
0100
0010
1000
0100
0010
0100
1000
0001
0100
0000
0100
0001
0010
0000
0010
0100
,
0000
1000
0010
0100
0001
0001
0100
0010
,
1000
0100
0010
0010
0001
0100
0010
1000
,
1010
0010
1000
0100
0010
0100
1000
0001
,
0100
0010
0100
0001
0010
0100
1000
0001
,
1001
1000
0010
0100
0001
0010
0100
1000
,
0100
0010
0001
0100
1000
0001
0010
1000
,
1001
1000
0010
0001
1000
0100
0001
0010
,
1000
0001
0100
1000
0010
0100
0001
1000
,
1001
MMM1
MMM1
MMM1
0000
MM1M
MM1M
MM1M
,
0000
M1MM
M1MM
M1MM
M1MM
M1MM
M1MM
M1MM
,
0000
1MMM
1MMM
1MMM
0000
MM1M
MM1M
MM1M
,
0000
M1MM
M1MM
M1MM
M1MM
M1MM
M1MM
M1MM
,
0000
MMM1
MMM1
MMM1
0000
1MMM
1MMM
1MMM
,
0000
MM1M
MM1M
MM1M
MM1M
MM1M
MM1M
MM1M
,
0000
M1MM
M1MM
M1MM
0000
MMM1
MMM1
MMM1
,
0000
1MMM
1MMM
1MMM
1MMM
1MMM
1MMM
1MMM
,
0011
0001
0100
0010
0200
0000
0002
0303
,
1001
1000
0010
0100
0020
0000
0200
0330
,
11MM
1MMM
MM1M
M1MM
MMM1
MM1M
M1MM
MM1M
,
MMM1
1MMM
MMM1
1MMM
MM2M
MM0M
M20M
M33M
,
0110
0010
0100
0010
0200
0000
0020
0330
,
1001
1000
0001
1000
0002
0000
2000
3003
,
11MM
M1MM
MM1M
MMM1
MM11
MMM1
M1MM
MM1M
,
1M1M
1MMM
MMM1
1MMM
1MM1
MMMM
1MM1
00MM
,
110M
0000
0000
0000
000M
0000
1000
0000
000M
0100
0000
0000
000M
0000
0000
0000
000M
0000
0000
0000
000M
0000
0000
0000
101M
0000
0000
0000
000M
0000
0010
0000
000M
0100
0000
0000
000M
0000
0000
0000
000M
0000
0000
0000
000M
0000
0000
0000
,
001M
0000
0000
1000
000M
0000
0100
0000
000M
0010
0000
0000
010M
0000
0000
1000
000M
0000
0010
0000
000M
0100
0000
0000
100M
0000
0000
0000
000M
0000
0100
0000
000M
0010
0000
0000
M00M
0000
0000
0000
0M0M
0000
0000
0000
00MM
0000
0000
0000
,
1M01
0000
0000
0000
0M00
0000
1000
0000
0M00
0010
0000
0000
0M00
0000
0000
0000
0M00
0000
0000
0000
0M00
0000
0000
0000
1M01
0000
0000
0000
0M00
0000
0001
0000
0M00
0010
0000
0000
0M00
0000
0000
0000
0M00
0000
0000
0000
0M00
0000
0000
0000
,
1M00
0000
0000
0001
0M00
0000
0010
0000
0M00
0001
0000
0000
1M00
0000
0000
0010
0M00
0000
0001
0000
0M00
0010
0000
0000
1M00
0000
0000
0000
0M00
0000
1000
0000
0M00
0001
0000
0000
0M00
0000
0000
0000
0M00
0000
0000
0000
0M00
0000
0000
0000
,
10M1
0000
0000
0000
00M0
0000
1000
0000
00M0
0100
0000
0000
00M0
0000
0000
0000
00M0
0000
0000
0000
00M0
0000
0000
0000
10M1
0000
0000
0000
00M0
0000
0001
0000
00M0
0100
0000
0000
00M0
0000
0000
0000
00M0
0000
0000
0000
00M0
0000
0000
0000
,
00M1
0000
0000
0100
00M0
0000
1000
0000
00M0
0100
0000
0000
00M1
0000
0000
1000
00M0
0000
0100
0000
00M0
0001
0000
0000
01M0
0000
0000
0000
00M0
0000
1000
0000
00M0
0001
0000
0000
00M0
0000
0000
0000
00M0
0000
0000
0000
00M0
0000
0000
0000
,
M101
0000
0000
0000
M000
0000
0001
0000
M000
0010
0000
0000
M000
0000
0000
0000
M000
0000
0000
0000
M000
0000
0000
0000
M101
0000
0000
0000
M000
0000
0100
0000
M000
0010
0000
0000
M000
0000
0000
0000
M000
0000
0000
0000
M000
0000
0000
0000
,
M100
0000
0000
0010
M000
0000
0001
0000
M000
0100
0000
0000
M010
0000
0000
0100
M000
0000
0001
0000
M000
0010
0000
0000
M100
0000
0000
0000
M000
0000
0010
0000
M000
0001
0000
0000
MM00
0000
0000
0000
M0M0
0000
0000
0000
MMMM
0000
0000
0000
,
1001
0000
0110
0000
1001
0000
1000
0100
,
0010
0000
0000
0000
0001
0000
0100
0010
1000
0000
0100
0000
0010
0000
0001
0000
,
1001
0000
0110
0000
0011
0000
1100
0010
,
0101
0000
0000
0000
1001
0000
1000
0010
0100
0000
0001
0000
0101
0000
0110
0000
,
1010
0000
0010
0000
0100
0000
0001
0010
,
0100
0000
0000
0000
1000
0000
0100
0010
0001
0000
0010
0000
0100
0000
1000
0000
,
1010
0000
0010
0000
0100
0000
0001
0010
,
0100
0000
0000
0000
1001
0000
1000
0010
0001
0000
0010
0000
1000
0000
0100
0000
,
0010
0000
0001
0010
0001
0000
0010
0001
1000
0000
1000
0010
0100
0001
0010
0000
,
0100
0000
1000
0001
1000
0000
0001
0100
0010
0000
1000
0100
0010
0100
1000
0000
,
1001
0000
1000
0010
0100
0000
0001
0010
0100
0000
1000
0010
0100
0001
0010
0000
,
0100
0000
1000
0010
0100
0000
0100
0010
1000
0000
1000
0100
0001
0100
1000
0000
,
1001
0000
1000
0001
1000
0000
0001
1000
0001
0000
0001
0100
0010
0100
0001
0000
,
1001
0000
0001
0010
1000
0000
1000
0010
0001
0000
0001
0100
0010
1000
0100
0000
,
1100
0000
1000
0100
0010
0000
0001
0100
0010
0000
0001
0010
0100
0001
0010
0000
,
0100
0000
0001
1000
0010
0000
0001
0100
0010
0000
0010
1000
0001
0010
0100
1000
,
0001
0010
0000
0000
0000
0000
0001
0010
0000
0000
0000
0000
0001
1000
0000
0000
0000
0000
0001
1000
0000
0000
0000
0000
0001
0100
0000
0000
0000
0000
0001
0100
0000
0000
0000
0000
0001
1000
0000
0000
0000
0000
0001
0100
0000
0000
0000
0000
,
0010
1000
0000
0000
0000
0000
0010
1000
0000
0000
0000
0000
0010
0001
0000
0000
0000
0000
0010
0001
0000
0000
0000
0000
0010
0100
0000
0000
0000
0000
0010
0100
0000
0000
0000
0000
0010
1000
0000
0000
0000
0000
0010
1000
0000
0000
0000
0000
,
0100
0010
0000
0000
0000
0000
0100
0001
0000
0000
0000
0000
0100
0010
0000
0000
0000
0000
0100
1000
0000
0000
0000
0000
0100
0010
0000
0000
0000
0000
0100
0001
0000
0000
0000
0000
0100
0010
0000
0000
0000
0000
0100
1000
0000
0000
0000
0000
,
1000
0100
0000
0000
0000
0000
1000
0001
0000
0000
0000
0000
1000
0010
0000
0000
0000
0000
1000
0001
0000
0000
0000
0000
1000
0100
0000
0000
0000
0000
1000
0001
0000
0000
0000
0000
1000
0010
0000
0000
0000
0000
1001
0000
0000
0000
0000
0000
,
MM00
0MM0
00MM
0MM0
MM00
0000
0000
0000
;
