#TITLE:Dawn Over A New World;
#SUBTITLE:Sonic Firestorm;
#ARTIST:Dragonforce;
#TITLETRANSLIT:;
#SUBTITLETRANSLIT:;
#ARTISTTRANSLIT:;
#CREDIT:;
#BANNER:dawn.PNG;
#BACKGROUND:dawn-bg.PNG;
#LYRICSPATH:;
#CDTITLE:;
#MUSIC:04 Dawn Over a New World.mp3;
#OFFSET:0.000;
#SAMPLESTART:155.254;
#SAMPLELENGTH:16.500;
#SELECTABLE:YES;
#BPMS:0.000=81.000;
#STOPS:;
#BGCHANGES:;
// cache tags:
#FIRSTBEAT:0.250;
#LASTBEAT:412.125;
#SONGFILENAME:Songs/CMDKDF Pack/Dawn Over A New World/Dawn of a New World.sm;
#HASMUSIC:1;
#HASBANNER:1;
#MUSICLENGTH:312.692;
// end cache tags

//---------------dance-single - Blank----------------
#NOTES:
     dance-single:
     Blank:
     Hard:
     10:
     0.492,0.939,0.077,0.227,1.000,981.000,24.000,71.000,0.000,0.000:

0000
0100
0000
0010
0100
1000
0100
0010
0001
0010
0100
1000
0100
1000
0010
0001
,
0100
0000
1000
0000
0000
0000
0000
0000
0000
0100
0000
1000
0000
0010
0000
1000
0000
0001
0000
0010
0000
1000
0000
0100
0000
0010
0000
1000
0000
0100
0000
0001
,
0000
0010
0000
1000
0000
0000
0000
1000
0000
0100
0000
0010
0000
0001
0000
0010
0000
0001
0000
0100
0000
1000
0000
0010
0000
0100
0000
0001
0000
1000
0000
0100
,
0000
0010
0000
0001
0000
0100
0000
0010
0000
0001
0000
0010
0000
0000
0000
1000
0000
0000
0000
0001
0000
1000
0000
0100
0000
1000
0000
0010
0000
0000
0000
0001
,
0000
0000
0000
0000
1000
0100
1000
0010
1000
0000
0001
0000
1000
0000
0100
0000
0010
0000
0001
0000
1000
0000
0100
0000
0010
0000
0001
0000
0010
0000
0001
0000
,
0100
0000
1000
0000
0001
0000
0000
0000
0000
0000
0000
0100
0000
0010
0000
0100
0000
0010
0000
0001
0000
1000
0000
0100
0000
0010
0000
0100
0000
0001
0000
1000
,
0000
0100
0000
0001
0000
1000
0000
0010
0000
1000
0000
0001
0000
0100
0000
0001
0000
0010
0000
1000
0000
0100
0000
1000
0000
0010
0000
0001
0000
0100
0000
1000
,
0000
0010
0000
0001
0000
0100
0000
1000
0000
0001
0000
1000
0000
0010
0000
0000
0000
0100
0000
0000
0000
1000
0000
0100
0000
0010
0000
0100
0000
0000
0001
0000
,
0000
1000
0000
0010
0000
1000
0100
0000
0001
0000
0020
0000
0000
0000
0000
1030
,
0000
0100
0000
0010
0000
0100
1000
0000
0100
0000
0020
0000
0000
0000
0000
0000
,
0000
1030
0000
0001
0000
0010
0100
0000
0000
1000
0000
0010
0100
0000
1000
0000
,
0000
0000
0000
0010
0000
0000
0000
0100
0000
0000
0000
1000
0000
0100
0000
0000
0000
0001
0000
0000
0000
0020
0000
0000
0000
0000
0000
0000
0000
0000
0000
0000
,
1030
0000
0010
0000
0100
0000
1000
0100
0000
0001
0000
0020
0000
0000
0000
0000
,
1030
0000
0100
0000
0010
0000
0001
0010
0000
0100
0000
2000
0000
0000
0000
0000
,
0000
3000
0010
0100
1000
0000
0010
0002
0000
0000
0103
0000
1000
0000
0100
0010
,
0000
0000
0001
0000
0010
0000
0100
1000
0000
0000
0100
0000
0002
0000
0000
0000
,
0000
0000
2003
0000
0010
0100
0000
0000
,
0000
0000
0000
0000
0010
0000
0100
0000
3010
0000
0000
0000
0000
0000
0000
0000
0000
0100
0000
0000
0000
0001
0000
0000
0000
0000
0000
0000
0000
1000
0000
0100
,
0000
0010
0000
0001
0000
0010
0000
0100
0000
1000
0000
0000
0000
0000
0000
0000
0000
0010
0000
0000
0000
0100
0000
0000
0000
0000
0000
0000
0000
0000
1000
0000
,
0100
0100
0001
1000
0010
0100
0000
0000
0000
1000
0000
0001
0000
0000
0000
1000
,
0100
1000
0010
1000
0001
0100
0000
0000
0000
1000
0000
0001
0000
0000
0000
0100
,
0010
0000
1000
0000
0100
0000
0001
0000
0010
0000
1000
0000
0000
0000
0000
0000
0000
0000
0010
0000
0000
0000
1000
0000
0000
0000
0000
0000
0000
0000
0000
1000
,
0000
0100
0000
0010
0000
0100
0000
0001
0000
0100
0000
1000
0000
0100
0000
0020
0000
0000
0000
0000
0000
0000
0000
0000
0000
0000
0000
0000
0000
0000
0000
0001
,
0000
0000
0000
1030
0000
0100
0000
0010
0000
1000
0000
0100
0000
0000
0000
0000
0000
0000
0000
1000
0000
0000
0000
0020
0000
0000
0000
0000
0000
0000
0000
0000
,
0000
0000
0130
0000
0001
0000
1000
0000
0100
0010
0000
0001
0000
2000
0000
0000
,
0000
3000
0001
0000
1000
0000
0010
0000
0100
1000
0000
0100
0000
0020
0000
0000
,
0000
0000
0000
0000
0030
0000
0000
0000
0000
0001
0000
0000
0000
1000
0000
0000
0000
0100
0000
2000
0000
0000
0000
3000
0000
0010
0000
0000
0000
0001
0000
0000
,
0000
0100
0000
2000
0000
0000
0000
3000
0000
0100
0000
0000
0000
0010
0000
0000
0000
0001
0000
0010
0000
0000
0000
0100
0000
0000
0000
2000
0000
0000
0000
0000
,
0000
3000
0000
0001
0000
1000
0000
0010
0000
0100
1000
0000
0010
0000
0200
0000
,
0000
0300
0000
1000
0000
0010
0000
0100
0000
0001
0010
0000
1000
0000
0200
0000
,
0000
0000
0300
0000
0000
1000
0010
0001
0000
1000
0200
0000
0300
0001
0000
0010
,
0000
0000
0100
0000
2000
0000
0000
0000
3000
0000
0010
0000
0000
0000
0000
0100
0000
0010
0000
0000
0000
0002
0000
0000
0000
0003
0010
0000
0000
0000
0100
0000
,
0000
0000
1000
0000
0100
0000
2000
0000
0000
0000
0000
0000
3000
0000
0002
0000
0000
0000
0000
0000
0003
0000
1000
0000
0000
0000
0000
0010
0000
0001
0000
0010
,
0000
0100
0000
2000
0000
0000
0000
0000
0000
0000
3000
0000
0100
0000
0010
0000
0001
0000
0000
0000
0010
0000
0100
0000
0000
0000
1000
0000
0000
0000
0020
0000
,
0000
0000
0000
0030
0000
0000
0000
0000
0000
0000
0001
0010
0100
0000
1000
0100
,
0010
0001
0000
0020
0000
0030
0100
1000
0100
0000
0010
0001
0000
0010
0000
0100
,
0000
0000
1000
0000
0100
0000
0000
0000
0000
0000
0000
0000
0000
0000
0000
0000
0000
0000
0000
0000
0000
0001
0000
0000
0000
1000
0000
0000
0000
0001
0000
0010
,
0000
1000
0000
0100
0000
0010
0000
0000
0000
0000
0000
0000
0000
0001
0000
0010
0000
0100
0000
0000
0000
0100
0000
0010
0000
0000
0000
0100
0000
0000
0000
2000
,
0000
0000
0000
0000
0000
3000
0000
0002
0000
0000
0000
0000
0000
0003
0000
2000
0000
0000
0000
0000
3000
0000
0010
0000
0000
0000
1000
0000
0000
0000
0010
0000
,
0100
0001
0100
2000
0000
0000
3000
0001
0000
1000
0000
0010
0200
0000
0300
0001
,
0000
0000
0000
0000
0000
0000
0000
0000
0000
0000
0000
0000
0000
0000
0000
0000
0010
0000
0000
0000
0000
0000
0000
0000
0100
0000
0000
0000
0000
0000
0000
0000
1000
0000
0000
0000
0000
0000
0000
0000
0001
0000
0000
0000
0000
0000
0000
0000
0010
0000
0000
0000
0000
0000
0000
0000
0100
0000
0000
0000
0000
0000
0000
0000
1000
0000
0000
0000
0000
0000
0000
0000
0001
0000
0000
0000
0000
0000
0000
0000
1000
0000
0000
0000
0000
0000
0000
0000
0100
0000
0000
0000
0000
0000
0000
0000
0010
0000
0000
0000
0000
0000
0000
0000
0001
0000
0000
0000
0000
0000
0000
0000
0220
0000
0000
0000
0000
0000
0000
0000
0000
0000
0000
0000
0000
0000
0000
0000
0000
0000
0000
0000
0330
0000
0000
0000
0000
0000
0000
0000
0000
0000
0000
0000
0000
0000
0000
0000
0000
0000
0000
0000
0000
0000
0000
0000
0000
0000
0000
0000
0000
0000
0010
0000
0000
0000
0000
0000
0000
0000
0000
0000
0000
0000
0100
0000
0000
0000
0000
0000
0000
0000
0000
0000
0000
0000
0000
0000
0000
0000
0000
0000
,
0000
0001
0000
0010
0000
0000
0000
0100
0000
1000
0000
0000
0000
0200
0000
0000
0000
0000
0000
0000
0300
0000
0001
0000
0010
0000
0100
0000
0000
0000
1000
0000
,
0000
0000
0100
0000
0000
0000
0010
0000
0001
0000
0020
0000
0000
0000
0000
0000
0000
0000
0030
0000
0000
0000
0000
1000
0000
0100
0000
0010
0000
0001
0000
0010
,
0000
1000
0000
0100
0000
0000
0000
1000
0000
0100
0000
0000
0000
0020
0000
0000
0000
0000
0000
0000
0030
0000
0000
0000
0000
0001
0000
0100
0000
0000
1000
0000
,
0000
0000
0000
0000
0000
0000
0010
0000
0000
0000
0000
0000
0000
0000
0000
0000
0000
0000
0000
0000
0000
0000
0000
0000
0001
0000
0000
0000
0000
0000
0000
0000
0010
0000
0000
0000
0000
0000
0000
0000
0100
0000
0000
0000
0000
0000
0000
0000
0001
0000
0000
0000
0000
0000
0000
0000
0010
0000
0000
0000
0000
0000
0000
0000
0100
0000
0000
0000
0000
0000
0000
0000
1000
0000
0000
0000
0000
0000
0000
0000
0100
0000
0000
0000
0000
0000
0000
0000
0010
0000
0000
0000
0000
0000
0000
0000
0100
0000
0000
0000
0000
0000
0000
0000
0010
0000
0000
0000
0000
0000
0000
0000
0001
0000
0000
0000
0000
0000
0000
0000
2020
0000
0000
0000
0000
0000
0000
0000
0000
0000
0000
0000
0000
0000
0000
0000
3030
0000
0000
0000
0000
0000
0000
0000
1000
0000
0000
0000
0000
0000
0000
0000
0000
0000
0000
0000
0000
0000
0000
0000
0000
0000
0000
0000
0000
0000
0000
0000
0010
0000
0000
0000
0000
0000
0000
0000
0000
0000
0000
0000
0000
0000
0000
0000
0000
0000
0000
0000
0000
0000
0000
0000
,
0001
0010
0000
0100
0000
1000
0000
0200
0000
0300
0000
0000
0001
0000
1000
0000
,
0100
0000
0010
0000
0000
0000
0001
0000
0000
0000
2000
0000
0000
0000
0000
0000
0000
0000
3000
0000
0000
0000
0000
0000
0000
0100
0000
0000
0000
0010
0000
0000
,
0000
0001
0000
0000
0000
0100
0000
0000
0000
1000
0000
0100
0000
0000
0000
0000
0000
0010
0000
0000
0000
0001
0000
0000
0000
1000
0000
0000
0000
0100
0000
0000
,
0000
0010
0000
0001
0000
0000
0000
0000
0000
0100
0000
0000
0000
1000
0000
0000
0000
0000
0000
0000
0000
0000
0000
0000
0000
0000
0000
0000
0000
0001
0000
0000
,
0000
1000
0000
0100
0000
0000
0000
0001
0000
0000
0000
0000
0020
0000
0000
0000
0030
1000
0000
0000
0000
0000
0000
0000
0000
0000
0001
0000
0000
0000
1000
0000
,
0000
0001
1000
0000
0010
0000
1000
0000
0000
0000
0000
0000
0000
0001
0000
1000
,
0000
0000
0010
0000
0001
0000
0000
0000
0000
0000
0000
1000
0000
0100
0000
0000
0000
0000
0000
0010
0000
0000
0000
0001
0000
0000
0000
0000
0000
0100
0000
1000
,
0000
0000
0000
0001
0000
0000
0000
0010
0000
0100
0000
0000
0000
0000
0000
1100
0000
0000
0000
0101
0000
0000
0000
2020
0000
0000
0000
0000
0000
0000
3030
0001
,
0000
0000
0000
1000
0000
0000
0000
0001
0000
0000
0000
0100
0000
0010
0000
0000
0000
0000
0000
1000
0000
0000
0000
0001
0000
0000
0000
0100
0000
0000
0000
0010
,
0000
0000
0000
1000
0000
0000
0000
0001
0000
0000
0000
0100
0000
0010
0000
0000
0000
0000
0000
0000
0100
0000
0000
0000
0001
0000
0000
0000
1000
0000
0100
0000
,
0000
0000
0001
0000
0100
0000
0010
0001
0000
0000
0100
0000
0010
0000
1000
0100
,
0000
0000
0000
0000
0000
0010
0000
0000
0000
1000
0000
0000
0000
0100
0000
0010
0000
0000
0000
0000
0000
1000
0000
0000
0000
0002
0000
0000
0000
0000
0000
0000
,
0000
0000
0000
0000
0000
0000
0000
0000
0000
0000
0000
0000
0000
0000
0000
0000
0003
0000
0000
0000
0000
0000
0000
0000
0000
0000
0000
0000
0000
1000
0000
0000
,
0000
0001
0000
0000
0000
0100
0000
0010
0000
0000
0000
1000
0000
0000
0000
0100
0000
0000
0000
0020
0000
0000
0000
0000
0000
0000
0000
0030
0000
1000
0000
0000
,
0000
0001
0000
0000
0000
0100
0000
0010
0000
0000
0000
0010
0000
0000
0000
0100
0000
0000
0000
0010
0000
0001
0000
0000
0000
0000
0000
0000
0000
0000
1000
0000
,
0000
0001
0000
0010
0100
0000
1000
0000
0200
0000
0301
1000
0010
0100
1000
0000
,
0001
0000
0010
0000
0200
0000
0000
0000
0000
0000
0300
0001
1000
0002
0000
0003
,
0100
0000
0010
0000
0001
0000
1000
0100
1000
0000
0020
0000
0000
0000
0000
0000
0000
0000
0000
0000
0030
0001
0000
0100
0000
1000
0000
0010
0000
0000
0000
0000
,
0000
0000
0000
0001
0000
0010
0000
0100
0000
1000
0000
0000
0000
0100
0000
0000
0000
0001
0000
0020
0000
0000
0000
0000
0000
0000
0030
0000
0001
0010
0100
1000
,
0001
1000
0100
0010
0100
1000
0001
0010
0100
0010
0001
0010
0100
1000
0001
1000
0100
0010
0100
0010
1000
0001
0010
0001
0100
0010
0100
1000
0001
1000
0001
0100
,
0010
0100
1000
0001
0010
0100
1000
0100
0010
0001
0010
0100
0001
0010
0100
1000
0100
0010
0100
1000
0200
0000
0000
0000
0000
0000
0000
0000
0001
0000
0301
0000
,
1000
1000
0010
0010
0100
0100
0001
0010
1000
0100
1000
0010
0001
0100
0010
0100
,
1000
0000
0002
0000
0000
0000
0000
0000
0003
0100
0000
1000
0000
0010
0000
0100
0000
0001
0000
2000
0000
0000
0000
0000
0000
0000
3000
0000
0000
0010
0001
0100
,
0010
0000
0000
0000
0000
0000
1000
0000
0000
0000
0000
0000
0100
0000
0000
0000
0000
0000
0010
0000
0000
0000
0000
0000
0001
0000
0000
0000
0000
0000
0100
0000
0000
0000
0000
0000
1000
0000
0000
0000
0000
0000
0100
0000
0000
0000
0000
0000
0010
0000
0000
0000
0000
0000
0001
0000
0000
0000
0000
0000
0010
0000
0000
0000
0000
0000
0100
0000
0000
0000
0000
0000
0010
0000
0000
0000
0000
0000
0001
0000
0000
0000
0000
0000
0010
0000
0000
0000
0000
0000
0100
0000
0000
0000
0000
0000
1000
0000
0000
0000
0000
0000
0100
0000
0000
0000
0000
0000
0010
0000
0000
0000
0000
0000
0100
0000
0000
0000
0000
0000
0010
0000
0000
0000
0000
0000
0002
0000
0000
0000
0000
0000
0000
0000
0000
0000
0000
0000
0000
0000
0000
0000
0000
0000
0000
0000
0000
0000
0000
0000
0000
0000
0000
0000
0000
0000
0000
0000
0000
0000
0000
0000
0000
0000
0000
0000
0000
0000
0000
0000
0000
0000
0000
0000
0003
0000
1000
0000
0000
0000
0000
0000
0000
0000
0100
0000
0000
0000
0000
0000
0000
0000
,
0010
0000
0001
0000
0010
0000
0100
0010
1000
0000
0100
0000
0010
0000
0001
0000
0010
0000
0000
0000
1000
0000
0100
0000
0010
0000
0001
0000
0100
0000
0010
0000
1000
0000
0001
0000
0010
0000
0100
0000
1000
0000
0100
0000
2000
0000
0000
0000
,
3100
0010
0001
0100
0010
0001
0100
0000
0001
0000
0010
0000
0100
1000
0100
0010
,
0001
0000
0010
0000
0100
0000
0000
0000
1000
0000
0000
0000
1000
0000
0000
0000
0010
0000
0100
0000
0010
0000
0001
1000
0200
0000
0000
0000
0000
0300
1000
0000
,
0010
0000
0001
0000
0100
0000
0000
0000
0000
1000
0000
0010
0000
0001
0000
0100
0000
1000
0000
0010
0000
0001
0000
0010
0100
1000
0000
0000
0000
0000
0000
0010
,
0000
0001
0000
0010
0000
0200
0000
0000
0300
1000
0000
0010
0000
0100
0000
0001
0000
0010
0000
0100
0000
2000
0000
0000
3000
0000
0000
0000
0000
0000
1000
0100
,
0010
0001
0100
0010
1000
0001
0010
0100
1000
0100
0010
0001
0100
0001
0010
0100
1000
0001
0100
0010
0100
1000
0100
0010
0001
1000
0001
0010
0100
1000
0001
0010
,
0100
0010
0100
0010
0000
0001
0010
0100
1000
0100
1000
0001
0000
0000
0000
0000
,
1000
0100
0010
0001
1000
0010
0100
0001
1000
0001
0100
0010
1000
0001
0100
0010
1000
0100
0010
0001
1000
0100
0010
0001
1000
0010
0100
0001
0010
1000
0100
0010
,
1001
0110
1001
0110
1001
0000
0000
0000
1100
0011
1100
0011
1100
0000
0000
0000
,
0100
0010
0001
0000
1000
0000
0100
0000
0010
0000
0000
0010
0000
0000
0100
0000
0000
0200
0000
0000
0000
0000
0000
0000
0000
0000
0000
0000
0000
0000
0000
0300
,
0000
0000
0110
0000
0000
0000
0000
0000
0000
1000
0000
0000
0010
0000
0000
0001
0000
0000
0100
0000
0000
0000
1000
0000
0010
0000
0000
0000
0001
0000
0000
0000
,
0000
0000
0000
1000
0100
0010
0000
0001
0000
1000
0000
0010
0100
0001
0000
0000
,
0000
0000
0000
0001
0010
0001
0100
1000
0010
1000
0000
0001
0010
0000
0010
0000
,
0000
0000
0000
0000
0000
0000
0000
0000
0000
1000
0000
0100
0000
0000
0001
0000
0000
0010
0000
2000
0000
0000
0000
0000
0000
0000
0000
0000
0000
0000
0000
0000
,
0000
0000
3000
0000
0000
1000
0100
0000
0001
0010
0000
0100
0000
1000
0000
0010
,
0000
0000
0000
0000
0000
0000
0000
0001
0000
0000
0000
1000
0000
0000
0000
0010
0000
0100
0000
0000
0000
0001
0000
0000
0000
2000
0000
0000
0000
0000
0000
0000
,
0000
0000
0000
3000
0010
0000
0001
0000
1000
0000
0100
0000
0010
0001
0000
0000
,
1000
0000
0000
0000
0110
0000
0000
0000
1001
0000
0110
0000
0000
0000
0000
0011
0000
0000
0000
2200
0000
0000
0000
0000
0000
0000
0000
0000
0000
0000
0000
0000
,
0000
0000
0000
0000
0000
3300
0000
0000
0001
0000
0000
0000
0010
0000
0000
0000
0100
0000
0010
0000
0000
0000
0001
0000
0000
0000
1000
0000
0000
0000
0010
0000
,
0000
0000
0000
0000
0001
0000
1000
0000
0010
0001
0000
0100
0000
0010
0000
0000
,
0000
0000
0000
0000
0000
1000
0000
0001
0000
0010
0000
0100
0000
1000
0100
0000
,
0000
0010
0000
0001
0000
0010
0000
0100
0000
1000
0200
0000
0300
0001
0000
2000
,
0000
0000
0000
3000
0000
0000
0000
0001
0000
1000
0100
0000
1000
0000
0020
0000
,
0030
0001
0000
0000
0000
1000
0000
0001
0000
0010
0100
0000
1000
0000
0010
0000
,
0000
0000
0000
0000
0000
0000
0000
0000
0000
0000
0000
0001
0000
0000
0000
1000
0000
0000
0000
0100
0000
0010
0000
0000
0000
0000
0000
1000
0000
0002
0000
0000
,
0000
0000
0000
0000
0000
0000
0000
0000
0000
0000
0000
0000
0003
0000
0000
0000
0000
0000
0010
0000
0000
0000
0000
0000
0000
0000
0000
0000
0000
0000
0000
0000
0000
0000
0000
0000
0000
0000
0000
0000
0000
0000
0200
0000
0000
0000
0000
0000
0000
0000
0000
0000
0000
0000
0000
0000
0000
0000
0000
0000
0000
0000
0000
0000
0000
0000
0000
0000
0000
0000
0000
0000
0000
0000
0000
0000
0000
0000
0000
0000
0000
0000
0000
0000
1300
0000
0000
0000
0000
0000
0000
0000
0000
0000
0000
0000
0001
0000
0000
0000
0000
0000
0000
0000
0000
0000
0000
0000
0000
0000
0000
0000
0000
0000
0000
0000
0000
0000
0000
0000
0100
0000
0000
0000
0000
0000
0000
0000
0000
0000
0000
0000
0000
0000
0000
0000
0000
0000
0000
0000
0000
0000
0000
0000
0010
0000
0000
0000
0000
0000
0000
0000
0000
0000
0000
0000
0001
0000
0000
0000
0010
0000
0000
0000
0000
0000
0000
0000
0100
0000
0000
0000
0000
0000
0000
0000
1000
0000
0000
0000
0000
0000
0000
0000
0100
0000
0000
0000
0000
0000
0000
0000
,
1001
0000
0010
0000
0001
0000
0110
0000
0001
0000
0100
0000
2020
0000
0000
0000
0000
0000
0000
0000
0000
0030
3000
0000
0001
0000
0000
0000
0000
0000
0010
0000
0000
0000
0000
0000
1000
0000
0000
0000
0000
0000
0100
0000
0000
0010
0000
0000
,
0000
0000
0001
0000
0100
0000
1000
0000
0010
0000
0100
0000
0010
0000
1000
0100
,
0000
0000
0000
0000
0001
0000
0000
0000
0000
0100
0000
0000
0000
0010
0000
0001
0000
0000
0000
0000
0000
1000
0000
0000
0000
0100
0000
0000
0000
0010
0000
0001
,
0000
0000
0000
0000
0000
1000
0000
0000
0000
0100
0000
0000
0000
1000
0000
0100
0000
0000
0000
0000
0000
0001
0000
0000
0000
0010
0000
0000
0000
0100
0000
1000
,
0000
0000
0000
0000
0000
0001
0000
0000
0000
0000
0200
0000
0000
0000
0000
0000
0000
0000
0000
0000
0000
0000
0000
0000
0000
0000
0000
0000
0000
0000
0000
0000
,
0000
0300
0000
0000
0000
0000
1000
0000
0000
0000
0001
0000
0000
0000
1000
0000
0100
0000
0000
0000
0000
0000
0001
0000
0000
0000
0010
0000
0000
0000
0000
0100
,
0000
0010
0000
0000
0000
0000
0000
0001
0000
0000
0000
0000
0200
0000
0000
0000
0000
0000
0000
0000
0000
0000
0000
0000
0000
0000
0000
0000
0000
0000
0000
0000
,
0000
0000
0000
0000
,
0000
0310
0000
0000
0000
0000
0000
0000
0000
0000
0000
0000
0000
0000
0000
0000
0000
0000
0000
0000
0000
0000
0000
0000
0000
0000
0000
0000
0000
0000
0000
0000
;
