#TITLE:Wi-Ex-Doc-Va;
#SUBTITLE:;
#ARTIST:Yahpp;
#TITLETRANSLIT:;
#SUBTITLETRANSLIT:;
#ARTISTTRANSLIT:;
#CREDIT:;
#BANNER:banner.png;
#BACKGROUND:Back.bmp;
#LYRICSPATH:;
#CDTITLE:super_sonic.png;
#MUSIC:Song.mp3;
#OFFSET:0.000;
#SAMPLESTART:19.700;
#SAMPLELENGTH:12.000;
#SELECTABLE:YES;
#DISPLAYBPM:195.000;
#BPMS:0.000=195.000,69.500=130.000,71.000=195.000,85.500=135.000,86.500=195.000,196.500=700.005,199.500=195.001,202.500=700.005,205.500=195.001,217.000=75.001,218.500=195.001,344.000=70.000,344.500=69.980,345.000=69.960,345.500=69.940,346.000=195.001,468.500=1499.997,487.500=195.000;
#STOPS:149.500=0.280
,152.500=0.280
,177.000=0.020
,199.000=0.040
,205.000=0.040
,217.000=0.020
,282.500=0.020
,298.000=0.020
,298.500=0.200
,298.750=0.160
,299.000=0.160
,300.750=0.200
,301.000=0.160
,301.250=0.180
,303.000=0.200
,303.250=0.160
,303.500=0.180
,305.250=0.200
,305.500=0.160
,305.750=0.180
,307.500=0.200
,307.750=0.160
,308.000=0.180
,309.750=0.200
,310.000=0.160
,310.250=0.180
,312.000=0.200
,312.250=0.160
,312.500=0.160
,314.500=0.200
,314.750=0.140
,315.000=0.140
,317.000=0.200
,317.250=0.120
,317.500=0.140
,319.500=0.180
,319.750=0.140
,320.000=0.160
,321.750=0.200
,322.000=0.160
,322.250=0.180
,344.500=0.020
,345.000=0.020
,345.500=0.020
,383.500=0.100
,468.500=0.200
,487.500=0.420
;
#BGCHANGES:;
// cache tags:
#FIRSTBEAT:16.000;
#LASTBEAT:522.500;
#SONGFILENAME:Songs/Definitive Keyboard Megapack/Wi-Ex-Doc-Va - Yahpp(SonicX)/Yahpp - Wi-Ex-Doc-Va.sm;
#HASMUSIC:1;
#HASBANNER:1;
#MUSICLENGTH:166.269;
// end cache tags

//---------------dance-single - Blank----------------
#NOTES:
     dance-single:
     Blank:
     Hard:
     12:
     1.000,1.000,0.211,0.313,0.989,1151.000,35.000,52.000,0.000,6.000:

0000
0000
0000
0000
,
0000
0000
0000
0000
,
0000
0000
0000
0000
,
0000
0000
0000
0000
,
2202
0000
0000
0000
0000
3303
0000
0000
,
0011
2220
0000
0000
0000
0000
3330
0000
,
0022
0000
0000
0000
0000
0033
0000
0000
,
1000
0000
1000
0000
0100
0010
0010
1000
,
0100
0000
0001
0000
1000
0000
0100
0000
0010
0000
0001
0000
1000
0000
0010
1000
,
0100
0000
1000
0000
0001
0000
0100
0000
0010
0000
1000
0000
0100
0010
1000
0000
,
0100
0000
1000
0000
0100
0000
0010
0000
1000
0100
0010
0000
1000
0100
0010
0000
,
0001
0100
0010
1000
0001
0100
0010
1000
,
0001
0000
0100
0000
0010
0000
0100
0000
0001
0000
0100
0000
0010
1000
0010
0100
,
0001
0000
1000
0000
0010
0000
0100
0000
0001
0000
0010
0000
0001
1000
0010
0000
,
0100
0000
0010
0000
1000
0000
0100
0000
1000
0100
0001
0000
0100
1000
0010
0000
,
0100
0010
1000
0010
0001
0100
1000
0010
,
0001
0020
0130
0200
1300
2000
3100
0020
,
0031
0020
0000
0200
0000
0330
0000
0100
,
0001
0000
0010
0000
0100
0000
0001
1000
0010
0000
0100
1000
0001
0000
0100
0000
,
1000
0000
0010
0000
0100
0000
0010
0100
1000
0000
0100
0000
0100
0000
0002
0000
,
0013
0200
1300
0200
0310
0020
0130
0200
,
0320
0000
0002
0000
0033
0000
0100
0010
,
0100
0000
0001
1000
0010
0000
0001
0100
0010
0000
0100
0000
0011
0000
0110
0000
,
0110
1001
0110
0110
0101
1100
0200
0000
,
0000
0000
0020
0000
0000
0330
0001
0010
,
0100
0000
0010
0000
1000
0000
0001
0000
0100
0000
0010
0100
1000
0000
0001
0000
,
0100
0000
0010
0000
1000
0010
0001
0000
0100
1000
0010
0000
1000
0000
0001
0000
,
0100
0000
0010
0000
1000
0001
0100
0000
0010
0000
0100
0000
0001
0000
0010
0000
,
0100
0000
0001
0000
0100
0001
0010
0100
1000
0001
0010
1000
0100
0000
0010
0000
,
0100
0000
1000
0000
0001
0000
0100
0000
0010
0000
1000
0100
0010
0000
0100
0000
,
0001
0000
0100
0000
0010
0001
0100
0000
1000
0001
0010
0000
0100
0000
0010
0000
,
0001
0000
0100
0000
0010
1000
0001
0000
0010
0000
0100
0000
0100
0000
1000
0000
,
0100
0000
0010
0000
0100
1000
0010
0001
0100
0010
1000
0000
0001
0000
0100
0000
,
0010
0000
0100
0000
1000
0000
0100
0000
0100
0000
1000
0100
0010
0000
0100
0000
,
0001
0000
0100
0000
0010
0100
1000
0000
0001
0100
0010
0000
0100
0000
0010
0000
,
0001
0000
0100
0000
0010
0100
1000
0010
0100
0000
0010
0000
0100
0000
0010
0000
,
1000
0000
0001
0000
0010
0001
0100
0010
0001
0100
0010
0000
0001
0000
0010
0000
,
0100
0001
0010
1100
0010
0001
0010
0100
,
1000
0110
0001
0010
0100
1000
0100
0010
,
0001
2002
0000
0000
,
0000
0000
0000
0000
3103
0000
0000
0000
0100
0000
0000
0000
1000
0000
0010
0001
,
1010
0001
0010
0000
0100
0000
0000
0000
0100
0000
0000
0000
0100
0000
0100
1000
,
0100
1000
0100
0000
0100
0000
0000
0000
0100
0000
0000
0000
0100
0010
0001
0010
,
0100
1000
0100
0010
0001
0010
0100
1000
0100
0010
0001
0010
0100
1000
0100
0010
,
0001
0010
0100
1000
0100
0000
0010
0000
0100
0000
0010
0000
1000
0000
0001
0000
,
0100
0000
0010
0001
0100
0000
0010
0000
0100
0000
0001
0000
0100
0000
0010
0000
,
0001
0000
0010
1000
0100
0000
1000
0000
0100
0000
0010
0000
0100
0000
0010
0000
,
1000
0000
0100
1000
0010
0000
0100
0000
0010
0000
0001
0000
0100
0000
0010
0000
,
1000
0100
0010
0100
0010
0100
1000
0100
,
0000
0002
0000
0000
0000
0000
0000
0003
,
1000
0100
1000
0100
0000
0002
0000
0000
,
0000
0000
0000
0003
0100
1000
0100
1000
,
0000
0002
0003
0020
0030
0200
0300
2000
,
3002
0003
0010
0100
0010
0100
1000
0100
,
0010
1000
0200
0000
0000
0310
0000
0010
,
0000
0010
0000
0010
0000
0010
0000
0010
,
0000
0010
0000
0010
0010
0010
0000
0010
,
0000
0010
0000
0010
0000
0010
0000
0010
,
0000
0010
0000
0010
0100
0100
0010
1000
,
0100
0000
0010
0000
0100
0000
0010
0000
0001
0000
0100
1000
0010
0000
1000
0000
,
0100
0000
0010
0000
0001
0000
0010
0000
0100
0000
0010
1000
0100
0000
0010
0000
,
1000
0000
0100
0000
0010
0000
0100
0000
0010
0000
0100
1000
0001
0000
0100
0000
,
0010
0000
1000
0000
0010
0000
0100
0000
0010
0000
0001
1000
0100
0000
0010
0000
,
0100
1000
0100
0010
0100
0010
0001
0100
,
0010
1000
0100
1000
0100
1000
0100
1000
,
0100
0010
0100
0001
0010
0100
1000
0010
,
0100
0010
0100
0001
0010
0100
0001
0100
,
0010
0100
1000
0100
0010
0100
1000
0100
,
0010
0100
0001
0010
0100
0001
0100
1000
,
0010
0100
0010
0100
1000
0010
0100
0010
,
0100
1000
0100
0010
0001
0010
0000
0010
,
0000
0001
0000
0001
0000
0001
0000
0001
,
0000
1000
0000
1000
0000
1000
1000
1000
,
0001
0000
0001
0000
0001
0000
1000
0000
1000
0000
1000
0100
1000
0100
1000
0100
,
1000
0100
1000
0100
1000
0100
0010
0001
0010
0100
1000
1100
1000
0100
1000
0100
,
1000
0100
0000
0010
0011
0001
0010
0001
0010
0001
0010
0000
1000
1010
0100
0010
,
0001
0010
0100
1000
0000
1000
0110
1000
0100
0010
0100
0010
0100
0000
0100
1100
,
0010
0100
0010
0100
0010
0100
0000
0100
1100
0100
0100
0100
0100
0100
0100
0000
,
1000
0100
0010
0100
1000
0100
1000
0100
1000
0000
1000
0010
0100
1000
0100
1000
,
0100
0010
0100
0000
0010
0100
1000
0010
0100
0010
0100
1000
0100
0000
0010
0100
,
0100
1000
0100
0010
0100
0010
0100
0100
0110
1000
0100
1000
0100
1000
0100
0001
,
0001
0010
0100
0010
0100
1000
0100
1000
0100
1000
0100
0001
0010
0100
0010
0100
,
0001
0100
0010
1000
0100
0010
0100
0001
0100
0010
0100
0010
0100
1000
0100
0010
,
0100
0010
0100
0010
1000
0010
0100
0010
,
0100
0000
0000
0000
0001
0000
0000
0000
0000
0000
1000
0000
0000
0000
0000
0010
0000
0000
0000
0000
0000
0100
0000
0000
,
0100
0100
0100
0100
0100
0100
0100
0000
,
2002
0000
3223
0000
,
0000
0000
0000
0000
,
2002
0000
0000
0000
0000
0000
0000
3333
,
0100
0010
0001
1000
0010
0001
0100
1000
0001
0010
0001
0010
0001
0010
1000
0100
,
1000
0010
0001
0010
0001
0010
0001
0010
0001
0010
0100
1000
0001
0100
0010
0100
,
1000
0001
0100
0010
0100
0010
0001
0100
0010
0100
1000
0001
0010
0100
0001
0100
,
0001
0010
0100
0001
0100
0010
1000
0001
0010
0100
0001
0010
0100
0001
0100
0010
,
0100
0001
1000
0100
0010
0100
0001
0100
0010
0100
1000
0001
0100
0010
0100
0001
,
0101
0010
1000
0010
0100
0001
0100
0010
1000
0001
0100
0010
0100
1000
0001
0010
,
1001
0100
0010
1000
0100
1000
0001
1010
0100
1000
0100
0010
0001
0010
0100
0000
,
2002
0000
0000
0000
0000
3003
0000
0100
,
2002
0000
0000
0000
0000
3003
0000
0100
,
2002
0000
0000
0000
0000
0000
0000
0000
0000
0000
3003
0000
1000
0100
0010
0000
,
0001
0010
0100
0000
1000
0100
0010
0000
0001
0010
0100
0000
1000
0100
0010
0000
,
0001
0010
0001
0010
0001
0010
0001
0010
0001
0010
0001
0010
0001
0010
0100
0010
,
0100
0010
0100
0010
0100
0010
0100
0010
0100
0010
0100
1000
0100
1000
0100
1000
,
0100
1000
0100
1000
0100
1000
0100
1000
0100
0010
0001
0010
0001
0010
0001
0010
,
0001
0010
0001
0010
0001
0010
0001
0010
0100
0010
0100
0010
0100
0010
0100
0010
,
0100
0010
0100
1000
0100
1000
0100
1000
0100
1000
0100
1000
0100
0010
0001
0010
,
0100
0010
0001
0010
0001
0010
0001
0010
0001
0010
0001
0010
0100
0010
0001
0100
,
0010
1000
0010
0100
0010
0100
0010
0100
0010
0100
0010
0100
0010
0100
1000
0100
,
1000
0100
1000
0100
1000
0100
1000
0100
1000
0100
1000
0100
0010
0100
0010
0100
,
0010
0100
0010
0100
0010
0100
0010
0100
0010
0100
0010
0001
0010
0001
0010
0001
,
0010
0001
0010
0001
0010
0001
0010
0001
0010
0100
0010
0100
0010
0100
0010
0100
,
0010
0100
0010
0100
1000
0100
1000
0100
1000
0100
1000
0100
1000
0100
1000
0100
,
0010
0001
0010
0001
0010
0001
0010
0001
0010
0001
0010
0001
0010
0100
0010
0100
,
0010
0100
0010
0100
0010
0100
0010
0100
0010
0100
0010
0100
1000
0010
0100
0010
,
1000
0100
0010
0100
0010
1000
0100
0010
0100
0010
0100
1000
0010
0100
0010
0001
,
0100
0010
0100
0010
0100
1000
0001
0010
0001
0100
0010
0100
0001
0100
1000
0100
,
0010
0001
0100
0010
1000
0001
0100
0010
0001
0010
0100
0001
0010
0100
0010
0100
,
2002
0000
0000
0000
0000
0000
0000
0000
0000
0000
0000
0000
0000
0000
0000
3003
,
0000
0000
0000
0000
,
0000
0000
0000
0000
,
0000
0000
0000
0000
,
0000
2002
0000
0000
,
0000
0000
0000
0000
0000
0000
0000
3003
,
0100
1000
0001
0100
0010
0100
0001
0100
,
0010
1000
0001
0100
0010
1000
0001
0100
,
0010
0001
0100
0010
1000
0001
0100
0010
,
0001
0010
0100
0001
0010
0100
0001
0100
,
0010
1000
0100
0010
0100
0010
1000
0001
,
0100
0010
1000
0010
0100
0001
0100
0010
,
1000
0000
0010
0000
0100
0000
0010
0000
0001
0000
0100
0000
0010
0001
0010
0100
,
0010
0100
0001
0010
0100
0001
0100
0010
1000
0100
1000
0100
0010
0001
0010
2202
,
0000
0000
0000
0000
0000
3303
0000
0000
;
