#TITLE:Blurred Lines;
#SUBTITLE:Sexuality Violation;
#ARTIST:Robin Thicke feat. T.I. and Pharell Williams;
#TITLETRANSLIT:;
#SUBTITLETRANSLIT:;
#ARTISTTRANSLIT:;
#CREDIT:;
#BANNER:Blurred Lines-bn.png;
#BACKGROUND:Blurred Lines-bg.png;
#LYRICSPATH:;
#CDTITLE:GazeboCD.png;
#MUSIC:Blurred Lines.ogg;
#OFFSET:-2.187;
#SAMPLESTART:52.180;
#SAMPLELENGTH:29.900;
#SELECTABLE:YES;
#BPMS:0.000=240.000;
#STOPS:;
#BGCHANGES:;
// cache tags:
#FIRSTBEAT:5.000;
#LASTBEAT:584.000;
#SONGFILENAME:Songs/Sexuality Violation 2/Blurred Lines - [Gazebo]/Blurred Lines.sm;
#HASMUSIC:1;
#HASBANNER:1;
#MUSICLENGTH:155.556;
// end cache tags

//---------------dance-single - Gazebo----------------
#NOTES:
     dance-single:
     Gazebo:
     Challenge:
     14:
     0.830,1.000,0.373,0.000,0.591,846.000,58.000,0.000,0.000,0.000:

0000
0000
0000
0000
,
0000
0000
0001
0100
0010
0100
0001
0010
,
0100
0000
1000
0100
1000
0000
0001
0010
,
0001
1000
0001
0100
0010
0000
1000
0010
,
1000
0000
0001
0100
0001
0000
1000
0010
,
1000
0001
1000
0100
0010
0000
0001
0010
,
0001
0000
1000
0100
1000
0000
0001
0010
,
0001
1000
0001
0100
0010
0000
1000
0010
,
1000
0000
0001
0100
0001
0000
1000
0010
,
1000
0000
0100
0000
0010
0000
0001
0000
1000
0100
1000
0001
1000
0010
0100
0001
,
1000
0000
0001
0100
0001
0000
1000
0010
,
0100
0000
0001
0000
1000
0000
0001
0000
1000
0100
1000
0001
1000
0010
0100
0001
,
1000
0000
0001
0100
0001
0000
0010
0100
,
0010
0000
0001
0000
1000
0000
0001
0000
1000
0010
1000
0001
1000
0100
0010
0001
,
1000
0000
0001
0010
0001
0000
1000
0100
,
0010
0001
0100
0001
1000
0000
1010
0000
,
0001
0011
1000
1100
,
0001
0101
1000
1010
,
0001
0000
1000
0000
0100
0000
0010
0001
,
0000
0010
0001
0000
1000
0000
0004
0000
,
0000
0000
1003
0000
0010
0000
0100
0001
,
0000
0100
0001
0000
1000
0000
0004
0000
,
0000
0000
1003
0000
0100
0000
0010
0001
,
0000
0010
0001
0000
1000
0000
0004
0000
,
0000
0000
1003
0000
0010
0000
0100
0001
,
0000
0100
0001
0000
1000
0000
0400
0000
,
0000
0000
0310
0000
0001
0000
1000
0001
,
0000
0000
1000
0000
0001
0000
0000
0000
1000
0010
1000
0001
1000
0100
0010
0001
,
1000
0000
0100
0000
1000
0000
0001
1000
,
0000
0000
0001
0000
1000
0000
0000
0000
0001
0100
0001
1000
0001
0010
0100
1000
,
0001
0000
0010
0000
0001
0000
1000
0001
,
0000
0000
1000
0000
0001
0000
0000
0000
1000
0010
1000
0001
1000
0100
0010
0001
,
1000
0010
1000
0010
0100
0001
1000
0100
1000
0001
0010
0001
1000
0001
0100
0010
,
1000
0001
1000
0001
0100
0010
0100
0001
1000
0001
0010
0001
1000
0000
0000
0000
,
0001
0000
1000
0000
0010
0000
0100
0001
,
0000
0100
0001
0000
1000
0000
0004
0000
,
0000
0000
1003
0000
0100
0000
0010
0001
,
0000
0010
0001
0000
1000
0000
0004
0000
,
0000
0000
1003
0000
0010
0000
0100
0001
,
0000
0100
0001
0000
1000
0000
0004
0000
,
0000
0000
1003
0000
0100
0000
0010
0001
,
0000
0010
0001
0000
1000
0000
0040
0000
,
0000
0000
0130
0000
0001
0000
1000
0001
,
0000
0000
1000
0000
0001
0000
0000
0000
1000
0100
1000
0001
1000
0010
0100
0001
,
1000
0000
0010
0000
1000
0000
0001
1000
,
0000
0000
0001
0000
1000
0000
0000
0000
0001
0010
0001
1000
0001
0100
0010
1000
,
0001
0000
0100
0000
0001
0000
1000
0001
,
0000
0000
1000
0000
0001
0000
0000
0000
1000
0100
1000
0001
1000
0010
0100
0001
,
1000
1010
0001
0101
,
1000
1100
0001
0011
,
1000
0100
1000
0001
1000
0001
0010
0001
1000
0010
1000
0001
1000
0001
0100
0001
,
1000
0010
1000
0001
0010
0100
1000
0001
1000
0000
0000
0000
0004
0000
0000
0000
,
0000
0103
0100
0100
,
0010
1000
0001
4000
,
0000
3100
0100
0100
,
0010
0001
1000
0004
,
0000
0103
0100
0100
,
0010
1000
0100
0100
,
1000
0010
1000
0001
1000
0001
0100
0001
1000
0100
1000
0001
1000
0001
0010
0001
,
1000
0100
1000
0001
0100
0010
1000
0001
1000
0000
0000
0000
0040
0000
0000
0000
,
0000
0000
0130
0000
0100
0001
0100
0000
,
0010
1000
0001
0040
,
0000
0130
0100
0100
,
1000
0001
1000
0010
,
1000
1100
0001
0011
,
1000
1010
0001
0101
,
1000
0010
1000
0001
1000
0001
0100
0001
1000
0100
1000
0001
1000
0001
0010
0001
,
1000
0100
1000
0001
0100
0010
1000
0001
1000
0000
0000
0000
0004
0000
0000
0000
,
0000
0013
0010
0010
,
0100
1000
0001
4000
,
0000
3010
0010
0010
,
0100
0001
1000
0004
,
0000
0013
0010
0010
,
0100
1000
0010
0010
,
1000
0010
1000
0001
1000
0001
0100
0001
1000
0100
1000
0001
1000
0001
0010
0001
,
1000
0100
1000
0001
0100
0010
1000
0001
1000
0000
0000
0000
0040
0000
0000
0000
,
0000
0130
0100
0100
,
0001
1000
0001
0040
,
0000
0000
0130
0000
0100
1000
0100
0000
,
0010
0001
0100
0010
,
1000
1010
0001
0101
,
1000
0000
0001
0100
0010
0100
0001
0010
,
0100
0000
1000
0000
0100
0000
0010
0001
,
0000
0010
0001
0000
1000
0000
0004
0000
,
0000
0000
1003
0000
0010
0000
0100
0001
,
0000
0100
0001
0000
1000
0000
0004
0000
,
0000
0000
1003
0000
0100
0000
0010
0001
,
0000
0010
0001
0000
1000
0000
0001
0000
,
0000
0000
0000
0000
,
0000
0000
0001
0400
,
0000
0000
0310
0000
1000
0000
0001
1000
,
0000
0000
0001
0000
1000
0000
0000
0000
0001
0100
0001
1000
0001
0010
0100
1000
,
0001
0000
0010
0000
0001
0000
1000
0001
,
0000
0000
1000
0000
0001
0000
0000
0000
1000
0010
1000
0001
1000
0100
0010
0001
,
1000
0000
0100
0000
1000
0000
0001
1000
,
0000
0000
0001
0000
1000
0000
0000
0000
0001
0100
0001
1000
0001
0010
0100
1000
,
0001
0100
0010
0100
0010
1000
0001
0010
0001
1000
0100
1000
0100
1000
0001
0100
,
0010
1000
0001
1000
0001
0010
0100
1000
0100
0010
0001
1000
0001
0000
0000
0000
,
1000
0000
0001
0000
0100
0000
0010
1000
,
0000
0010
1000
0000
0001
0000
4000
0000
,
0000
0000
3001
0000
0010
0000
0100
1000
,
0000
0100
1000
0000
0001
0000
4000
0000
,
0000
0000
3001
0000
0100
0000
0010
1000
,
0000
0010
1000
0000
0001
0000
4000
0000
,
0000
0000
3001
0000
0010
0000
0100
1000
,
0000
0100
1000
0000
0001
0000
0400
0000
,
0000
0000
0310
0000
1000
0000
0001
1000
,
0000
0000
0001
0000
1000
0000
0000
0000
0001
0010
0001
1000
0001
0100
0010
1000
,
0001
0000
0100
0000
0001
0000
1000
0001
,
0000
0000
1000
0000
0001
0000
0000
0000
1000
0100
1000
0001
1000
0010
0100
0001
,
1000
0000
0010
0000
1000
0000
0001
1000
,
0000
0000
0001
0000
1000
0000
0000
0000
0001
0010
0001
1000
0001
0100
0010
1000
,
0001
0101
1000
1010
,
0001
0011
1000
1100
,
0001
0010
0001
1000
0001
1000
0100
1000
0001
0100
0001
1000
0001
1000
0010
1000
,
0001
0100
0001
1000
0100
0010
0001
1000
0001
0000
0000
0000
4000
0000
0000
0000
,
0000
3010
0010
0010
,
0100
0001
1000
0004
,
0000
0013
0010
0010
,
0100
1000
0001
4000
,
0000
3010
0010
0010
,
0100
0001
0010
0010
,
0001
0010
0001
1000
0001
1000
0100
1000
0001
0100
0001
1000
0001
1000
0010
1000
,
0001
0100
0001
1000
0100
0010
0001
1000
0001
0000
0000
0000
0040
0000
0000
0000
,
0000
0000
0130
0000
0100
1000
0100
0000
,
0010
0001
1000
0040
,
0000
0130
0100
0100
,
0001
1000
0001
0010
,
0000
0000
0000
0000
,
0000
0000
0001
0010
0100
0010
0001
0100
,
0001
0100
0001
1000
0001
1000
0010
1000
0001
0010
0001
1000
0001
1000
0100
1000
,
0001
0010
0001
1000
0010
0100
0001
1000
0001
0000
0000
0000
4000
0000
0000
0000
,
0000
3100
0100
0100
,
0010
0001
1000
0004
,
0000
0103
0100
0100
,
0010
1000
0001
4000
,
0000
3100
0100
0100
,
0010
0001
0100
0100
,
0001
0100
0001
1000
0001
1000
0010
1000
0001
0010
0001
1000
0001
1000
0100
1000
,
0001
0010
0001
1000
0010
0100
0001
1000
0001
0000
0000
0000
0400
0000
0000
0000
,
0000
0310
0010
0010
,
1000
0001
1000
0400
,
0000
0000
0310
0000
0010
0001
0010
0000
,
0100
1000
0010
0100
,
0001
0101
1000
1010
,
0001
0011
1000
1100
,
0001
0000
0000
0000
;

//---------------dance-single - Gazebo----------------
#NOTES:
     dance-single:
     Gazebo:
     Hard:
     11:
     0.746,1.000,0.373,0.000,0.591,754.000,58.000,0.000,0.000,0.000:
0000
0000
0000
0000
,
0000
0000
0001
0100
0010
0100
0001
0010
,
0100
0000
1000
0100
1000
0000
0001
0010
,
0001
1000
0001
0100
0010
0000
1000
0010
,
1000
0000
0001
0100
0001
0000
1000
0010
,
1000
0001
1000
0100
0010
0000
0001
0010
,
0001
0000
1000
0100
1000
0000
0001
0010
,
0001
1000
0001
0100
0010
0000
1000
0010
,
1000
0000
0001
0100
0001
0000
1000
0010
,
1000
0000
0000
0100
0000
0000
0010
0000
0000
0001
0000
0000
1000
0000
0100
0000
1000
0000
0001
0000
0100
0000
0010
0000
,
1000
0000
0001
0100
0001
0000
1000
0010
,
0100
0000
0000
0001
0000
0000
1000
0000
0000
0001
0000
0000
1000
0000
0100
0000
1000
0000
0001
0000
0100
0000
0010
0000
,
1000
0000
0001
0100
0001
0000
0010
0100
,
0010
0000
0000
0001
0000
0000
1000
0000
0000
0001
0000
0000
1000
0000
0010
0000
1000
0000
0001
0000
0010
0000
0100
0000
,
1000
0000
0001
0010
0001
0000
1000
0100
,
0010
0001
0100
0001
1000
0000
1010
0000
,
0001
0011
1000
1100
,
0001
0101
1000
1010
,
0001
0000
1000
0000
0100
0000
0010
0001
,
0000
0010
0001
0000
1000
0000
0004
0000
,
0000
0000
1003
0000
0010
0000
0100
0001
,
0000
0100
0001
0000
1000
0000
0004
0000
,
0000
0000
1003
0000
0100
0000
0010
0001
,
0000
0010
0001
0000
1000
0000
0004
0000
,
0000
0000
1003
0000
0010
0000
0100
0001
,
0000
0100
0001
0000
1000
0000
0400
0000
,
0000
0000
0310
0000
0001
0000
1000
0001
,
0000
0000
0000
1000
0000
0000
0001
0000
0000
0000
0000
0000
1000
0000
0010
0000
1000
0000
0001
0000
0010
0000
0100
0000
,
1000
0000
0100
0000
1000
0000
0001
1000
,
0000
0000
0000
0001
0000
0000
1000
0000
0000
0000
0000
0000
0001
0000
0100
0000
0001
0000
1000
0000
0100
0000
0010
0000
,
0001
0000
0010
0000
0001
0000
1000
0001
,
0000
0000
0000
1000
0000
0000
0001
0000
0000
0000
0000
0000
1000
0000
0010
0000
1000
0000
0001
0000
0010
0000
0100
0000
,
1000
0001
0100
0001
0100
0010
1000
0001
0010
0001
0010
0100
,
1000
0001
0100
0001
1000
0001
1000
0010
1000
0001
0000
0000
,
1000
0000
1000
0000
0010
0000
0100
0001
,
0000
0100
0001
0000
1000
0000
0004
0000
,
0000
0000
1003
0000
0100
0000
0010
0001
,
0000
0010
0001
0000
1000
0000
0004
0000
,
0000
0000
1003
0000
0010
0000
0100
0001
,
0000
0100
0001
0000
1000
0000
0004
0000
,
0000
0000
1003
0000
0100
0000
0010
0001
,
0000
0010
0001
0000
1000
0000
0040
0000
,
0000
0000
0130
0000
0001
0000
1000
0001
,
0000
0000
0000
1000
0000
0000
0001
0000
0000
0000
0000
0000
1000
0000
0100
0000
1000
0000
0001
0000
0100
0000
0010
0000
,
1000
0000
0010
0000
1000
0000
0001
1000
,
0000
0000
0000
0001
0000
0000
1000
0000
0000
0000
0000
0000
0001
0000
0010
0000
0001
0000
1000
0000
0010
0000
0100
0000
,
0001
0000
0100
0000
0001
0000
1000
0001
,
0000
0000
0000
1000
0000
0000
0001
0000
0000
0000
0000
0000
1000
0000
0100
0000
1000
0000
0001
0000
0100
0000
0010
0000
,
1000
1010
0001
0101
,
1000
1100
0001
0011
,
1000
0100
1000
0100
0010
0001
1000
0010
1000
0010
0100
0001
,
1000
0001
1000
0100
0010
0001
1000
0000
0000
0004
0000
0000
,
0000
0103
0100
0100
,
0010
1000
0001
4000
,
0000
3100
0100
0100
,
0010
0001
1000
0004
,
0000
0103
0100
0100
,
0010
1000
0100
0100
,
1000
0010
1000
0010
0100
0001
1000
0100
1000
0100
0010
0001
,
1000
0001
1000
0010
0100
0001
1000
0000
0000
0040
0000
0000
,
0000
0000
0130
0000
0100
0001
0100
0000
,
0010
1000
0001
0040
,
0000
0130
0100
0100
,
1000
0001
1000
0010
,
1000
1100
0001
0011
,
1000
1010
0001
0101
,
1000
0010
1000
0010
0100
0001
1000
0100
1000
0100
0010
0001
,
1000
0001
1000
0010
0100
0001
1000
0000
0000
0004
0000
0000
,
0000
0013
0010
0010
,
0100
1000
0001
4000
,
0000
3010
0010
0010
,
0100
0001
1000
0004
,
0000
0013
0010
0010
,
0100
1000
0010
0010
,
1000
0010
1000
0010
0100
0001
1000
0100
1000
0100
0010
0001
,
1000
0001
1000
0010
0100
0001
1000
0000
0000
0040
0000
0000
,
0000
0130
0100
0100
,
0001
1000
0001
0040
,
0000
0000
0130
0000
0100
1000
0100
0000
,
0010
0001
0100
0010
,
1000
1010
0001
0101
,
1000
0000
0001
0100
0010
0100
0001
0010
,
0100
0000
1000
0000
0100
0000
0010
0001
,
0000
0010
0001
0000
1000
0000
0004
0000
,
0000
0000
1003
0000
0010
0000
0100
0001
,
0000
0100
0001
0000
1000
0000
0004
0000
,
0000
0000
1003
0000
0100
0000
0010
0001
,
0000
0010
0001
0000
1000
0000
0001
0000
,
0000
0000
0000
0000
,
0000
0000
0001
0400
,
0000
0000
0310
0000
1000
0000
0001
1000
,
0000
0000
0000
0001
0000
0000
1000
0000
0000
0000
0000
0000
0001
0000
0100
0000
0001
0000
1000
0000
0100
0000
0010
0000
,
0001
0000
0010
0000
0001
0000
1000
0001
,
0000
0000
0000
1000
0000
0000
0001
0000
0000
0000
0000
0000
1000
0000
0010
0000
1000
0000
0001
0000
0010
0000
0100
0000
,
1000
0000
0100
0000
1000
0000
0001
1000
,
0000
0000
0000
0001
0000
0000
1000
0000
0000
0000
0000
0000
0001
0000
0100
0000
0001
0000
1000
0000
0100
0000
0010
0000
,
0001
0100
0010
0100
0010
1000
0001
1000
0100
1000
0100
0010
,
0001
1000
0010
1000
0100
1000
0001
0010
0001
1000
0000
0000
,
0001
0000
0001
0000
0100
0000
0010
1000
,
0000
0010
1000
0000
0001
0000
4000
0000
,
0000
0000
3001
0000
0010
0000
0100
1000
,
0000
0100
1000
0000
0001
0000
4000
0000
,
0000
0000
3001
0000
0100
0000
0010
1000
,
0000
0010
1000
0000
0001
0000
4000
0000
,
0000
0000
3001
0000
0010
0000
0100
1000
,
0000
0100
1000
0000
0001
0000
0400
0000
,
0000
0000
0310
0000
1000
0000
0001
1000
,
0000
0000
0000
0001
0000
0000
1000
0000
0000
0000
0000
0000
0001
0000
0010
0000
0001
0000
1000
0000
0010
0000
0100
0000
,
0001
0000
0100
0000
0001
0000
1000
0001
,
0000
0000
0000
1000
0000
0000
0001
0000
0000
0000
0000
0000
1000
0000
0100
0000
1000
0000
0001
0000
0100
0000
0010
0000
,
1000
0000
0010
0000
1000
0000
0001
1000
,
0000
0000
0000
0001
0000
0000
1000
0000
0000
0000
0000
0000
0001
0000
0010
0000
0001
0000
1000
0000
0010
0000
0100
0000
,
0001
0101
1000
1010
,
0001
0011
1000
1100
,
0001
0010
0001
0010
0100
1000
0001
0100
0001
0100
0010
1000
,
0001
1000
0001
0010
0100
1000
0001
0000
0000
4000
0000
0000
,
0000
3010
0010
0010
,
0100
0001
1000
0004
,
0000
0013
0010
0010
,
0100
1000
0001
4000
,
0000
3010
0010
0010
,
0100
0001
0010
0010
,
0001
0010
0001
0010
0100
1000
0001
0100
0001
0100
0010
1000
,
0001
1000
0001
0010
0100
1000
0001
0000
0000
0040
0000
0000
,
0000
0000
0130
0000
0100
1000
0100
0000
,
0010
0001
1000
0040
,
0000
0130
0100
0100
,
0001
1000
0001
0010
,
0000
0000
0000
0000
,
0000
0000
0001
0010
0100
0010
0001
0100
,
0001
0100
0001
0100
0010
1000
0001
0010
0001
0010
0100
1000
,
0001
1000
0001
0100
0010
1000
0001
0000
0000
4000
0000
0000
,
0000
3100
0100
0100
,
0010
0001
1000
0004
,
0000
0103
0100
0100
,
0010
1000
0001
4000
,
0000
3100
0100
0100
,
0010
0001
0100
0100
,
0001
0100
0001
0100
0010
1000
0001
0010
0001
0010
0100
1000
,
0001
1000
0001
0100
0010
1000
0001
0000
0000
0400
0000
0000
,
0000
0310
0010
0010
,
1000
0001
1000
0400
,
0000
0000
0310
0000
0010
0001
0010
0000
,
0100
1000
0010
0100
,
0001
0101
1000
1010
,
0001
0011
1000
1100
,
0001
0000
0000
0000
;
