#TITLE:Astrofalcon;
#SUBTITLE:;
#ARTIST:Nu-Prophet;
#TITLETRANSLIT:;
#SUBTITLETRANSLIT:;
#ARTISTTRANSLIT:;
#CREDIT:WinDEU;
#BANNER:../Tachyon Delta-bn.png;
#BACKGROUND:../Tachyon Delta-bg.png;
#LYRICSPATH:;
#CDTITLE:;
#MUSIC:Astrofalcon.ogg;
#OFFSET:-0.020;
#SAMPLESTART:26.060;
#SAMPLELENGTH:12.000;
#SELECTABLE:YES;
#BPMS:0.000=166.000;
#STOPS:;
#BGCHANGES:;
// cache tags:
#FIRSTBEAT:12.000;
#LASTBEAT:272.000;
#SONGFILENAME:Songs/Tachyon Delta/Astrofalcon - [WinDEU]/astrofalcon.sm;
#HASMUSIC:1;
#HASBANNER:1;
#MUSICLENGTH:99.813;
// end cache tags

//---------------dance-single - WinDEU----------------
#NOTES:
     dance-single:
     WinDEU:
     Challenge:
     16:
     1.000,1.000,0.110,0.451,1.000,783.000,11.000,45.000,0.000,0.000:

0000
0000
0000
0000
,
0000
0000
0000
0000
,
0000
0000
0000
0000
,
1000
0000
0001
0010
0001
0000
1000
0010
1000
0000
0001
0100
0001
0000
1000
0100
1000
0000
0001
1000
0001
0000
0100
0000
,
0010
1000
0010
0100
0001
1000
0100
1000
0001
0010
0100
1000
,
0010
0100
0001
0100
0010
1000
0001
0010
0100
1000
0001
0100
,
0010
1000
0010
0100
0001
1000
0100
1000
0010
0100
0001
1000
,
0001
0010
0100
0010
0001
1000
1001
0000
1010
0000
0110
0100
,
0004
0000
0000
0000
,
0000
0000
0000
0003
,
0010
0100
1000
0001
1000
0010
0100
0001
0100
0010
1000
0001
,
1000
0100
1000
0010
0100
0010
1000
0001
0100
0001
0010
0001
,
0100
0010
1000
0100
0010
0001
0010
0100
1000
0001
0100
0010
,
1000
0100
0010
0100
1000
0100
0010
0001
1000
0001
0100
0001
,
0100
0010
0100
0001
0100
0010
1000
0001
1000
0010
0100
0001
1000
0100
1000
0001
0010
0100
0010
0001
1000
0100
1000
0001
,
0010
0001
1000
0010
0100
0010
1000
0001
0100
0010
0100
0001
1000
0100
1000
0001
0010
0100
0010
0001
1000
0001
0010
0100
,
1000
0001
0100
0001
1000
0001
0100
0010
1000
0010
0100
0001
1000
0100
1000
0001
0010
0100
0010
0001
1000
0100
1000
0001
,
0010
0100
0010
0001
0010
0100
1000
0100
0010
0100
1000
0100
0010
0001
0010
0100
0010
0001
1000
0001
0010
0100
1000
0001
,
0100
0000
0010
1000
0000
0010
0100
0000
0001
0000
1000
0100
,
1000
0010
0100
0001
0010
0200
0000
0300
1000
0000
0010
0100
,
0002
0000
0023
0000
0230
0000
1300
0020
0000
0130
0010
1000
,
0001
0000
0000
0000
0010
0000
0000
0000
0100
0000
0000
0000
1000
0000
0100
0000
1000
0000
0001
0100
0010
0100
0001
1000
,
0010
0000
0100
0001
0000
0100
0010
0000
1000
0000
0100
0010
,
0100
1000
0001
0010
0001
0200
0000
0300
0010
0000
1000
0001
,
0020
0000
0230
0000
2300
0000
3001
0200
0000
0310
1000
0100
,
0020
0000
0000
0000
0032
0000
0000
0000
0203
0000
0000
0000
0310
1000
0010
0100
0001
0100
0010
1000
0001
1000
0001
0010
,
0200
0000
0000
1300
0000
0100
1000
0000
0100
0010
0000
0002
,
0000
0000
0000
0203
0000
0000
0310
1000
0010
0100
0001
2000
,
0000
3100
1000
0100
0010
0002
0000
0103
0001
0100
0020
0000
,
1030
0100
0010
0001
0100
0010
1000
0100
0010
0002
0000
0000
,
0103
0000
0010
0000
1000
0001
0010
0100
0000
1000
0010
0100
,
0010
1000
0100
1000
0001
0010
0001
0100
0001
1000
0010
1000
,
0100
0000
1000
0100
1000
0010
0100
0000
0001
0010
0001
0100
,
0010
0000
1000
0000
0010
0000
0100
0000
0001
0000
1000
0000
0001
0010
0100
1000
0100
0010
0001
0010
0100
1000
0100
0010
,
0001
0000
0100
0000
0000
0202
0000
0000
0303
1001
0000
0000
,
1000
0100
0010
0100
1000
0010
0100
0001
0100
0010
1000
0100
,
0010
0000
0001
0000
0000
2002
0000
0000
3003
1010
0000
0000
,
0010
0000
0100
0000
0001
0000
1000
0001
1000
0100
0010
0100
1000
0001
0010
0100
0010
0001
1000
0000
0001
0000
1000
0000
,
0010
0000
0100
0000
0000
0202
0000
0000
0303
1001
0000
0000
,
1000
0000
0100
0000
0010
0000
0001
0000
1000
0000
0010
0000
0100
0001
0100
0010
0100
0001
0100
0010
1000
0010
0100
0010
,
1000
0000
0001
0000
0000
0022
0000
0000
0033
0110
0000
0000
,
0100
1000
0001
1000
0100
0010
0100
1000
0001
0010
0100
0010
0001
0000
1000
0000
0001
0000
0100
0000
0010
0000
1000
0000
,
0001
0010
0001
0010
0001
0010
0100
0010
0100
0010
0100
0010
,
0100
1000
0100
1000
0100
1000
0001
1000
0001
1000
0001
1000
,
0002
0103
0001
0100
0001
0100
0010
0100
0010
0100
0010
0100
,
0010
0000
1000
0000
0010
0000
2000
0000
3010
0000
1000
0000
0001
0000
2000
0000
3001
0000
1000
0001
0100
0010
1000
0001
,
0100
0001
0100
0001
0100
0001
0100
0010
0100
0010
0100
0010
,
2000
3010
1000
0010
1000
0010
2000
3001
2000
3001
2000
3001
,
0020
0031
0010
0001
0010
0002
0023
0130
0010
0100
0010
0200
,
2300
0000
3010
1000
0010
0000
0100
0001
0100
0000
0001
1000
0001
0000
1000
0100
1000
0000
0001
0010
0100
1000
0001
0010
,
0100
1000
0001
1000
0010
0100
0001
0100
0010
1000
0001
1000
,
0100
0010
0001
0010
0100
1000
0001
0100
0010
1000
0010
0100
,
0001
1000
0100
1000
0010
0100
0001
0010
0001
1000
0010
1000
,
0100
0000
0010
0001
0010
0000
0100
1000
0100
0000
1000
0001
1000
0000
0001
0100
0001
0000
0100
0010
1000
0001
0100
0010
,
1000
0010
0100
0001
0100
0010
1000
0001
1000
0100
0010
0001
,
0010
0100
1000
0001
1000
0010
0100
0001
1000
0100
1000
0001
,
0010
0100
0010
0001
1000
0001
0100
0010
0100
0001
1000
0010
,
0100
0000
0001
0000
1000
0000
0100
0000
1000
0000
0001
0000
0010
0100
0010
0001
1000
0100
0010
0100
1000
0001
1000
0010
,
0100
0001
0100
0010
1000
0010
0100
0001
1000
0100
0010
0002
,
0000
0000
0000
0103
0010
2000
0000
0000
0000
3100
1000
0100
,
0010
0000
0001
0000
1000
0000
0001
0000
0100
0000
0010
0000
0100
0001
1000
0001
0100
0010
1000
0010
0100
0001
1000
0100
,
0020
0000
0000
0000
0000
0000
0000
0000
0000
0000
0031
0000
0010
0100
0010
0001
0010
0100
1000
0001
1000
0100
0010
0100
,
1000
0000
0010
0000
0100
0000
0001
0000
0010
0000
0100
0000
1000
0000
0010
0000
0100
0000
0001
0010
0100
0010
0001
1000
,
0001
0100
0010
0100
0001
1000
0010
0100
0010
1000
0001
1000
0100
0010
0001
0010
0100
1000
0001
0100
0010
1000
0010
0100
,
0001
1000
0100
1000
0001
0200
0000
0000
0000
0000
0000
0000
0000
0000
0000
0000
0000
0000
0000
0000
0000
0000
0000
0000
,
0310
1000
0001
0100
0010
0100
0001
1000
0010
0100
0010
1000
0001
1000
0100
0010
0001
0010
0100
1000
0001
1000
0100
0010
,
0002
0000
0000
0000
,
0000
0000
0000
0000
,
0003
0000
0000
0000
;
