#TITLE:Remember Memories;
#SUBTITLE:Really? Really! OP theme;
#ARTIST:YURIA;
#TITLETRANSLIT:;
#SUBTITLETRANSLIT:;
#ARTISTTRANSLIT:;
#CREDIT:ALICE_;
#BANNER:Remember Memories.png;
#BACKGROUND:Remember Memories.jpg;
#LYRICSPATH:;
#CDTITLE:cdtitle.png;
#MUSIC:Remember memories.mp3;
#OFFSET:0.270;
#SAMPLESTART:74.000;
#SAMPLELENGTH:17.020;
#SELECTABLE:YES;
#BPMS:0.000=150.000;
#STOPS:;
#BGCHANGES:0.938=Remember memories.avi=1.000=1=0=1,
99999=-nosongbg-=1.000=0=0=0 // don't automatically add -songbackground-
;
// cache tags:
#FIRSTBEAT:4.000;
#LASTBEAT:328.000;
#SONGFILENAME:Songs/alice 4th complete step/Remember memories/Remember memories.sm;
#HASMUSIC:1;
#HASBANNER:1;
#MUSICLENGTH:148.331;
// end cache tags

//---------------dance-single - ----------------
#NOTES:
     dance-single:
     :
     Hard:
     8:
     0.521,0.586,0.297,0.067,0.061,487.000,44.000,10.000,0.000,0.000:
0000
0000
0000
0000
,
1000
0100
0010
0001
0000
0000
0001
0100
,
0010
1000
0000
0000
1000
0100
0010
0001
,
0100
0000
0010
1000
0000
0001
0000
1000
,
0000
0010
0110
1001
,
0001
0010
0100
1000
0000
0000
1000
0010
,
0100
0001
0000
0000
0001
0010
0100
1000
,
0010
0000
0100
0001
0000
1000
0000
0001
,
0000
0010
0110
1001
,
1000
0010
0100
0001
0000
0000
0001
0010
,
0100
1000
0000
0000
1000
0010
0100
0001
,
1000
0000
0100
0001
0000
0100
0000
1000
,
0000
0000
0001
0000
0100
0010
2000
0000
,
3001
0000
0100
0010
0100
0000
0010
1000
,
0100
2000
3002
0003
,
1100
0001
0101
0000
,
0220
0000
0000
0000
,
0000
0000
0000
0000
,
0000
0000
0000
0330
0000
0110
1001
0000
,
0100
0001
0100
0001
0010
0100
1000
0000
,
0100
1000
0100
1000
0010
0100
0001
0000
,
1000
0100
1000
0001
0100
0010
1000
0000
,
0001
0010
0100
0000
0110
0000
1001
0000
,
0100
0010
1000
0010
0100
0001
1000
0000
,
0100
0010
0001
0010
0100
1000
0001
0000
,
1000
0100
1000
0100
0001
0100
0001
0100
,
1000
0010
1000
0001
0100
0010
2000
3000
,
0001
0100
1000
0100
0001
0000
0010
0100
,
0000
1000
0010
0000
0100
0001
1000
0010
,
1000
0100
1000
0100
0001
0100
1000
0010
,
0100
0001
1100
0000
0100
1000
0101
0000
,
0100
0010
0100
0010
1000
0010
0100
0001
,
1000
1100
0001
0101
,
0100
0010
1000
0001
0010
0100
0001
0000
,
0100
1000
1010
0000
0100
0001
0011
0000
,
1000
0100
0001
0100
1000
0000
0100
0010
,
0000
0001
1000
0000
0010
0100
0001
1000
,
0100
0001
0100
0001
1000
0010
0001
0100
,
0010
1000
0101
0000
0010
0001
1100
0010
,
0001
1000
0001
1000
0010
0100
0010
1000
,
0100
0000
0011
0000
0101
0000
1010
1000
,
0010
0100
0001
1000
0100
0010
1000
0000
,
0010
0001
0100
0101
0010
1000
0100
0110
,
1001
1000
0001
0100
0001
1000
0001
0100
,
0010
1000
0001
1000
0010
1000
0001
1000
,
0100
0010
0100
1000
0100
0010
0100
1000
,
0001
0100
1010
0000
1000
0100
0011
0000
,
0100
1000
0010
0100
0001
0100
0010
1000
,
0001
0010
0001
1000
0100
0010
0001
0000
,
0001
0100
1000
0001
1000
0100
0001
0010
,
0100
1000
1100
0000
0001
0100
0101
0000
,
0010
0100
0000
0010
0100
0000
0010
0100
0000
0010
0100
0000
1000
0001
1000
0001
,
0100
0100
0010
1000
0001
0100
0010
0000
,
1000
1000
0001
0010
0100
1000
0001
0000
,
0100
0100
1000
0100
0001
1000
0010
0100
,
0001
0010
0001
1000
0101
0000
1010
0000
,
0010
0010
0100
0001
1000
0100
0010
0000
,
0001
0001
1000
0010
0100
0001
1000
0000
,
0001
0001
1000
0010
0100
1000
0100
0001
,
1000
0100
1000
0001
1100
0000
0011
0000
,
0100
1000
0001
0100
0010
0010
1001
0000
,
0100
0001
1000
0010
0100
0100
1001
0000
,
0100
1000
0001
0100
0001
1000
0100
0001
,
0100
0200
1300
0000
0010
0020
0031
0000
,
0010
0100
0001
1000
0100
0010
0001
1000
,
0010
0001
0010
1000
0100
0010
0100
1000
,
0001
0100
0000
0000
1000
0100
0000
0000
0001
0010
0000
0000
1000
0010
0000
0000
,
0001
0100
1000
0000
0100
0010
1000
0000
0001
0100
0001
0000
0100
0010
0100
0010
,
1000
0000
1100
0001
0100
0010
1000
0000
,
0001
0000
0101
1000
0010
0100
0001
0000
,
1000
1000
0010
0100
0001
1000
0110
0000
,
0001
0100
0001
0001
1000
0100
1000
0010
,
0100
0100
1001
0000
0100
0100
1010
0000
,
0100
0100
0011
0000
0010
0100
1001
0000
,
1000
0010
0000
0000
0100
0001
0000
0000
0010
0100
0000
0000
1001
0000
0001
0000
,
0100
1000
0100
0010
0100
0001
0010
0100
,
2002
0000
0000
0000
,
0000
0000
0000
0000
,
0000
0000
0000
0000
,
3003
0000
0000
0000
;

//---------------dance-single - Copied from----------------
#NOTES:
     dance-single:
     Copied from:
     Challenge:
     14:
     0.881,1.000,1.000,0.081,0.691,709.000,187.000,12.000,0.000,7.000:
0000
0000
0000
0000
,
1001
0100
0010
0001
0100
0000
0110
0000
,
1010
0100
0001
0010
1100
0000
0011
0000
,
0101
1000
0010
0001
1000
0000
0010
0000
,
0110
1000
0011
1010
,
1001
0100
0010
1000
0100
0000
0110
0000
,
0011
1000
0100
0010
1001
0000
1010
0000
,
1100
0001
0100
1000
0010
0000
0100
0000
,
0110
0001
0101
1010
,
1100
0001
1000
0001
0010
0000
0101
0000
,
0101
1000
0010
1000
0001
0000
0100
0000
,
1001
0000
0010
0101
1000
0110
1001
0000
,
0101
1000
0110
1001
,
1010
0100
0010
0001
,
0110
1000
0001
0000
,
1001
0100
0010
0001
,
2020
0000
0000
0000
,
0030
0000
0000
0000
,
0002
0000
0000
0000
0000
3103
0010
0000
,
1100
0000
1000
0000
0101
0000
1000
0010
0001
1000
0010
0000
1001
0000
0010
0100
,
0001
0000
0001
0000
1010
0000
0001
0010
1000
0001
0010
0000
1001
0000
0100
0010
,
1000
0000
1000
0000
0101
0000
1000
0100
0010
1000
0100
0000
1001
0000
0010
0000
,
0100
0000
0011
0000
1100
0010
1000
0001
0100
0000
1100
0001
0010
0000
1001
0001
,
0010
0000
0010
0000
1101
0000
1000
0100
0001
0100
0010
0000
1001
0000
0010
0000
,
0101
0000
0100
0000
1001
0000
0000
0010
1100
0000
0100
0000
1001
0000
0010
0000
,
0101
0000
0001
0000
0110
0000
1000
0010
0001
1000
0010
0000
1100
0000
1000
0000
,
0110
0000
0001
0010
0001
0100
1000
0100
0010
0001
1000
0001
0100
0010
1000
0100
,
1010
0000
0010
0000
1001
0000
0000
0100
0010
0000
0010
0000
1001
0000
0000
0000
,
0101
0000
0100
0000
1001
0000
0000
0010
0100
0000
0100
0000
1001
0000
0000
0000
,
0120
0000
1030
0001
0100
1000
0100
0010
1000
0100
1000
0010
0100
0001
0100
0020
,
0000
0000
0130
0000
1000
0001
0100
0020
0000
0000
0000
0000
0130
0000
1001
0000
,
1100
0000
1000
0000
0110
0000
0000
0001
0100
0000
0100
0000
1010
0000
0000
1000
,
0011
0000
0001
0000
0110
0000
0000
1000
0010
0000
0010
0000
0101
0000
0000
0000
,
2010
0000
0100
0000
0011
0000
3100
0000
0010
0000
0001
0000
1010
0000
0100
0100
,
0010
1000
0001
0000
0100
1000
0100
0010
1000
0000
0001
0000
0100
0000
1010
0000
,
0101
0000
0100
0000
1001
0000
0000
0010
0100
0000
0100
0000
1001
0000
0000
0000
,
1010
0000
0010
0000
1001
0000
0000
0100
0010
0000
0010
0000
1001
0000
0010
0000
,
1100
0000
1000
0000
0001
0000
0010
0000
0001
0100
1000
0100
0010
1000
0200
0000
,
0310
0001
0100
0001
0010
0001
1000
0100
0001
0010
0100
1000
0010
0100
0010
1000
,
0101
0000
0001
0000
1100
0000
0000
0010
0100
0000
0100
0000
1001
0000
0010
0000
,
1100
0000
1000
0000
0011
0000
0000
1000
0001
0000
0001
0000
1010
0000
0100
0000
,
1000
0010
1001
0100
0010
0001
1010
0100
,
1000
0011
0100
0100
1010
1010
1001
0110
,
1010
1001
1010
1001
1100
1010
1100
1010
,
0101
0000
1001
0000
0101
0000
2001
0010
0000
0000
3010
0000
0101
0000
0010
0000
,
0101
1001
0101
1001
0011
0101
0011
0101
,
1010
0000
0011
0000
1100
0000
0120
1000
0000
0000
1030
0000
1001
0000
0010
0000
,
1100
0000
1000
0000
0101
0010
0000
0010
0101
0000
0001
0000
0110
0000
0000
0000
,
0011
0000
0001
0000
1010
0100
0000
0100
1010
0000
1000
0000
0110
0000
0000
0110
,
1001
0000
0001
0000
1010
0100
0000
0010
0101
0000
1000
0000
0110
0000
0000
1001
,
0110
0000
0010
0000
0101
0000
0000
0010
1100
0000
1000
0000
1001
0000
0010
0000
,
1100
0010
0000
0101
0010
0000
1100
0010
0000
0101
0010
0000
1100
0010
0100
0010
,
1001
0100
1000
0100
0010
0100
1000
0100
0010
0001
0010
0100
0010
0001
0010
0001
,
0010
0100
1000
0100
0010
0001
0010
0100
0010
0001
0010
0100
1000
0100
0010
0100
,
1000
0100
1000
0100
0010
0001
0010
0100
0010
0001
0010
0100
1000
0100
0010
0100
,
0010
0001
0010
0100
1000
0100
0010
0100
1001
0000
0000
0000
1111
0000
0000
0000
,
1001
0010
0001
0010
0100
0010
0001
0010
0100
1000
0100
0010
0100
1000
0100
1000
,
0100
0010
0001
0010
0100
1000
0100
0010
0100
1000
0100
0010
0001
0010
0100
0010
,
0001
0010
0001
0010
0100
1000
0100
0010
0100
1000
0100
0010
0001
0010
0100
0010
,
0100
1000
0100
0010
0001
0010
0100
0010
1001
0000
0000
0000
1111
0000
0000
0000
,
0101
1000
0100
1000
0010
0100
0010
0100
0001
0010
0001
0010
0100
0010
0100
0010
,
1000
0100
0010
0100
1000
0100
0010
0001
0010
0100
0010
0001
0010
0100
1000
0100
,
0010
0001
0010
0001
0100
0001
0100
0001
1000
0010
1000
0010
0100
0001
1000
0100
,
0010
0000
0110
0000
1001
0100
0000
0000
1010
0000
0010
0000
0101
0000
0010
0000
,
1001
0100
0010
1000
0011
0000
0100
0001
1000
0010
0100
0001
1100
0000
0010
0001
,
1010
0100
1000
0010
0101
0010
0001
0100
0010
1000
0001
0000
1010
0100
0001
0100
,
1001
0010
0100
0000
1001
0010
0100
0000
1001
0010
0100
0000
1001
0010
0100
0100
,
1001
0010
0100
0100
0011
0100
1000
0100
0010
1000
0001
1000
0010
0010
0100
0010
,
1001
0000
0001
0000
1110
0000
0001
0000
1100
0010
0100
0000
1001
0000
0010
0000
,
0101
0000
0100
0000
1011
0000
0100
0000
0011
0100
0010
0000
1001
0000
0100
0000
,
0011
0000
0001
0000
1100
0000
0010
0000
1000
0001
0110
0000
0001
0000
1010
0000
,
0101
0000
0100
0000
1001
0010
0000
0010
0100
1000
0100
0010
1000
0001
0100
0010
,
1001
0000
1000
0000
0011
0000
1000
0001
0100
0010
1000
0001
0100
0000
0010
0000
,
1001
0000
0001
0000
1100
0000
0001
1000
0010
0100
0001
1000
0010
0000
0100
0000
,
1001
0000
0010
0000
1001
0000
0010
0000
1001
0000
0010
0000
1001
0000
0101
0001
,
1000
0000
0100
0000
0010
0000
0001
0000
0000
0000
0000
0000
0010
0000
0000
0100
0000
0000
1000
0000
0000
0100
0000
0000
0001
0000
0000
0010
0000
0000
0001
0000
0000
0100
0000
0000
0001
0000
0000
1000
0000
0000
0001
0000
0000
0100
0000
0000
,
2020
0000
0000
0000
,
0000
0000
0000
0000
,
0000
0000
0000
0000
,
0000
0000
0000
0000
,
3000
0000
0000
0000
,
0000
0000
0000
0000
,
0030
0000
0000
0000
;

//---------------dance-single - ----------------
#NOTES:
     dance-single:
     :
     Medium:
     5:
     0.472,0.473,1.000,0.020,0.000,293.000,194.000,3.000,0.000,0.000:
0000
0000
0000
0000
,
1000
0100
1000
1000
,
0001
0100
0001
0001
,
1000
0100
0010
0010
,
0100
1000
0101
1001
,
0001
0100
0001
0001
,
1000
0100
1000
1000
,
0001
0100
0010
0010
,
0100
0001
1100
1001
,
0010
0100
0001
0001
,
0010
0100
1000
1000
,
0001
0010
0001
1000
,
0010
0100
0001
1000
,
0100
0010
0100
0000
,
1000
0001
0100
0000
,
0220
0000
0000
0000
,
0000
0000
0000
0000
,
0000
0000
0000
0330
,
0000
0000
0000
0000
0000
0100
0010
0000
,
1100
0100
0110
1100
,
0011
0010
0101
0011
,
1100
1000
1001
0101
,
0011
0100
1100
1000
,
1001
0110
1001
0101
,
1100
0011
0101
1010
,
1001
0110
1001
0110
,
1100
0101
0011
1010
,
1001
1001
0101
0101
,
1001
1001
1100
1100
,
0010
0101
0010
1100
,
0001
1000
0110
1001
,
0011
0011
1001
1001
,
1010
1010
1001
1001
,
0001
1010
1000
0011
,
0110
0110
1001
0110
,
1001
1001
0101
0110
,
1001
1001
1100
0110
,
1000
0101
0001
1100
,
0011
0101
1010
1100
,
0101
0101
0011
0011
,
1100
1100
1010
1010
,
1001
1001
1100
0101
,
0110
1010
0110
0011
,
1100
0100
0110
0100
,
1100
0100
0110
0010
,
0101
0100
0110
0100
,
0101
0100
0110
0010
,
1010
1001
0101
1001
,
0011
1001
1100
1001
,
0110
1001
0110
1001
,
0110
1001
0110
1001
,
1000
0100
0010
0001
0010
0100
1000
0000
,
0101
0101
1100
1001
,
1100
1100
0101
1001
,
1010
1010
0011
0110
,
1001
0100
1001
0100
,
1010
1010
0011
1001
,
0011
0011
1010
1001
,
0101
1100
0101
1010
,
0011
0110
1100
0110
,
1010
1100
0110
1010
,
0011
0101
0110
0011
,
1010
0101
1100
0011
,
1100
1001
0101
0110
,
1001
0001
0101
0001
,
1001
1000
1100
1000
,
0110
1001
1100
0011
,
0101
1010
1001
0110
,
1100
1100
0110
1100
,
0101
0101
0110
0101
,
1010
1001
0101
1001
,
0110
1001
0101
1010
,
1100
1000
0101
0001
,
1100
1000
0110
0010
,
1001
0110
1001
0110
,
1000
0010
0100
0001
0100
0010
1000
0100
,
0020
0000
0000
0000
,
0000
0000
0000
0000
,
0030
0000
0000
0000
;
