#TITLE:10 Minutes;
#SUBTITLE:- Nightcore;
#ARTIST:Inna;
#TITLETRANSLIT:;
#SUBTITLETRANSLIT:;
#ARTISTTRANSLIT:;
#CREDIT:Zeph;
#BANNER:../Zeppelin_bn.png;
#BACKGROUND:../bg_Zeppelin.png;
#LYRICSPATH:;
#CDTITLE:../cdtitle_ZAiA.png;
#MUSIC:Inna - 10 Minutes.ogg;
#OFFSET:-0.285;
#SAMPLESTART:48.980;
#SAMPLELENGTH:23.720;
#SELECTABLE:YES;
#BPMS:0.000=162.562;
#STOPS:;
#BGCHANGES:;
// cache tags:
#FIRSTBEAT:36.000;
#LASTBEAT:420.500;
#SONGFILENAME:Songs/Cirque du Zeppelin/10 Minutes - [Zeph + Zaia]/10 Minutes.sm;
#HASMUSIC:1;
#HASBANNER:1;
#MUSICLENGTH:157.752;
// end cache tags

//---------------dance-single - 24/16/16----------------
#NOTES:
     dance-single:
     24/16/16:
     Challenge:
     13:
     1.000,1.000,0.184,0.368,1.000,1122.000,29.000,58.000,0.000,0.000:
0000
0000
0000
0000
,
0000
0000
0000
0000
,
0000
0000
0000
0000
,
0000
0000
0000
0000
,
0000
0000
0000
0000
,
0000
0000
0000
0000
,
0000
0000
0000
0000
,
0000
0000
0000
0000
,
0000
0000
0000
0000
,
2000
3010
0200
0310
1000
0100
0010
0001
,
0000
0000
0200
0000
0000
0300
0000
0000
0001
0000
0100
0000
0010
0000
1000
0000
,
0000
0001
0010
0001
1000
0010
0100
0010
,
2000
0000
3002
0000
1003
0100
0010
0001
,
2000
3010
0200
0310
1000
0001
0020
0030
,
0000
0000
0100
0000
0020
0000
0030
0000
0001
0000
0100
0000
0020
0000
0000
0030
,
0000
1000
0100
0010
0001
0100
0010
1000
,
0002
0000
0000
0000
0003
0000
0010
0000
0100
0000
1000
0000
0002
0000
0000
0003
,
2000
3100
0020
0130
1000
0010
0100
0001
,
0000
0000
0020
0000
0000
0030
0000
0000
0001
0000
0010
0000
0100
0000
1000
0000
,
0000
0001
0100
0001
1000
0100
0010
0100
,
2000
0000
3002
0000
1003
0010
0100
0001
,
2000
3100
0020
0130
1000
0001
0200
0300
,
0000
0000
0010
0000
0200
0000
0300
0000
0001
0000
0010
0000
0200
0000
0000
0300
,
0000
1000
0010
0100
0001
0010
0100
1000
,
0002
0000
0000
0000
0003
0000
0100
0000
0010
0000
1000
0000
0002
0000
0000
0003
,
0110
0000
1001
0000
1100
0000
0001
1000
,
0000
0101
0000
0001
1000
0010
0200
0300
,
1001
0000
0110
0000
1001
0000
0001
0010
,
0000
0110
0000
1000
0100
0010
0001
1000
,
0011
0000
1001
0000
1010
0000
0010
0100
,
0000
0101
0000
0001
1000
0010
0100
0001
,
1001
0000
0110
0000
1001
0000
0001
0100
,
0000
0020
0030
0020
0030
0000
0000
0000
,
1000
0010
0100
0010
1000
0001
0010
0100
0010
0001
0100
0010
1000
0001
1000
0100
,
0010
0001
1000
0010
1000
0001
0100
0001
0010
0001
1000
0100
1000
0001
1000
0010
,
0100
0001
1000
0100
0010
0001
1000
0010
1000
0001
0010
0100
1000
0010
0100
0001
,
1000
0100
1000
0001
0010
0100
0010
0001
0100
0010
1000
0001
1000
0100
1000
0001
,
0100
0010
1000
0100
1000
0001
0010
0001
0100
0001
1000
0100
1000
0001
0100
0010
,
0100
0001
1000
0001
0010
0100
0010
0001
1000
0010
0100
0001
1000
0001
0010
0100
,
0010
0001
1000
0100
1000
0001
0100
0001
0010
0100
1000
0001
1000
0010
0100
0010
,
1000
0100
0010
0100
1000
0001
0010
0100
1000
0001
1000
0001
0100
0001
1000
0010
,
1000
0100
1000
0001
0010
0100
0010
0001
1000
0001
0100
0010
0100
0001
1000
0100
,
0010
0100
1000
0001
0100
0001
1000
0010
0100
0010
1000
0001
1000
0100
1000
0001
,
0010
0001
0100
0010
1000
0001
0100
0001
1000
0100
0010
0100
1000
0010
0100
0001
,
1000
0100
1000
0001
1000
0010
0100
0001
1000
0001
0100
0001
0010
0100
1000
0010
,
0100
0001
0100
0010
1000
0001
1000
0100
0010
0100
1000
0001
1000
0010
0100
0001
,
0010
0100
1000
0100
0010
0001
1000
0010
1000
0001
0010
0001
0100
0001
1000
0010
,
0100
0001
1000
0100
1000
0001
1000
0010
0100
0001
0010
0001
1000
0100
1000
0001
,
0100
0010
1000
0010
1000
0001
1000
0100
0010
0001
0010
0001
1000
0001
0100
0010
,
1000
0100
0010
0001
1000
0100
1000
0010
1000
0001
0100
0010
0100
0001
1000
0100
,
0010
0001
0100
0001
1000
0010
1000
0100
1000
0001
0010
0100
1000
0001
1000
0010
,
0100
0001
0010
0001
1000
0100
1000
0010
0100
0001
1000
0001
0010
0001
1000
0010
,
1000
0100
1000
0001
1000
0001
0010
0001
0100
0010
1000
0001
0010
0100
1000
0001
,
1000
0010
0100
0001
1000
0010
1000
0100
1000
0001
0010
0100
0010
0001
1000
0010
,
0100
0001
0010
0001
1000
0100
1000
0010
1000
0001
0100
0010
1000
0001
1000
0100
,
0010
0001
0100
0001
1000
0010
1000
0100
0010
0001
1000
0001
0100
0001
1000
0100
,
1000
0010
1000
0001
1000
0001
0100
0001
0010
0100
1000
0001
0100
0010
1000
0001
,
1000
0000
0000
0000
2200
3300
0000
0000
0022
0033
0000
0000
1000
0000
0001
0000
,
0000
1010
0000
1000
0001
0100
0010
0000
,
2002
3003
0000
0000
0220
0330
0000
0000
2002
3003
0000
0000
1000
0000
0100
0000
,
0000
0020
0030
0001
0010
0100
1000
0001
,
0202
0303
0000
0000
2002
3003
0000
0000
2200
3300
0000
0000
0001
0000
0100
0000
,
0000
1010
0000
1000
0001
0100
0001
1000
,
2002
3003
0000
0000
0220
0330
0000
0000
2002
3003
0000
0000
0001
0000
0100
0000
,
0000
0002
0003
2000
3000
0000
0000
0000
,
0001
0010
0100
0010
0001
1000
0010
0100
0010
1000
0100
0010
0001
1000
0001
0100
,
0010
1000
0001
0010
0001
1000
0100
1000
0010
1000
0001
0100
0001
1000
0001
0010
,
0100
1000
0001
0100
0010
1000
0001
0010
0001
1000
0010
0100
0001
0010
0100
1000
,
0001
0100
0001
1000
0010
0100
0010
1000
0100
0010
0001
1000
0001
0100
0001
1000
,
0100
0010
0001
0100
0001
1000
0010
1000
0100
1000
0001
0100
0001
1000
0100
0010
,
0100
1000
0001
1000
0010
0100
0010
1000
0001
0010
0100
1000
0001
1000
0010
0100
,
0010
1000
0001
0100
0001
1000
0100
1000
0010
0100
0001
1000
0001
0010
0100
0010
,
0001
0100
0010
0100
0001
1000
0010
0100
0001
1000
0001
1000
0100
1000
0001
0010
,
0001
0100
0001
1000
0010
0100
0010
1000
0001
1000
0100
0010
0100
1000
0001
0100
,
0010
0100
0001
1000
0100
1000
0001
0010
0100
0010
0001
1000
0001
0100
0001
1000
,
0010
1000
0100
0010
0001
1000
0100
1000
0001
0100
0010
0100
0001
0010
0100
1000
,
0001
0100
0001
1000
0001
0010
0100
1000
0001
1000
0100
1000
0010
0100
0001
0010
,
0100
1000
0100
0010
0001
1000
0001
0100
0010
0100
0001
1000
0001
0010
0100
1000
,
0010
0100
0001
0100
0010
1000
0001
0010
0001
1000
0010
1000
0100
1000
0001
0010
,
0100
1000
0001
0100
0001
1000
0001
0010
0100
1000
0010
1000
0001
0100
0001
1000
,
0100
0010
0001
0010
0001
1000
0001
0100
0010
1000
0010
1000
0001
1000
0100
0010
,
0001
0000
1001
0000
0001
0100
0010
1000
,
0000
0001
1000
0000
0001
0010
0100
1000
,
0000
0001
0100
0010
1000
0100
0010
0100
,
2000
0000
3002
0000
1003
0100
0010
0001
,
1000
0010
0100
0010
0100
0001
1000
0000
,
0000
0000
0100
0000
0020
0000
0030
0000
0001
0000
0100
0000
0002
0000
0000
0003
,
0000
1000
0100
0010
0001
0100
0010
1000
,
0002
0000
0003
0010
0100
1000
0001
0000
,
1000
0100
0010
0100
1000
0001
0100
0010
0100
0001
0010
0100
1000
0001
1000
0010
,
0100
0001
1000
0100
1000
0001
0010
0001
0100
0001
1000
0010
1000
0001
1000
0100
,
0010
0001
1000
0010
0100
0001
1000
0100
1000
0001
0100
0010
1000
0100
0010
0001
,
1000
0010
1000
0001
0100
0010
0100
0001
0010
0100
1000
0001
1000
0010
1000
0001
,
0010
0100
1000
0010
1000
0001
0100
0001
0010
0001
1000
0010
1000
0001
0010
0100
,
0010
0001
1000
0001
0100
0010
0100
0001
1000
0100
0010
0001
1000
0001
0100
0010
,
0100
0001
1000
0010
1000
0001
0010
0001
0100
0010
1000
0001
1000
0100
0010
0100
,
1000
0010
0100
0010
1000
0001
0100
0010
1000
0001
1000
0001
0010
0001
1000
0100
,
1000
0010
1000
0001
0100
0010
0100
0001
1000
0001
0010
0100
0010
0001
1000
0010
,
0100
0010
1000
0001
0010
0001
1000
0100
0010
0100
1000
0001
1000
0010
1000
0001
,
0100
0001
0010
0100
1000
0001
0010
0001
1000
0010
0100
0010
1000
0100
0010
0001
,
1000
0010
1000
0001
1000
0100
0010
0001
1000
0001
0010
0001
0100
0010
1000
0100
,
0010
0001
0010
0100
1000
0001
1000
0010
0100
0010
1000
0001
1000
0100
0010
0001
,
0100
0010
1000
0010
0100
0001
1000
0100
1000
0001
0100
0001
0010
0001
1000
0100
,
0010
0001
1000
0010
1000
0001
1000
0100
0010
0001
0100
0001
1000
0010
1000
0001
,
0010
0100
1000
0100
1000
0001
1000
0010
0100
0001
0100
0001
1000
0001
0020
0000
,
0000
0030
0000
0000
0000
0000
0000
0000
;

//---------------dance-single - 16/8/8----------------
#NOTES:
     dance-single:
     16/8/8:
     Hard:
     12:
     0.895,1.000,0.184,0.368,0.811,901.000,29.000,58.000,0.000,0.000:
0000
0000
0000
0000
,
0000
0000
0000
0000
,
0000
0000
0000
0000
,
0000
0000
0000
0000
,
0000
0000
0000
0000
,
0000
0000
0000
0000
,
0000
0000
0000
0000
,
0000
0000
0000
0000
,
0000
0000
0000
0000
,
2000
3010
0200
0310
1000
0100
0010
0001
,
0000
0000
0200
0000
0000
0300
0000
0000
0001
0000
0100
0000
0010
0000
1000
0000
,
0000
0001
0010
0001
1000
0010
0100
0010
,
2000
0000
3002
0000
1003
0100
0010
0001
,
2000
3010
0200
0310
1000
0001
0020
0030
,
0000
0000
0100
0000
0020
0000
0030
0000
0001
0000
0100
0000
0020
0000
0000
0030
,
0000
1000
0100
0010
0001
0100
0010
1000
,
0002
0000
0000
0000
0003
0000
0010
0000
0100
0000
1000
0000
0002
0000
0000
0003
,
2000
3100
0020
0130
1000
0010
0100
0001
,
0000
0000
0020
0000
0000
0030
0000
0000
0001
0000
0010
0000
0100
0000
1000
0000
,
0000
0001
0100
0001
1000
0100
0010
0100
,
2000
0000
3002
0000
1003
0010
0100
0001
,
2000
3100
0020
0130
1000
0001
0200
0300
,
0000
0000
0010
0000
0200
0000
0300
0000
0001
0000
0010
0000
0200
0000
0000
0300
,
0000
1000
0010
0100
0001
0010
0100
1000
,
0002
0000
0000
0000
0003
0000
0100
0000
0010
0000
1000
0000
0002
0000
0000
0003
,
0110
0000
1001
0000
1100
0000
0001
1000
,
0000
0101
0000
0001
1000
0010
0200
0300
,
1001
0000
0110
0000
1001
0000
0001
0010
,
0000
0110
0000
1000
0100
0010
0001
1000
,
0011
0000
1001
0000
1010
0000
0010
0100
,
0000
0101
0000
0001
1000
0010
0100
0001
,
1001
0000
0110
0000
1001
0000
0001
0100
,
0000
0020
0030
0020
0030
0000
0000
0000
,
1000
0010
0100
0010
1000
0001
0010
0100
0010
0001
0100
0010
1000
0001
1000
0100
,
0010
0001
1000
0010
1000
0001
0100
0001
0010
0001
1000
0100
1000
0001
1000
0010
,
0100
0001
1000
0100
0010
0001
1000
0010
1000
0001
0010
0100
1000
0010
0100
0001
,
1000
0100
1000
0001
0010
0100
0010
0001
0100
0010
1000
0001
1000
0100
1000
0001
,
0100
0010
1000
0100
1000
0001
0010
0001
0100
0001
1000
0100
1000
0001
0100
0010
,
0100
0001
1000
0001
0010
0100
0010
0001
1000
0010
0100
0001
1000
0001
0010
0100
,
0010
0001
1000
0100
1000
0001
0100
0001
0010
0100
1000
0001
1000
0010
0100
0010
,
1000
0100
0010
0100
1000
0001
0010
0100
1000
0001
1000
0001
0100
0001
1000
0010
,
1000
0100
1000
0001
0010
0100
0010
0001
1000
0001
0100
0010
0100
0001
1000
0100
,
0010
0100
1000
0001
0100
0001
1000
0010
0100
0010
1000
0001
1000
0100
1000
0001
,
0010
0001
0100
0010
1000
0001
0100
0001
1000
0100
0010
0100
1000
0010
0100
0001
,
1000
0100
1000
0001
1000
0010
0100
0001
1000
0001
0100
0001
0010
0100
1000
0010
,
0100
0001
0100
0010
1000
0001
1000
0100
0010
0100
1000
0001
1000
0010
0100
0001
,
0010
0100
1000
0100
0010
0001
1000
0010
1000
0001
0010
0001
0100
0001
1000
0010
,
0100
0001
1000
0100
1000
0001
1000
0010
0100
0001
0010
0001
1000
0100
1000
0001
,
0100
0010
1000
0010
1000
0001
1000
0100
0010
0001
0010
0001
1000
0001
0100
0010
,
1000
0000
0001
0000
1000
0000
0010
0100
,
0000
0001
0000
1000
0100
0000
0010
0000
,
0001
0000
1000
0000
0001
0000
1000
0010
,
0000
0100
0000
0001
1000
0000
0100
0000
,
0010
0000
0100
0000
1000
0000
0001
0100
,
0000
0010
0000
0100
0001
0000
0010
0000
,
0001
0000
1000
0000
0010
0000
0100
0001
,
0000
1000
0000
0100
0010
0000
0001
0000
,
1000
0000
0000
0000
2200
3300
0000
0000
0022
0033
0000
0000
1000
0000
0001
0000
,
0000
1010
0000
1000
0001
0100
0010
0000
,
2002
3003
0000
0000
0220
0330
0000
0000
2002
3003
0000
0000
1000
0000
0100
0000
,
0000
0020
0030
0001
0010
0100
1000
0001
,
0202
0303
0000
0000
2002
3003
0000
0000
2200
3300
0000
0000
0001
0000
0100
0000
,
0000
1010
0000
1000
0001
0100
0001
1000
,
2002
3003
0000
0000
0220
0330
0000
0000
2002
3003
0000
0000
0001
0000
0100
0000
,
0000
0002
0003
2000
3000
0000
0000
0000
,
0001
0010
0100
0010
0001
1000
0010
0100
0010
1000
0100
0010
0001
1000
0001
0100
,
0010
1000
0001
0010
0001
1000
0100
1000
0010
1000
0001
0100
0001
1000
0001
0010
,
0100
1000
0001
0100
0010
1000
0001
0010
0001
1000
0010
0100
0001
0010
0100
1000
,
0001
0100
0001
1000
0010
0100
0010
1000
0100
0010
0001
1000
0001
0100
0001
1000
,
0100
0010
0001
0100
0001
1000
0010
1000
0100
1000
0001
0100
0001
1000
0100
0010
,
0100
1000
0001
1000
0010
0100
0010
1000
0001
0010
0100
1000
0001
1000
0010
0100
,
0010
1000
0001
0100
0001
1000
0100
1000
0010
0100
0001
1000
0001
0010
0100
0010
,
0001
0100
0010
0100
0001
1000
0010
0100
0001
1000
0001
1000
0100
1000
0001
0010
,
0001
0100
0010
1000
0001
0010
0001
1000
,
0010
0100
0010
1000
0100
1000
0001
0010
,
0001
1000
0010
0100
0001
0010
0100
0010
,
0001
1000
0010
1000
0001
0100
0010
1000
,
0100
0010
0100
1000
0001
1000
0010
0100
,
0001
0010
0001
1000
0100
1000
0001
0100
,
0010
1000
0001
1000
0100
0010
0001
0010
,
0100
1000
0001
0100
0001
0010
0100
1000
,
0001
0000
1001
0000
0001
0100
0010
1000
,
0000
0001
1000
0000
0001
0010
0100
1000
,
0000
0001
0100
0010
1000
0100
0010
0100
,
2000
0000
3002
0000
1003
0100
0010
0001
,
1000
0010
0100
0010
0100
0001
1000
0000
,
0000
0000
0100
0000
0020
0000
0030
0000
0001
0000
0100
0000
0002
0000
0000
0003
,
0000
1000
0100
0010
0001
0100
0010
1000
,
0002
0000
0003
0010
0100
1000
0001
0000
,
1000
0100
0010
0100
1000
0001
0100
0010
0100
0001
0010
0100
1000
0001
1000
0010
,
0100
0001
1000
0100
1000
0001
0010
0001
0100
0001
1000
0010
1000
0001
1000
0100
,
0010
0001
1000
0010
0100
0001
1000
0100
1000
0001
0100
0010
1000
0100
0010
0001
,
1000
0010
1000
0001
0100
0010
0100
0001
0010
0100
1000
0001
1000
0010
1000
0001
,
0010
0100
1000
0010
1000
0001
0100
0001
0010
0001
1000
0010
1000
0001
0010
0100
,
0010
0001
1000
0001
0100
0010
0100
0001
1000
0100
0010
0001
1000
0001
0100
0010
,
0100
0001
1000
0010
1000
0001
0010
0001
0100
0010
1000
0001
1000
0100
0010
0100
,
1000
0010
0100
0010
1000
0001
0100
0010
1000
0001
1000
0001
0010
0001
1000
0100
,
1000
0010
0100
0001
1000
0100
1000
0001
,
0100
0010
0100
0001
0010
0001
1000
0100
,
1000
0001
0100
0010
1000
0100
0010
0100
,
1000
0001
0100
0001
1000
0010
0100
0001
,
0010
0100
0010
0001
1000
0001
0100
0010
,
1000
0100
1000
0001
0010
0001
1000
0010
,
0100
0001
1000
0001
0010
0100
1000
0100
,
0010
0001
0000
1000
0001
0100
0000
0020
,
0000
0030
0000
0000
0000
0000
0000
0000
;

//---------------dance-single - ----------------
#NOTES:
     dance-single:
     :
     Medium:
     9:
     0.653,0.700,0.184,0.691,0.105,583.000,29.000,109.000,0.000,0.000:
0000
0000
0000
0000
,
0000
0000
0000
0000
,
0000
0000
0000
0000
,
0000
0000
0000
0000
,
0000
0000
0000
0000
,
0000
0000
0000
0000
,
0000
0000
0000
0000
,
0000
0000
0000
0000
,
0000
0000
0000
0000
,
2000
3010
0200
0310
1000
0100
0010
0001
,
0000
0000
0200
0000
0000
0300
0000
0000
0001
0000
0100
0000
0010
0000
1000
0000
,
0000
0001
0010
0001
1000
0010
0100
0010
,
2000
0000
3002
0000
1003
0100
0010
0001
,
2000
3010
0200
0310
1000
0001
0020
0030
,
0000
0000
0100
0000
0020
0000
0030
0000
0001
0000
0100
0000
0020
0000
0000
0030
,
0000
1000
0100
0010
0001
0100
0010
1000
,
0002
0000
0000
0000
0003
0000
0010
0000
0100
0000
1000
0000
0002
0000
0000
0003
,
2000
3100
0020
0130
1000
0010
0100
0001
,
0000
0000
0020
0000
0000
0030
0000
0000
0001
0000
0010
0000
0100
0000
1000
0000
,
0000
0001
0100
0001
1000
0100
0010
0100
,
2000
0000
3002
0000
1003
0010
0100
0001
,
2000
3100
0020
0130
1000
0001
0200
0300
,
0000
0000
0010
0000
0200
0000
0300
0000
0001
0000
0010
0000
0200
0000
0000
0300
,
0000
1000
0010
0100
0001
0010
0100
1000
,
0002
0000
0000
0000
0003
0000
0100
0000
0010
0000
1000
0000
0002
0000
0000
0003
,
0110
0000
1001
0000
1100
0000
0001
1000
,
0000
0101
0000
0001
1000
0010
0200
0300
,
1001
0000
0110
0000
1001
0000
0001
0010
,
0000
0110
0000
1000
0100
0010
0001
1000
,
0011
0000
1001
0000
1010
0000
0010
0100
,
0000
0101
0000
0001
1000
0010
0100
0001
,
1001
0000
0110
0000
1001
0000
0001
0100
,
0000
0020
0030
0020
0030
0000
0000
0000
,
1000
0010
1000
0000
0001
0010
0001
0000
1000
0000
0010
0000
0100
0000
0002
0000
,
0000
0023
0000
0130
1000
0010
1000
0100
,
0010
0001
0010
0000
0001
1000
0001
0100
0010
0000
1000
0000
0001
0000
0010
0000
,
0002
0000
0000
2003
3002
0000
0003
0000
,
0100
0010
1000
0000
0001
0010
0001
0000
1000
0010
1000
0000
0001
0000
0010
0000
,
0000
0100
0000
1000
0010
0100
0020
0000
,
1030
0100
1000
0000
0001
1000
0001
0010
0100
0000
1000
0000
0001
0000
0100
0000
,
0020
0000
0000
0030
0000
1000
0001
0100
,
0001
0010
0200
0000
0000
1300
0001
0010
,
0001
0100
0020
0000
0030
1000
0001
0100
,
0001
0010
0200
0000
0300
2000
0000
3002
,
0203
0000
0000
0300
0000
0010
1000
0100
,
1000
0010
0200
0000
0300
0001
0010
0100
,
0010
0001
2000
0000
3000
0010
0100
0100
,
0001
1000
0001
0010
0001
0100
0010
1000
,
0100
2000
0000
0000
3002
0000
0203
0000
,
0301
0000
1000
0000
0001
0000
0100
0010
,
0000
1000
0000
0001
0010
0000
0100
0000
,
1000
0000
0001
0000
1000
0000
0001
0100
,
0000
0010
0000
1000
0001
0000
0010
0000
,
0100
0000
0010
0000
0001
0000
1000
0010
,
0000
0100
0000
0010
1000
0000
0100
0000
,
1000
0000
0001
0000
0100
0000
0010
1000
,
0000
0001
0000
0010
0100
0000
1000
0000
,
0001
0000
0000
0000
0022
0033
0000
0000
2200
3300
0000
0000
0001
0000
1000
0000
,
0000
0101
0000
0001
1000
0010
0100
0000
,
2002
3003
0000
0000
0220
0330
0000
0000
2002
3003
0000
0000
0001
0000
0010
0000
,
0000
0200
0300
1000
0100
0010
0001
1000
,
2020
3030
0000
0000
2002
3003
0000
0000
0022
0033
0000
0000
1000
0000
0010
0000
,
0000
0101
0000
0001
1000
0010
1000
0001
,
2002
3003
0000
0000
0220
0330
0000
0000
2002
3003
0000
0000
1000
0000
0010
0000
,
0000
2000
3000
0002
0003
0000
0000
0000
,
1000
0100
1000
0000
0001
0100
0001
0000
1000
0000
0100
0000
0010
0000
0002
0000
,
0000
0203
0000
0310
1000
0100
1000
0010
,
0100
0001
0100
0000
0001
1000
0001
0010
0100
0000
1000
0000
0001
0000
0100
0000
,
0002
0000
0000
2003
3002
0000
0003
0000
,
0010
0100
1000
0000
0001
0100
0001
0000
1000
0100
1000
0000
0001
0000
0100
0000
,
0000
0010
0000
1000
0100
0010
0200
0000
,
1300
0010
1000
0000
0001
1000
0001
0100
0010
0000
1000
0000
0001
0000
0010
0000
,
0200
0000
0000
0300
0000
1000
0001
0010
,
0001
0100
0020
0000
0000
1030
0001
0100
,
0001
0010
0200
0000
0300
1000
0001
0010
,
0001
0100
0020
0000
0030
2000
0000
3002
,
0023
0000
0000
0030
0000
0100
1000
0010
,
1000
0100
0020
0000
0030
0001
0100
0010
,
0100
0001
2000
0000
3000
0100
0010
0010
,
0001
1000
0001
0100
0001
0010
0100
1000
,
0010
2000
0000
0000
3002
0000
0023
0000
,
0031
0000
1001
0000
1000
0010
0100
0001
,
0000
1000
0001
0000
1000
0100
0010
0001
,
0000
1000
0010
0100
0001
0010
0100
0010
,
0002
0000
2003
0000
3001
0010
0100
1000
,
0001
0100
0010
0100
0010
1000
0001
0000
,
0000
0000
0010
0000
0200
0000
0300
0000
1000
0000
0010
0000
2000
0000
0000
3000
,
0000
0001
0010
0100
1000
0010
0100
0001
,
2000
0000
3000
0100
0010
0001
1000
0000
,
0001
0100
0001
0000
1000
0100
1000
0000
0001
0000
0100
0000
0010
0000
2000
0000
,
0000
3200
0000
0310
0001
0100
0001
0010
,
0100
1000
0100
0000
1000
0001
1000
0010
0100
0000
0001
0000
1000
0000
0100
0000
,
2000
0000
0000
3002
2003
0000
3000
0000
,
0010
0100
0001
0000
1000
0100
1000
0000
0001
0100
0001
0000
1000
0000
0100
0000
,
0000
0010
0000
0001
0100
0010
0200
0000
,
0301
0010
0001
0000
1000
0001
1000
0100
0010
0000
0001
0000
1000
0000
0010
0000
,
0200
0000
0000
0300
0000
0001
1000
0010
,
1000
0100
0020
0000
0000
0031
1000
0100
,
1000
0010
0200
0000
0300
0001
1000
0010
,
1000
0100
0020
0000
0030
0002
0000
2003
,
3020
0000
0000
0030
0000
0100
0001
0010
,
0001
0100
0020
0000
0030
1000
0100
0010
,
0100
1000
0002
0000
0003
0100
0010
0010
,
1000
0001
1000
0100
1000
0010
0100
0001
,
0010
0001
0000
1000
0001
0100
0000
0020
,
0000
0030
0000
0000
0000
0000
0000
0000
;
