#TITLE:Lawn Wake III;
#SUBTITLE:;
#ARTIST:The Flashbulb;
#TITLETRANSLIT:;
#SUBTITLETRANSLIT:;
#ARTISTTRANSLIT:;
#CREDIT:;
#BANNER:lawnwake3-bn.png;
#BACKGROUND:lawnwake3-bg.png;
#LYRICSPATH:;
#CDTITLE:cdtitle.png;
#MUSIC:Lawn Wake III - The Flashbulb.mp3;
#OFFSET:-0.010;
#SAMPLESTART:29.380;
#SAMPLELENGTH:12.000;
#SELECTABLE:YES;
#BPMS:0.000=200.000,336.000=100.000,336.500=50.000,336.625=25.000,336.688=27.400,336.688=50.000,337.000=200.000,529.000=100.000;
#STOPS:336.688=0.220
;
#BGCHANGES:;
// cache tags:
#FIRSTBEAT:0.250;
#LASTBEAT:612.000;
#SONGFILENAME:Songs/Fabulously Fresh Flock of Fantastic Files F5/(Benny1) Lawn Wake III/lawnwake3.sm;
#HASMUSIC:1;
#HASBANNER:1;
#MUSICLENGTH:209.580;
// end cache tags

//---------------dance-single - ----------------
#NOTES:
     dance-single:
     :
     Hard:
     11:
     1.000,1.000,0.797,0.291,1.000,1526.000,167.000,61.000,0.000,1.000:
0000
0000
0000
0000
0000
0000
0000
0000
0000
0000
0000
0000
1000
0000
0000
0000
0000
0000
0000
0000
0000
0000
0000
0000
0000
0000
0000
0000
0000
0000
0000
0000
0000
0000
0000
0000
0000
0000
0000
0000
0000
0000
0000
0000
0000
0000
0000
0000
0000
0000
0000
0000
0000
0000
0000
0000
0000
0000
0000
0000
0001
0000
0000
0000
0000
0000
0010
0000
0000
0000
0000
0000
0100
0000
0000
0000
1000
0000
0000
0000
0001
0000
0000
0000
0010
0000
0000
0000
0000
0000
0000
0000
0000
0000
0000
0000
0100
0000
0000
0000
0000
0000
0000
0000
0000
0000
0000
0000
0001
0000
0000
0000
0000
0000
0000
0000
0000
0000
0000
0000
0100
0000
0000
0000
0000
0000
0000
0000
0000
0000
0000
0000
0000
0000
0000
0000
0000
0000
0000
0000
0000
0000
0000
0000
0010
0000
0000
0000
0000
0000
0000
0000
0000
0000
0000
0000
0000
0000
0000
0000
0000
0000
0000
0000
0000
0000
0000
0000
0010
0000
0000
0000
0000
0000
0000
0000
0000
0000
0000
0000
0000
0000
0000
0000
0000
0000
0000
0000
0000
0000
0000
0000
,
0001
0000
0100
0010
1000
0000
0001
0000
,
0100
0000
0001
1000
0000
1000
0001
0100
,
0010
0000
0001
0010
0100
0000
0010
0000
,
1000
0000
0000
0000
0001
0000
0100
0000
0000
0000
0001
0010
0001
0010
0001
0010
,
0001
0001
0100
0010
1000
1000
0010
0100
,
0010
0000
0001
0000
0000
0000
0001
0000
0010
0000
0100
0001
0100
0000
0000
0000
,
1001
0000
0100
0010
0100
0000
0010
0000
0001
0000
0100
0000
0001
0010
0001
0010
,
0001
0000
0010
0001
0000
0001
0010
0000
0100
0010
0000
0001
0010
0100
0010
0100
,
0010
0010
0001
1000
0100
0100
1000
0001
,
0100
0000
0010
0000
0000
0000
0010
0000
0100
0000
0010
0100
1000
0000
0000
0000
,
1000
0000
0100
0010
0100
0000
0010
0000
0001
0000
0100
0000
0010
1000
0010
1000
,
0010
0000
0100
0001
0100
0000
0010
1000
0100
0000
0010
0001
0010
0100
0010
0100
,
0010
0000
0100
0000
0010
0000
1000
0001
0100
0000
0010
0100
0001
0010
0100
0000
,
0010
0000
0100
0001
0000
0001
0100
0000
0020
0000
0130
0000
1000
0000
0010
0001
,
0000
0000
0001
0000
0010
0000
0100
0000
0010
0000
0100
0000
1000
0000
0200
0000
0000
0000
0000
0000
0310
0000
1000
0000
0001
0000
0100
0010
0200
0000
0000
0000
,
1300
0001
1000
0000
0010
0100
0010
0100
0001
0010
0002
0000
0013
1000
0200
0000
,
0310
0000
0001
0010
0100
0000
0010
0100
1000
0100
0010
0100
0010
0000
0002
0000
,
0013
0100
0010
0000
1000
0100
1000
0100
0010
0001
0100
0010
1000
0000
0200
0000
,
0310
0000
0001
0010
0200
0000
0000
0000
0310
0000
0000
0000
0001
0000
0010
0000
0100
0000
0000
0000
1000
0000
0000
0000
2000
0000
0000
0000
3100
0010
0100
0000
,
0010
0000
0010
0000
1000
0100
0010
1000
0100
0010
1000
0100
0020
0000
0030
0000
,
0100
0000
0000
0100
0000
0000
0010
0000
0000
1000
0000
0000
0101
0010
0001
0100
0000
0010
1100
0000
0000
0001
0010
0100
,
1000
0000
0100
0010
0001
0000
0100
0010
1000
0000
0100
0000
0010
0000
0100
0000
,
0011
0000
0010
0100
1000
0100
0010
0000
0100
0000
0010
0001
0100
0001
0010
0001
,
0100
0000
0010
0100
1000
0000
0012
0000
0100
0000
0010
0000
0100
0000
1000
0000
,
0103
0000
0010
0000
1000
0000
0100
0010
0100
0001
0010
1000
0100
0000
0010
0100
,
1000
0000
0100
0010
0001
0000
0010
0100
1000
0010
0100
1000
0010
0000
0010
0000
,
0010
0000
0010
0000
0100
0000
0100
0000
0010
0001
0010
0001
0100
0000
0010
0000
,
1000
0100
0010
0000
0100
0000
0100
1000
0010
0000
0100
0010
0002
0000
0023
0100
,
1030
0000
0000
0000
0100
0000
0000
0000
0010
0000
0000
0000
0001
0000
0100
0000
0010
0000
0100
0000
1000
0000
0001
0000
0010
0000
0000
0000
0100
0001
0100
0001
,
0100
0000
0010
0100
1000
0000
0100
0010
0000
0001
0010
0000
0100
0000
0020
0000
,
0130
0000
0000
0000
0100
0000
0000
0000
1000
0000
0000
0000
0100
0000
0000
0000
0010
0100
0010
0000
1000
0001
1000
0000
0100
0000
0000
0000
0010
0000
0100
0000
,
0001
0000
1000
0000
0100
0000
0000
0000
0010
0000
0000
0000
0100
0001
0100
0000
0010
0000
0000
0000
0100
0000
0001
0000
1010
0000
0000
0000
0100
0000
0000
0000
,
0010
0000
0000
0000
1000
0000
0000
0000
0100
0000
0000
0000
0001
0100
0001
0000
0010
1000
0010
0000
0200
0000
0000
0000
0301
0000
0000
0000
0010
0000
0100
0000
,
0010
0000
1000
0001
1000
0000
0100
0010
0000
0100
0010
0000
1001
0000
1000
0000
,
1000
0000
1000
0000
0100
0000
0100
0000
1000
0001
1000
0001
0100
0000
0010
0000
,
1000
0100
0010
1000
0100
0000
0100
0001
0100
0000
0010
1000
0010
0000
0100
0001
,
0020
0000
0031
0010
0010
0000
0100
0000
,
0001
0000
0010
0100
0000
0100
0010
1000
,
0001
0000
0010
0100
0001
0000
1000
0000
,
0001
0000
0100
0010
0000
0010
0100
1000
,
0100
0000
0000
0001
0010
0000
0100
0010
0100
0001
1000
0010
0100
0000
0010
0100
,
1000
0100
1001
0100
0000
0011
1000
0100
,
0010
0000
1001
0100
0010
0000
0110
0000
,
0100
0000
0011
0100
0000
0011
0100
0010
,
1000
0000
1001
0100
1010
0000
1001
0000
,
0101
0000
0101
0010
0100
0010
0101
1000
,
0110
0000
1010
0001
1010
0000
0110
0000
,
0101
0000
1001
0100
0001
0100
1001
0010
,
1100
0000
0101
0010
1100
0000
0101
0000
,
1010
0000
0100
0101
0000
1000
0011
0100
,
1010
0000
0101
1000
0110
0000
1001
0000
,
1001
0000
0101
0010
0000
0010
0101
1000
,
0011
0100
1000
0000
0101
0000
0010
0000
0001
0000
0010
0000
0101
0000
1000
0000
,
0110
0000
1000
0000
0011
0000
0100
0001
1010
0000
0100
0000
0011
0000
0100
0000
,
1010
0001
0110
0001
1010
0000
0001
0010
1100
0000
0010
0000
1001
0000
0100
0000
,
1001
0100
1010
0000
1001
0010
1100
0010
1001
0100
0010
0000
1001
0000
0100
0000
,
1010
0000
0100
0000
1001
0000
0010
0100
1001
0000
0010
0000
1100
0000
0001
0000
,
1100
0000
0010
0000
0101
0000
0010
0001
0100
0000
1001
0000
1100
0000
0100
0000
,
1010
0000
0100
0000
1001
0000
0001
0010
1100
0000
0001
0000
0110
0000
0001
0000
,
0010
0100
1000
0001
0100
0010
0100
1000
,
0101
0000
0010
0000
1100
0000
0001
0100
0010
0000
0100
0000
0001
0000
0100
0000
,
1001
0000
0100
0000
0101
0000
0010
0100
1000
0000
0101
0000
0010
0000
0101
0000
,
1001
0000
0100
0000
1001
0000
0100
0010
0100
0000
1001
0000
0100
0000
1001
0000
,
0110
0000
0100
0000
1001
0000
0110
0000
1001
0100
1001
0000
0010
0000
1001
0000
,
0110
0000
0100
0000
1001
0000
0100
0010
0100
0000
1001
0000
0100
0000
1001
0000
,
0110
0000
1000
0000
0101
0000
0010
0100
0001
0000
1001
0000
0110
0000
1001
0000
,
0110
0000
1000
0000
0011
0000
0100
0010
1000
0000
0101
0000
1000
0000
0101
0000
,
1001
0000
0100
0000
1001
0000
0100
0010
0100
0000
0010
0100
0010
0000
0100
0000
,
1001
0000
0000
0000
0000
0000
0100
0000
0000
0010
0000
0000
1000
0000
0000
0000
0000
0000
0100
0000
0000
0000
0000
0000
0010
0000
0000
0000
0000
0000
1000
0000
0000
0000
0000
0000
0110
0000
0000
0000
0000
0000
0001
0000
0010
0000
0100
0000
,
1000
0000
0100
0010
1000
0000
0100
0001
0100
0000
1010
0000
0101
0000
1010
0000
,
0110
0000
0000
0000
1000
0000
0001
0000
0100
0010
0100
0000
0001
0000
1000
0000
0100
0000
0000
0000
0100
0000
0000
0000
0100
0000
0010
0000
0100
0000
0010
0000
,
0100
0000
0000
0000
1000
0100
1000
0000
0010
0000
0001
0100
0001
0000
0000
0000
0020
0000
0030
0000
0000
0000
0100
0000
0010
0000
0100
0000
1000
0000
0100
0000
,
0011
0000
0100
0000
0011
0000
0100
1000
0011
0000
1100
0000
0011
0000
1100
0000
,
0011
0000
0110
0000
1001
0000
0100
0010
1001
0000
0110
0000
1001
0000
0100
0000
,
0011
0000
0100
0001
2010
0000
3100
0000
0011
0000
0100
0000
0011
1000
0110
0001
,
1010
0000
0100
0010
1001
0000
0010
0100
1001
0000
0100
0010
0100
0001
0010
0100
,
1000
1000
1000
1000
,
0100
0100
0100
0100
,
0010
0010
0010
0010
,
0001
0001
0001
0001
,
0100
0100
0100
0100
,
0000
0000
0000
0010
,
1000
0100
0010
0001
,
0200
0000
0000
0000
0000
0000
0000
0000
0000
0000
0000
0300
0000
0000
0000
0000
1001
0000
0000
0000
0000
0000
0000
0000
0100
0000
0000
0000
0000
0000
0000
0000
0010
0000
0000
0000
0000
0000
0000
0000
0100
0000
0000
0000
0000
0000
0000
0000
0001
0000
0000
0000
0010
0000
0000
0000
0001
0000
0000
0000
0000
0000
0000
0000
,
0100
0000
0010
0000
0001
0000
0100
0000
0010
0000
0001
0000
0010
0100
1000
0000
,
0100
0000
0010
0000
0100
0000
1000
0000
0001
0000
0100
0000
0010
1000
0100
0000
,
0001
0000
0100
0000
0010
1000
0010
1000
0010
0000
0100
0000
0000
0010
0001
0100
,
0020
0000
0000
0000
0130
0000
0001
0000
1000
0000
0100
0000
0010
0100
0010
0000
,
1000
0000
0100
0000
0010
0000
0100
0000
0001
0000
1000
0000
0100
0010
0100
0000
,
0001
0000
1000
0000
0010
0000
0100
0000
0001
0000
1000
0000
0100
0010
0100
0000
,
1000
0000
0000
0000
0001
0000
0000
0000
0100
0000
0010
0000
0100
0000
0010
0000
0100
0000
0000
0000
0001
0000
0000
0000
0000
0000
2000
0000
3100
0000
0000
0010
,
0001
0000
0000
0010
0100
0000
0000
1000
0100
0000
0000
0000
0010
0000
0000
0000
1000
0000
0000
0000
0010
0000
0100
0000
1000
0000
0001
0000
0100
0000
0010
0000
,
1100
0000
1100
0000
0100
0001
0100
0000
0101
0000
0101
0000
0100
0010
1000
0001
,
0110
0000
0000
0000
1000
0000
0001
0000
0110
0000
1000
0100
0020
0000
0000
0000
0031
0000
0000
0000
0100
0000
0010
0000
0001
1000
0001
0000
0100
0010
0100
0000
,
0001
0000
0000
0000
1000
0000
0100
0000
0010
0000
0100
0000
1001
0000
0000
0000
0000
0000
0100
0000
0000
0010
0000
0000
1100
0000
0000
0000
0000
0000
0020
0000
0000
0031
0000
0000
0000
0000
0000
0002
0000
0000
0103
0000
0000
0000
0000
0000
,
0002
0000
2003
0000
3100
0000
0010
0000
1000
0000
0100
0010
0001
1000
0100
0010
,
1100
0000
1100
0000
0010
0100
0010
1000
0101
0000
0010
0101
0000
0010
0101
0000
,
0001
0010
0100
1000
0100
0000
0100
0000
0001
0000
0001
0000
0010
0100
0010
0001
,
1000
0000
0100
0000
0100
0010
0001
1000
0001
0000
0100
0010
1000
0001
0100
0010
,
0002
0000
0023
0000
0031
0000
0100
0000
0010
0000
1000
0001
0100
0010
0100
1000
,
0001
0000
0000
0000
0100
0010
0100
0010
0100
0000
0000
0000
1000
0000
0001
0000
0100
0000
0000
0000
0100
0000
0010
0000
0001
0000
0100
0000
0010
0000
0000
0000
,
2000
0000
0000
0000
3200
0000
0000
0000
0301
0000
0000
0000
0010
0100
0010
0000
1000
0000
0000
0000
0100
0000
0010
0000
0001
0100
0001
0000
0001
0100
0001
0000
,
1000
0000
0000
0000
0100
0000
0000
0000
1000
0000
0100
0000
0010
0000
1000
0000
0100
0000
0000
0000
0001
0010
0001
0000
1000
0000
0100
0000
0010
0000
0001
0000
,
0200
0000
0000
0000
0310
0000
0010
0000
1000
0000
0000
0000
1000
0000
0000
0000
0101
0000
0000
0000
0010
0100
0010
0000
0001
1000
0001
0000
1000
0100
0010
0001
,
0100
0000
0020
0000
1030
0000
1000
0000
0100
0000
1000
0010
0001
1000
0010
0000
,
0100
0000
0010
0100
0010
0000
0010
0000
0001
0000
0001
0000
1000
0001
0100
0010
,
1000
0000
0002
0000
0013
0100
1000
0010
0100
0000
0001
0010
0100
0010
0100
0010
,
0002
0000
0000
0000
0000
0000
0203
0000
0000
0000
0010
0000
0301
0000
0000
0000
0000
0000
0001
0000
0000
0000
0000
0000
0010
0000
0000
0000
0000
0000
0100
0000
0000
0010
0000
0000
1000
0000
0000
0001
0000
0000
0100
0000
0000
0010
0000
0000
,
1000
0000
0100
0010
1000
0001
1000
0001
1100
0000
1100
0000
0001
0010
0001
0010
,
0200
0320
2030
0000
3100
0000
0001
0010
0001
0000
1000
0100
0010
1000
0100
0000
,
0001
0000
0010
0000
0100
0010
0100
0000
0002
0000
0010
0000
0103
0000
0002
0000
0010
0000
0103
0000
0002
0000
0010
0000
0103
0000
0002
0000
0010
0000
0103
0000
,
1000
0000
0002
0000
1003
0000
0010
0000
1100
0000
0010
1000
0001
0100
0010
0100
,
2000
0000
3100
0000
0001
0010
0100
1000
0100
0010
0001
1000
0100
1000
0001
0010
,
0100
1000
0001
0010
0100
0000
0010
1000
0001
0000
0100
0000
0010
0100
0001
0010
,
0100
0000
0000
0000
0010
0000
0000
0000
1000
0000
0100
0000
0010
0000
0001
0000
0010
0100
1000
0001
0010
0100
1000
0001
0020
0000
0000
0000
0230
0000
0000
0000
,
2300
0000
3002
0000
0013
0000
0010
0000
0100
0000
0001
1000
0010
0100
0010
0001
,
1000
0000
0100
0010
1000
0000
0100
0001
0010
0000
0100
1001
0000
0100
1001
0000
,
0101
0000
0101
0000
1000
0000
1000
0000
0101
0000
0101
0000
0010
1000
0010
1000
,
0110
0000
0001
0000
1000
0100
0010
1000
0100
0000
0001
0010
0100
0010
0100
0010
,
2000
0000
3001
0001
0100
0000
0010
0000
0010
0000
1000
0001
0100
0010
0100
1000
,
0001
0000
0000
0000
0010
0100
0010
0100
0010
0000
0000
0000
0001
0000
1000
0000
0010
0000
0000
0000
0010
0000
0100
0000
1000
0000
0010
0000
0100
0000
0000
0000
,
0002
0000
0000
0000
0023
0000
0000
0000
1030
0000
0000
0000
0100
0010
0100
0000
0001
0000
0000
0000
0010
0000
0100
0000
1000
0010
1000
0000
1000
0010
1000
0000
,
0001
0000
0000
0000
0010
0000
0000
0000
0001
0000
0010
0000
0100
0000
0001
0000
0010
0000
0000
0000
1000
0100
1000
0000
0001
0000
0010
0000
0100
0000
1000
0000
,
0020
0000
0000
0000
0130
0000
0100
0000
0001
0000
0000
0000
0001
0000
0000
0000
1010
0000
0000
0000
0100
0010
0100
0000
1000
0001
1000
0000
0001
0010
0100
1000
,
0010
0000
0200
0000
0301
0000
0001
0000
0010
0000
0001
0100
1000
0001
0100
0000
,
0010
0000
0100
0010
0100
0000
0100
0000
1000
0000
1000
0000
0001
1000
0010
0100
,
0001
0000
2000
0000
3100
0010
0001
0100
0010
0000
1000
0100
0010
0100
0010
0100
,
2000
0000
0000
0000
0000
0000
3020
0000
0000
0000
0100
0000
1030
0000
0000
0000
0000
0000
1000
0000
0000
0000
0000
0000
0100
0000
0000
0000
0000
0000
0010
0000
0000
0100
0000
0000
0001
0000
0000
1000
0000
0000
0010
0000
0000
0100
0000
0000
,
0001
0000
0010
0100
0001
1000
0001
1000
0011
0000
0011
0000
1000
0100
1000
0100
,
0010
0000
0000
0000
0001
0000
0001
0000
0100
0000
0010
0100
0020
0000
0000
0000
0031
0000
0010
0000
0100
0000
1000
0000
0001
0100
0001
0000
0001
0100
0001
0000
,
1010
0000
0000
0000
0100
0010
0100
0000
0001
0000
0000
0000
0010
0000
0000
0000
0010
0000
0000
0000
0002
0000
0013
0000
0000
0000
0002
0000
0013
0000
0000
0000
,
2000
0000
3101
0100
1100
0100
0001
0001
,
1001
0000
0000
0000
0001
0000
0000
0000
0110
0000
1000
0000
0010
0000
0100
0000
1010
0000
0100
0000
1010
0000
0100
0000
1001
0010
0100
0010
0001
0000
0000
0000
,
0001
0000
0000
0010
0101
0000
0000
0000
1010
0000
0000
0000
0010
0000
0000
0000
0010
0000
0000
0000
0010
0000
0000
0000
0010
0000
0000
0000
0000
0000
0000
0000
,
1000
0000
0000
0000
0100
0000
0000
0000
0010
0000
0001
0000
0100
0000
0010
0000
1000
0000
0100
0000
0001
0000
0100
0000
0010
0100
1000
0100
0010
0000
0000
0000
,
0100
0000
0010
0001
0100
0000
0000
0000
1000
0000
0000
0000
1000
0000
0000
0000
1000
0000
0000
0000
1000
0000
0001
0000
0100
0000
1000
0000
0100
0000
0010
0000
,
0100
0000
0100
0000
0010
1000
0010
0100
0010
0100
0010
0000
0001
0000
0001
0000
,
0001
0100
0001
0000
0010
0000
0010
0000
0010
0000
0010
0000
0010
0000
0000
0000
,
0000
0010
0001
0100
0010
0001
0100
0000
1000
0000
0001
0000
0010
0000
0000
0000
,
0001
0000
0010
0000
0100
0000
0010
0000
0001
0000
0010
0000
0001
0000
0100
0000
0001
0000
0010
0000
0001
0000
0100
0000
1010
0000
0000
1000
0010
0000
1000
0000
,
0010
1000
0000
0000
0010
0000
0000
0000
1100
0000
0000
0000
0100
0000
0000
0000
0100
0000
0000
0000
0100
0000
0000
0000
0001
0000
0000
0000
0001
0000
0000
0000
,
0001
0001
0100
0100
0100
0100
0100
0000
,
0000
0001
0010
0100
1000
0001
0010
0000
,
0000
0000
0001
0001
0001
0001
0010
0010
,
0010
0010
0100
0100
0100
0100
1000
1000
,
1000
1000
0001
0001
0001
0001
0001
0000
,
0000
1000
0100
0010
0001
1000
0100
0000
,
0000
0000
0001
0001
0001
0001
0010
0010
,
0010
0010
0100
0100
0100
0100
1000
1000
,
1000
1000
0100
0100
0100
0100
0100
0000
,
0000
0010
0100
1000
0001
0010
0200
0000
,
0000
0000
0000
0000
,
0300
0000
0000
0000
;
