#TITLE:Will My Heart Survive;
#SUBTITLE:;
#ARTIST:Nightcore;
#TITLETRANSLIT:;
#SUBTITLETRANSLIT:;
#ARTISTTRANSLIT:;
#CREDIT:;
#BANNER:;
#BACKGROUND:;
#LYRICSPATH:;
#CDTITLE:;
#MUSIC:Will My Heart Survive.ogg;
#OFFSET:-0.273;
#SAMPLESTART:71.343;
#SAMPLELENGTH:22.000;
#SELECTABLE:YES;
#DISPLAYBPM:44.000:174.000;
#BPMS:0.000=174.200,104.000=87.100,128.000=174.200,456.000=87.100,468.000=174.200;
#STOPS:;
#BGCHANGES:;
// cache tags:
#FIRSTBEAT:4.000;
#LASTBEAT:528.000;
#SONGFILENAME:Songs/My Creations/Will My Heart Survive/sm.sm;
#HASMUSIC:1;
#HASBANNER:0;
#MUSICLENGTH:198.781;
// end cache tags

//---------------dance-single - Aoreo----------------
#NOTES:
     dance-single:
     Aoreo:
     Challenge:
     13:
     1.000,1.000,0.362,0.433,1.000,1415.000,72.000,86.000,18.000,0.000:
0000
0000
0000
0000
,
1001
0000
0001
0000
,
2000
0000
3020
0000
0000
0000
0130
0001
,
0000
0000
0000
1000
,
1010
0001
0101
0100
,
0110
0000
0010
1000
0000
0000
0000
0000
,
0001
0000
0000
0000
0000
0000
0000
0100
,
0010
0000
1000
0100
0000
0000
1000
0000
,
1001
0001
0100
0001
,
0020
0000
0030
0010
0001
0000
0001
0000
0002
0000
0003
0010
0001
0000
0001
0000
,
0200
0000
0300
0010
0100
0000
0100
0000
0020
0000
0030
0000
0020
0000
0030
0000
,
0200
0000
0300
0100
0010
0000
0010
0000
0020
0000
0030
0100
0010
0000
0010
0000
,
2000
0000
3000
0100
1000
0000
1000
0000
0002
0000
0003
0000
0100
0000
0001
0000
,
2000
0000
3000
0010
0100
0000
0100
0000
0020
0000
0030
1000
0100
0000
0100
0000
,
1000
0001
1000
0001
1000
0100
0010
0001
1000
0100
1000
0010
0100
0001
1000
0001
,
1000
0001
1000
0001
0010
0100
1000
0100
0010
0001
0100
0001
1000
0010
0100
0001
1000
0100
1000
0100
0010
0001
1000
0100
,
0010
0000
0000
0001
1000
0000
0001
0000
2MM2
0000
0000
0000
0MM0
0000
3003
0000
,
1MM1
0000
0000
0000
1001
0000
0000
0000
0010
0100
0010
0000
0110
0000
1001
0000
,
0001
0100
0001
0000
1000
0100
1000
0000
0001
0010
0001
0000
1000
0010
1000
0000
,
0010
0100
0010
0000
1000
0001
1000
0000
0100
0010
0100
0000
1000
0001
1000
0000
,
0001
0100
0010
0000
1000
0100
0010
0000
0100
1000
0010
0000
0100
0001
1000
0000
,
0001
0010
0100
1000
0001
0010
0100
1000
0010
0100
0010
0000
0110
0000
1001
0000
,
0001
0100
0001
1000
0010
0100
0010
1000
0001
0010
0100
0010
0001
1000
0100
1000
,
0001
0010
0100
1000
0001
0100
0010
0100
0001
1000
0010
1000
0001
0100
0010
0100
,
0001
1000
0100
1000
0001
0010
0100
1000
0100
0010
0001
1000
0010
1000
0001
0100
,
0001
0100
0001
0100
0010
1000
0100
0010
0001
0010
0100
1000
0010
0100
0001
1000
0001
1000
0100
1000
0010
0100
0001
1000
,
0002
2003
3020
0230
0302
1003
0010
0100
,
0002
1003
0010
0100
0001
1000
0100
0010
,
0001
0000
1001
0001
0101
0000
0101
0100
,
0110
0010
1000
0100
1100
1000
0001
0010
,
0011
0001
0010
0100
0110
0010
0100
1000
,
1001
0001
1000
0010
1010
0001
0101
1000
,
1MM1
0001
0100
0001
0010
0100
1000
0010
,
1000
0100
0010
0001
0100
0010
1000
0100
,
1000
0010
0100
0001
0010
0100
1000
0100
,
1000
0010
0100
0001
1000
0010
0100
0001
,
1000
0001
0100
0001
1000
0001
1000
0001
,
0100
0010
0100
0001
1000
0100
0010
0001
,
0010
0100
1000
0010
1000
0010
0100
0001
,
0010
0000
0100
0000
1000
0000
0001
0000
1000
0100
0010
0000
0011
0000
0101
0000
,
0100
0001
0100
0001
1000
0000
0010
0000
0100
0010
0100
0010
1000
0000
0001
0000
,
1000
0100
0010
0001
1000
0000
0010
0000
0100
0010
0100
0001
1000
0000
0001
0000
,
1000
0100
1000
0010
0100
0000
0001
0000
0100
0001
0010
0100
1000
0000
0100
0000
,
1000
0010
0100
0001
1000
0000
0010
0000
0100
0010
0100
0010
1000
0000
0001
0000
,
1000
0100
0010
0001
1000
0001
1000
0010
0100
0001
1000
0100
0010
0001
0010
0100
,
1000
0010
0100
0001
0100
0001
1000
0100
1000
0100
0010
0100
1000
0010
0100
0001
,
1000
0010
0100
0010
1000
0100
0010
0001
0010
0100
1000
0010
1000
0001
1000
0001
,
1000
0001
1000
0001
0100
0010
1000
0001
0100
0010
1000
0010
1000
0100
0010
0001
1000
0100
1000
0010
0100
0001
1000
0001
,
1000
0000
0001
0100
0020
0000
1000
0000
1030
0000
0010
1000
0200
0000
0010
0000
,
0310
0000
0100
1000
0002
0000
1003
0000
2002
0000
3003
0000
0202
0000
0303
0000
,
1010
0000
0010
0100
0002
0000
1000
0000
1003
0000
0010
1000
0200
0000
0010
0000
,
0310
0000
0100
1000
0002
0000
0100
0000
0203
0000
0000
0000
0301
0000
1000
0000
,
1100
0000
0100
0010
0002
0000
0010
0000
0013
0000
0100
1000
0002
0000
1000
0000
,
1003
0000
0010
1000
0100
0000
1000
0000
1100
0000
0001
0000
0101
0000
1000
0000
,
1001
0000
1000
0010
0200
0000
0010
0000
0310
0000
1000
0001
0200
0000
0001
0000
,
0301
0000
0010
0100
2000
0000
0010
0000
3010
0100
0010
0000
0110
0000
1001
0000
,
1000
0100
1000
0001
0100
0010
0100
0001
1000
0100
0010
0001
0010
0100
1000
0001
,
0100
0001
1000
0010
0100
0010
1000
0001
0010
0100
0010
0100
1000
0001
0100
0010
,
0100
0001
1000
0010
1000
0010
0100
0001
0100
0010
1000
0001
0010
0001
1000
0100
,
0010
0001
0010
0100
1000
0001
0100
0001
1000
0001
0100
0010
1000
0001
1000
0010
,
1000
0001
0010
0001
1000
0100
0010
0100
1000
0001
0010
0001
1000
0100
1000
0001
,
0100
0001
1000
0010
0100
0010
1000
0001
0100
0001
1000
0010
0100
0010
0100
0001
,
1000
0100
0010
0100
1000
0001
0010
0100
1000
0100
0010
0001
1000
0001
0100
0010
,
1000
0001
1000
0001
1000
0001
1000
0001
0100
0010
0100
0000
0110
0000
1001
0000
,
0001
0100
0010
1000
0001
0010
0100
1000
,
0010
0010
0100
0100
0010
0010
0100
0100
,
0001
1000
0100
1000
0001
0100
0001
1000
,
0010
1000
0100
001M
0M01
1000
0M10
010M
,
0001
1000
0100
0010
0100
1000
0001
0100
,
0001
1000
0010
0100
0001
0010
0100
0010
,
0001
1000
0010
1000
0001
0100
0010
1000
,
0100
0010
0001
1000
0010
1000
0001
0100
,
0010
0100
0001
1000
0100
0010
0100
1000
,
0001
0000
1000
0000
0010
0000
1000
0000
0010
0100
0010
0000
0110
0000
1001
0000
,
1000
0100
0010
0100
0010
0001
0010
0001
,
0100
0001
1000
0M10
M100
0010
100M
0M01
,
1000
0100
0010
0001
0010
0100
1000
0001
,
1000
0001
0100
0010
1000
0001
0100
0010
,
1000
0001
1000
0001
1000
0100
0010
0001
,
0010
0100
1000
0010
0100
0001
1000
0010
,
0100
0001
1000
0100
0010
0100
0001
0100
,
1000
0000
0010
0000
1000
0000
0001
0000
0100
0010
0100
0000
0110
0000
1001
0000
,
0001
0100
0001
0100
0001
0010
0100
0000
1000
0001
1000
0001
0010
0100
1000
0000
,
0001
1000
0001
1000
0010
0100
0001
0000
1000
0001
1000
0001
0100
0010
1000
0000
,
0010
0100
0010
0100
0001
1000
0010
0000
1000
0001
1000
0001
0010
0100
1000
0000
,
0100
0010
0100
0010
0001
1000
0010
0000
1000
0100
0010
0001
0010
0100
1000
0001
,
1000
0001
0100
0001
1000
0010
1000
0010
0100
0001
1000
0100
1000
0001
0010
0100
,
0010
0001
1000
0010
1000
0010
0100
0001
1000
0001
0010
0100
1000
0100
0010
0001
,
1000
0001
0100
0001
1000
0010
0100
0010
1000
0001
0100
0001
1000
0100
0010
0100
,
1000
0001
1000
0001
0100
0010
1000
0010
0100
0001
0010
0100
1000
0100
1000
0010
0100
0001
1000
0001
0100
0010
1000
0001
,
1000
0000
0001
0100
0001
0000
1000
0000
0001
0000
0100
0001
0020
0000
0100
0000
,
0130
0000
0010
0001
2000
0000
3001
0000
2002
0000
3003
0000
2020
0000
3030
0000
,
0101
0000
0100
0010
2000
0000
0001
0000
3001
0000
0100
0001
0020
0000
0100
0000
,
0130
0000
0010
0001
2000
0000
0010
0000
3020
0000
0000
0000
1030
0000
0001
0000
,
0011
0000
0010
0100
2000
0000
0100
0000
3100
0000
0010
0001
2000
0000
0001
0000
,
3001
0000
0100
0001
0010
0000
0001
0000
0011
0000
1000
0000
1010
0000
0001
0000
,
1001
0000
0001
0100
0020
0000
0100
0000
0130
0000
0001
1000
0020
0000
1000
0000
,
1030
0000
0100
0010
0002
0000
0100
0000
0103
0010
0100
0000
0110
0000
1001
0000
,
1001
0000
0001
0100
0020
0000
1000
0000
1030
0000
0010
1000
0200
0000
0010
0000
,
0310
0000
0100
1000
0002
0000
1003
0000
2002
0000
3003
0000
0202
0000
0303
0000
,
1010
0000
0010
0100
0002
0000
1000
0000
1003
0000
0010
1000
0200
0000
0010
0000
,
0310
0000
0100
1000
0002
0000
0100
0000
0203
0000
0000
0000
0301
0000
1000
0000
,
1100
0000
0100
0010
0002
0000
0010
0000
0013
0000
0100
1000
0002
0000
1000
0000
,
1003
0000
0010
1000
0100
0000
1000
0000
1100
0000
0001
0000
0101
0000
1000
0000
,
0001
1000
0001
0010
0100
1000
0010
0100
0010
1000
0001
0100
0001
1000
0100
1000
,
0001
1000
0001
1000
0100
0010
0001
1000
0100
1000
0010
0100
0001
0100
0010
1000
0010
1000
0100
0010
0001
1000
0001
1000
,
0001
1000
0001
0000
1000
0010
1000
0000
0001
0100
0001
0010
0100
1000
0100
0000
,
1000
0100
1000
0000
0001
1000
0001
0000
0010
0100
0010
0000
0001
1000
0001
0000
,
1000
0010
0100
0000
0001
0010
0100
0000
0010
0001
0100
0000
0010
1000
0001
0000
,
1000
0100
0010
0001
1000
0100
0010
0001
0100
0010
0100
0000
0110
0000
1001
0000
,
1000
0010
1000
0001
0100
0010
0100
0001
1000
0100
0010
0100
1000
0001
0010
0001
,
1000
0100
0010
0001
1000
0010
0100
0010
1000
0001
0100
0001
1000
0010
0100
0010
,
1000
0001
0010
0001
1000
0100
0010
0001
0010
0100
1000
0001
0100
0001
1000
0010
,
1000
0100
1000
0001
1000
0001
0010
0100
1000
0100
1000
0010
0100
0001
1000
0010
0100
0001
1000
0001
0010
0100
1000
0001
,
2000
0000
0000
0000
3020
0000
0000
0000
0130
0000
0002
0000
0000
0000
1000
2000
,
0000
0000
3003
0001
0010
0100
0001
0100
,
1000
0000
0001
0002
0000
0000
0000
0000
0203
0000
0000
0000
0300
0000
0000
0000
,
0110
0000
1001
0000
,
0110
0000
0000
0000
1001
0000
0000
0000
0010
0100
0010
0000
0110
0000
1001
0000
,
1001
0000
0001
0100
0020
0000
1000
0000
1030
0000
0010
1000
0200
0000
0010
0000
,
0310
0000
0100
1000
0002
0000
1003
0000
2002
0000
3003
0000
0202
0000
0303
0000
,
1010
0000
0010
0100
0002
0000
1000
0000
1003
0000
0010
1000
0200
0000
0010
0000
,
0310
0000
0100
1000
0002
0000
0100
0000
0203
0000
0000
0000
0301
0000
1000
0000
,
1100
0000
0100
0010
0002
0000
0010
0000
0013
0000
0100
1000
0002
0000
1000
0000
,
1003
0000
0010
1000
0100
0000
1000
0000
1100
0000
0001
0000
0101
0000
1000
0000
,
1001
0000
1000
0010
0200
0000
0010
0000
0310
0000
1000
0001
1000
0000
0001
0000
,
1000
0001
1000
0100
0010
0001
0010
0100
1000
0100
1000
0010
0100
0001
1000
0001
1000
0010
0100
0001
1000
0001
1000
0010
,
1000
0010
1000
0001
0100
0010
0100
0001
1000
0100
0010
0100
1000
0001
0010
0001
,
1000
0100
0010
0001
1000
0010
0100
0010
1000
0001
0100
0001
1000
0010
0100
0010
,
1000
0001
0010
0001
1000
0100
0010
0001
0010
0100
1000
0001
0100
0001
1000
0010
,
1000
0100
1000
0100
0010
0001
1000
0100
0010
0001
0100
0010
1000
0001
0100
0010
1000
0100
1000
0001
0100
0001
0100
0010
,
2000
0000
0000
0000
,
3M1M
0000
0000
0000
;
