#TITLE:Fields of Dispair;
#SUBTITLE:;
#ARTIST:Dragonforce;
#TITLETRANSLIT:;
#SUBTITLETRANSLIT:;
#ARTISTTRANSLIT:;
#CREDIT:;
#BANNER:FoD-Banner.jpg;
#BACKGROUND:FoD-BG.jpg;
#LYRICSPATH:;
#CDTITLE:cdtitle.jpg;
#MUSIC:Fields of Dispair.mp3;
#OFFSET:-0.295;
#SAMPLESTART:56.769;
#SAMPLELENGTH:12.000;
#SELECTABLE:YES;
#BPMS:0.000=200.000;
#STOPS:;
#BGCHANGES:;
// cache tags:
#FIRSTBEAT:16.000;
#LASTBEAT:842.000;
#SONGFILENAME:Songs/Community Keyboard Megapack - Volume 3/(DanTheMan650) Fields of Dispair/Fields of Dispair.sm;
#HASMUSIC:1;
#HASBANNER:1;
#MUSICLENGTH:257.208;
// end cache tags

//---------------dance-single - Copied from----------------
#NOTES:
     dance-single:
     Copied from:
     Hard:
     13:
     1.000,1.000,0.883,0.288,1.000,2208.000,227.000,74.000,0.000,0.000:
0000
0000
0000
0000
,
0000
0000
0000
0000
,
0000
0000
0000
0000
,
0000
0000
0000
0000
,
1000
0000
0100
0000
0010
0001
0010
0000
0100
0000
1000
0000
0001
1000
0001
0000
,
0010
0000
1000
0000
0100
0010
0100
0000
2002
0000
0000
3003
0010
0000
0100
0000
,
0010
0000
0100
0000
0001
0010
0001
0000
0100
0000
0010
0000
0010
1000
0010
0000
,
1000
0100
1000
0100
0010
0001
0010
0001
0100
0010
1000
0001
0010
0100
1000
0001
,
1000
1000
1010
0101
0010
1001
0110
1000
,
0010
0010
0101
1010
0100
0011
1100
0010
,
0010
0010
1001
0110
0001
0110
1001
0100
,
0100
0100
1001
0101
0010
0101
1001
0010
,
1100
0000
0010
0000
0001
1000
0001
0000
0101
0000
0010
0000
1000
0010
1000
0000
,
0110
0000
0001
0000
0010
0100
0010
0000
0110
0000
1000
0000
0100
0010
0100
0000
,
0001
1000
0100
0010
0100
0010
0001
0100
0010
0100
0001
0100
0010
1000
0100
0010
,
1001
0000
0100
0010
0100
0000
0010
0100
0010
0000
0010
0000
1001
0000
0000
0000
,
1000
0100
1000
0100
1000
0100
1000
0100
0010
0001
0010
0001
0010
0001
0010
0001
,
0010
0100
0010
0100
0010
0100
0010
0100
1000
0010
1000
0010
1000
0010
1000
0010
,
0100
0001
0100
0001
0100
0001
0100
0001
0010
0001
0010
0001
0010
0001
0010
0001
,
0010
0100
1000
0001
0100
0001
0010
0100
1000
0001
0100
0001
0010
0001
1000
0001
,
1000
0001
1000
0001
1000
0001
1000
0001
0100
0010
0100
0010
0100
0010
0100
0010
,
1000
0100
1000
0100
1000
0100
1000
0100
0010
0001
0010
0001
0010
0001
0010
0001
,
1000
0010
1000
0010
1000
0010
1000
0010
0100
0010
0100
0010
0100
0010
0100
0010
,
1000
0100
0010
0001
0010
0100
0010
0001
1000
0010
0100
0001
1000
0010
0100
0001
,
0100
0000
1100
0000
0010
0001
0010
0000
0001
0000
1010
0000
0100
1000
0100
0000
,
0001
0000
0110
0000
0001
1000
0001
0000
0010
0000
1100
0000
0010
1000
0010
0000
,
0100
0000
1010
0000
0100
0001
0100
0000
0010
0000
0101
0000
0010
1000
0010
0000
,
0001
0100
0010
1000
0001
0100
0010
1000
0001
0010
0100
1000
0001
0100
0010
1000
,
0001
0000
0110
0000
1000
0001
1000
0000
0010
0000
0101
0000
0010
1000
0010
0000
,
0100
0000
1010
0000
0100
0001
0100
0000
0010
0000
1001
0000
0010
1000
0010
0000
,
0100
0000
1001
0000
0010
0001
0010
0000
0100
0000
1010
0000
0100
0010
0001
0000
,
1000
0000
0001
0010
0100
0000
0001
0010
0100
0010
0100
0010
0100
0010
0100
0010
,
0100
0000
1001
0000
0010
0100
0010
0000
0001
0000
1010
0000
0100
0001
0100
0000
,
0010
0000
1100
0000
0010
0100
1000
0000
0001
0000
0110
0000
0010
0001
0010
0000
,
0001
1000
0001
1000
0001
1000
0001
1000
0001
1000
0001
1000
0001
1000
0001
1000
,
0100
0010
0100
0010
0100
0010
0100
0010
0100
0010
0100
0010
0100
0010
0100
0010
,
0100
0000
0011
0000
0100
1000
0100
0000
0010
0000
0101
0000
0010
0100
0001
0000
,
0010
0000
0101
0000
0010
0001
0010
0000
1000
0000
0101
0000
0010
1000
0001
0000
,
0100
0000
1010
0000
0100
0001
0100
0000
0010
0000
0101
0000
0010
1000
0100
0000
,
0010
0000
0101
0000
0010
1000
0010
1000
0001
0100
0001
0100
0010
1000
0010
1000
,
0100
0010
0100
0010
0100
0010
0100
0010
0001
1000
0001
1000
0001
1000
0001
1000
,
0010
1000
0010
1000
0010
1000
0010
1000
0001
0100
0001
0100
0001
0100
0001
0100
,
0010
1000
0010
1000
0010
1000
0010
1000
0100
0010
0100
0010
0100
0010
0100
0010
,
0001
1000
0001
1000
0001
1000
0001
1000
0001
0010
0001
0010
0001
0010
0001
0010
,
0100
1000
0100
1000
0100
1000
0100
1000
0001
0100
0001
0100
0001
0100
0001
0100
,
0010
0100
0010
0100
0010
0100
0010
0100
0010
1000
0010
1000
0010
1000
0010
1000
,
0001
0100
0001
0100
0001
0100
0001
0100
0010
1000
0010
1000
0010
1000
0010
1000
,
0100
0010
0001
1000
0100
0010
0001
1000
0001
0010
0100
1000
0001
0010
0100
1000
,
0001
0100
0001
1010
0100
0010
0110
0100
,
1001
0010
0001
0010
0100
1000
0110
0010
,
0101
0010
1000
0101
0010
0100
1010
0010
,
0101
0000
0010
0000
1000
0100
0010
0000
0001
0000
0110
0000
0001
0010
0100
0000
,
1010
0100
0010
1001
0010
1000
0101
0100
,
1010
0100
0010
0101
1000
0001
1010
0100
,
0110
0000
0001
0000
0100
0010
0100
0000
0001
0000
1010
0000
1000
0100
0010
0000
,
0101
0000
0010
0000
1000
0100
0010
0000
0001
1000
0010
0100
0001
1000
0010
0100
,
0001
1000
0100
1010
0100
0010
0101
0001
,
1010
0100
0010
1010
0100
0010
0101
1000
,
0110
0001
0100
1010
0100
1000
0110
0010
,
1001
0000
0100
0000
0001
1000
0001
0000
0010
0000
0100
0000
0010
0100
0010
0000
,
1001
0100
0010
0101
0010
0100
1001
0010
,
0110
1000
0010
0101
0001
0100
1010
0010
,
0101
0000
0010
0000
1000
0100
0010
0000
0100
0000
0101
0000
0010
0100
0001
0000
,
0010
0000
0101
0000
0010
0100
0010
0000
0001
0000
1100
0000
0001
0100
0001
0000
,
1010
0100
0010
0001
1010
1010
0100
0010
,
0101
0010
1000
0100
1001
1001
0010
0001
,
1010
0100
1000
0100
0011
0011
0100
1000
,
0110
0001
0010
0001
1100
1100
0010
0001
,
0110
0001
1000
0001
0110
0110
1000
0100
,
0011
0100
1000
0100
1010
1010
0100
0001
,
1010
0000
0110
1001
0000
0000
0000
0000
,
1000
0000
0110
0000
0110
0000
0001
0000
0110
0000
1000
0100
0010
0000
0010
0000
,
1001
0010
0100
1000
0101
0101
0010
0001
,
1010
0100
1000
0100
0011
0011
0100
0010
,
0101
0010
0001
1000
0110
0110
1000
0100
,
1010
0100
1000
0100
1001
1001
0010
1000
,
0110
1000
0100
0010
0101
0101
0010
0100
,
1001
0010
1000
0100
1010
1010
0100
1000
,
1010
0000
0110
1001
0000
0000
0000
0000
,
0001
0010
0100
1000
0001
0010
0100
1000
0100
0010
0001
1000
0100
0010
0001
0010
,
0200
0000
0000
0000
,
0000
0000
0000
0000
,
0300
0002
2003
0000
,
3002
0000
0000
0000
0000
0000
0000
0003
,
0020
0000
0000
0000
,
0000
2030
3200
0000
,
0302
0000
0000
0000
0000
0003
1000
0100
0020
0000
0000
0000
0000
0000
0000
0000
,
0032
0000
2003
0000
,
3200
0000
0000
0000
,
0000
0320
0032
0000
,
0023
0000
0230
0000
,
2300
3200
0320
0032
,
1003
0100
0010
0001
1000
0100
0010
0001
0010
0100
1000
0001
0010
0100
1000
0001
,
1000
0100
0010
0001
1000
0100
0010
0001
0010
0100
1000
0001
0010
0100
1000
0001
,
1000
0100
0010
0001
0100
0001
0010
0100
1000
0100
0010
0001
0100
0001
0010
0100
,
1000
0001
0010
0100
1000
0010
0100
0010
1000
0001
0010
0100
1000
0010
0100
0010
,
1001
0100
0010
0001
0010
0100
1000
0100
0010
0001
0010
0100
,
1010
0001
0010
0100
1000
0100
0010
0001
0010
0100
1000
0100
,
0011
0100
1000
0100
0010
0001
0010
0100
1000
0100
0010
0001
,
0110
1000
0100
0011
0100
0010
0101
0010
0001
0010
0100
1000
,
0110
0000
0000
0000
0001
0000
0000
0000
0010
0000
0000
0000
0100
0000
0000
1000
0000
0000
0100
0000
0000
1000
0000
0000
0100
0000
0000
0000
0010
0000
0000
0000
0001
0000
0000
0000
0010
0000
0000
0000
0100
0000
0000
0000
1000
0000
0000
0000
,
0110
0000
0000
0000
0001
0000
0000
0000
1000
0000
0000
0000
0100
0000
0000
0010
0000
0000
0001
0000
0000
0010
0000
0000
0100
0000
0000
0000
1000
0000
0000
0000
0100
0000
0000
0000
0010
0000
0000
0000
0001
0000
0000
0000
0010
0000
0000
0000
,
0101
0000
0000
0000
0010
0000
0000
0000
1000
0000
0000
0000
0001
0000
0000
0100
0000
0000
0001
0000
0000
0010
0000
0000
0100
0000
0000
0000
1000
0000
0000
0000
0100
0000
0000
0000
0010
0000
0000
0000
0001
0000
0000
0000
0010
0000
0000
0000
,
1100
0010
0001
0011
0010
1000
1100
0010
0001
1000
0100
0010
,
0002
0000
0000
0000
0000
0000
0000
0000
0003
0020
0000
0000
0000
0000
0000
0000
0000
0000
0130
0000
0000
0000
0000
0000
,
1000
0100
0000
0020
0030
1000
0100
0010
,
0001
0000
0010
0000
0000
0000
0010
0000
0000
0000
0100
0000
0000
0000
1000
0100
,
0010
0001
1000
0100
1000
0100
0010
0100
1000
0001
0100
0010
1000
0001
1000
0001
,
1000
0100
0010
0001
0010
0100
0010
0100
1000
0100
1000
0100
1000
0001
1000
0010
,
0100
0001
0100
0010
1000
0010
0100
0001
1000
0010
1000
0010
0100
0001
0100
0001
,
0010
0100
0010
0001
0000
0010
0000
0010
,
1000
0100
0010
0002
0000
0000
0000
0003
,
1000
0100
1000
0100
0010
0000
0001
0000
0001
0010
0001
0010
0100
0000
0010
0000
,
0001
0010
0100
1000
0100
0000
0010
0000
1000
0100
0010
0001
0010
0000
0100
0000
,
1000
0010
0100
0001
1000
0010
1000
0000
0100
0000
0010
0000
0001
0000
0010
0000
,
1000
0001
1000
0001
1000
0001
1000
0001
0010
0100
1000
0001
0010
0100
1000
0001
,
0010
0001
1000
0100
0010
0001
1000
0100
0010
0001
1000
0100
0010
0000
0100
0000
,
1000
0100
0010
0001
1000
0100
0010
0001
1000
0100
0010
0001
1000
0100
0010
0001
,
1000
0000
1000
0000
0001
0010
0001
0010
0001
0010
0100
1000
0100
1000
0100
1000
,
0100
0010
0001
1000
0001
0000
0010
0000
2100
0000
0000
0000
0000
0000
0000
3000
,
0001
1000
0001
0010
0100
1000
0100
0010
0001
1000
0001
1000
0010
0100
0001
0100
,
1001
0110
0011
0110
1100
0110
0011
0110
,
1000
0100
0010
0001
0010
0100
1000
0100
0010
0001
0010
0100
,
2000
0000
0000
0000
0000
3000
0200
0000
0000
0300
0001
0010
,
0100
1000
0100
1000
0001
0010
0001
0010
0100
1000
0010
0100
0001
1000
0001
0100
,
0010
1000
0001
0100
0010
1000
0001
1000
0010
0100
0010
1000
0001
0100
0010
1000
,
0002
0000
0000
0000
0000
0000
0000
0000
0000
0000
0000
0000
0003
0000
1000
0100
,
0020
0000
0000
0000
0000
0000
0000
0000
0000
0000
0000
0030
0000
0000
1000
0100
,
1000
0100
1000
0010
1000
0100
1000
0010
0100
0001
0100
0010
0100
0001
0100
0010
,
1000
0001
0010
0001
1000
0001
0010
0001
0100
0010
1000
0010
0100
0010
1000
0010
,
1000
0100
0010
0001
0100
0010
1000
0100
0010
0001
0100
0010
1000
0100
0010
0001
,
0100
0000
1000
0100
0010
0000
0001
0000
0010
0000
0100
0000
1000
0000
0100
0000
,
2000
0000
0000
0000
0000
0000
0000
0000
0000
0000
0000
0000
0000
0000
0000
0000
0000
0000
3200
0000
0000
0000
0000
0010
,
0302
0000
0000
0000
0000
0000
0000
0000
0000
0000
0000
0000
0000
0000
0000
0000
0003
0000
0000
0000
0000
0000
0000
0000
0020
0000
0000
0000
0000
0000
0000
0000
0000
0030
0000
0000
0200
0000
0000
0000
0000
0000
0000
0000
0000
0300
0000
0000
,
1000
0100
1000
0001
0010
1001
0100
1000
0010
0100
0010
1000
0010
1000
0001
0100
,
0001
1000
0010
0100
0001
1000
0010
0100
0001
1000
0100
0010
0001
1000
0100
0010
,
1001
0000
1000
0100
0010
0100
1000
0000
0101
0000
0010
1000
0100
1000
0010
0000
,
1100
0000
0100
0010
0001
0010
0100
0000
0011
0000
0100
1000
0100
0010
0100
0000
,
1010
0000
0001
0010
0100
1000
0100
0000
1010
0000
1000
0100
0010
0001
0010
0000
,
1100
0000
0001
1000
0001
0100
0010
0000
0101
0000
0010
1000
0010
1000
0100
0000
,
1001
0000
0010
1000
0100
1000
0010
0000
0110
0000
1000
0001
1000
0010
0100
0000
,
0011
0000
0100
1000
0100
0010
0100
0000
1100
0000
0010
0001
0010
0100
1000
0000
,
0110
0000
0001
1000
0100
0010
0001
0000
1010
0000
0100
0001
0100
0001
0010
0000
,
1100
0000
0010
1000
0010
0100
0010
0000
0101
0000
0010
1000
0001
0100
0001
0000
,
1100
0000
0010
1000
0010
0100
0001
0000
0011
0000
0100
0010
0001
0010
0100
0000
,
1001
0000
1000
0100
0010
0001
0010
0000
1001
0000
0001
0010
0100
1000
0100
0000
,
1000
0001
1000
0001
0010
0100
1000
0100
0010
0001
1000
0001
1000
0001
0010
0100
,
1000
0010
0100
0010
0100
0010
1000
0010
1000
0001
0010
0100
1000
0100
0010
0001
,
0010
0100
1000
0100
0010
0001
0100
0001
0010
0100
0010
0100
1000
0100
0010
0100
,
1000
0001
1000
0001
0010
0100
1000
0001
1000
0010
0100
0001
1000
0010
0100
0001
,
0010
0100
1000
0010
0100
0001
0010
0100
0010
0001
0010
0001
1000
0100
1000
0010
,
0100
0001
0100
0010
1000
0001
0100
0010
1000
0100
0010
0001
0100
0010
1000
0010
,
0100
0010
0001
0010
0100
1000
0010
1000
0100
0010
0100
0010
0001
0010
0100
0010
,
0001
1000
0001
1000
0100
0010
0001
1000
0001
0100
0010
1000
0001
0100
0010
1000
,
0100
0010
0001
0100
0010
1000
0100
0010
0100
1000
0100
1000
0001
0010
0001
0100
,
0010
1000
0010
0100
0001
1000
0010
0100
0001
0010
0100
1000
0010
0100
0001
0100
,
0010
1000
0010
0100
0001
0100
0010
1000
0001
1000
0100
0010
0100
1000
0100
0010
,
0001
1000
0001
0010
0100
0010
0100
1000
0100
0010
0001
1000
0010
0100
0010
0001
,
1000
0001
1000
0001
1000
0001
1000
0001
1000
0001
1000
0001
1000
0001
1000
0001
,
1001
1001
1001
1001
,
1100
0010
0001
0010
0001
0010
0100
1000
,
0020
0000
0000
0000
0000
0000
0000
0030
,
2100
0000
3002
0023
0000
0230
0000
2300
,
3200
0000
0320
0032
0000
0000
0000
0000
,
1003
0100
0010
0100
1000
0001
0100
0001
1000
0010
1000
0100
0010
0001
1000
0010
,
1000
0000
0000
0100
0000
0000
0010
0000
0001
0000
0010
0000
0001
0000
0000
1000
0000
0000
0100
0000
0000
1000
0000
0000
0001
0000
0010
0000
0100
0000
1000
0000
0000
0100
0000
0000
0010
0000
0000
0001
0000
0000
1000
0000
0000
0001
0000
0000
,
1000
0000
0100
0000
1000
0000
0100
0000
0000
0010
0000
0000
0001
0000
0000
1000
0000
0000
0100
0000
0000
0010
0000
0000
0001
0000
1000
0000
0001
0000
1000
0000
0000
0010
0000
0000
1000
0000
0000
0100
0000
0000
1000
0000
0000
0010
0000
0000
,
0100
0000
0001
0000
0100
0000
0001
0000
0000
0010
0000
0000
0100
0000
1000
0000
0100
0000
0010
0000
0000
0001
0000
0000
2000
0000
0000
0000
0000
0000
0000
0000
0000
0000
0000
0000
3002
0000
0000
0000
0000
0000
0000
0000
0000
0003
0000
0000
,
1000
0000
0100
0000
0010
0000
0001
0000
0000
0010
0000
0000
0100
0000
0000
1000
0000
0000
0100
0000
0000
0010
0000
0000
0001
0000
0010
0000
0100
0000
1000
0000
0000
0100
0000
0000
0010
0000
0000
0001
0000
0000
0010
0000
0000
0100
0000
0000
,
1000
0000
0100
0000
0010
0000
0001
0000
0000
0010
0000
0000
0100
0000
0000
1000
0000
0000
0100
0000
0000
0010
0000
0000
0001
0000
1000
0000
0001
0000
0100
0000
0000
0010
0000
0000
1000
0000
0001
0000
1000
0000
0010
0000
0000
0100
0000
0000
,
0001
0000
0010
0000
0100
0000
0010
0000
0000
0001
0000
0000
1000
0000
0000
0001
0000
0000
0010
0000
0000
0100
0000
0000
1000
0000
0100
0000
0010
0000
0100
0000
0000
1000
0000
0000
0100
0000
0000
1000
0000
0000
0100
0000
0000
0010
0000
0000
,
0001
0000
0010
0000
0100
0000
1000
0000
0000
0100
0000
0000
0010
0000
0000
0001
0000
0000
0010
0000
0000
0000
0000
0000
0202
0000
0000
0000
0000
0000
0000
0000
0000
0303
0000
0000
0202
0000
0000
0000
0000
0000
0000
0000
0000
0303
0000
0000
,
2020
3030
1010
1010
1010
1010
1010
0100
,
0012
0000
0023
0230
0000
0000
0000
0300
,
1000
0100
0010
0001
1000
0100
0010
0001
0010
0200
0000
0300
,
1000
0001
1000
0100
0010
0100
1001
0000
0000
0110
0000
0000
,
1000
0010
1000
0101
0010
0100
0110
0010
,
1001
0100
1000
0100
0010
0001
0110
0100
,
1010
0100
0001
1010
0100
0010
0101
0100
,
1010
0000
0100
0000
0001
0010
0100
0000
1000
0000
0110
0000
1000
0100
0010
0000
,
0101
0010
0100
1001
0100
0001
1010
0010
,
0101
0010
0100
1010
0001
1000
0101
0010
,
0110
0000
1000
0000
0010
0100
0010
0000
1000
0000
0101
0000
0001
0010
0100
0000
,
1000
0100
0010
0001
1000
0100
0010
0001
1000
0001
0100
0010
1000
0001
0100
0010
,
1000
0001
0010
0101
0010
0100
1010
1000
,
0101
0010
0100
0101
0010
0100
1010
0001
,
0110
1000
0010
0101
0010
0001
0110
0100
,
1001
0000
0010
0000
1000
0001
1000
0000
0100
0000
0010
0000
0100
0010
0100
0000
,
1001
0010
0100
1010
0100
0010
1001
0100
,
0110
0001
0100
1010
1000
0010
0101
0100
,
1010
0000
0100
0000
0001
0010
0100
0000
0010
0000
1010
0000
0100
0010
1000
0000
,
1000
0010
1000
0010
0100
0001
0100
0001
1000
0010
1000
0010
0100
0001
0100
0001
,
0020
0000
0000
0000
0000
0000
0230
0000
0000
0000
0000
0000
0320
0000
0000
0030
,
1002
0000
0000
0000
0000
0000
0000
0003
,
2010
0000
0000
0000
0000
0000
3200
0000
0000
0000
0000
0000
0320
0000
0000
0030
,
2001
0000
0000
0000
0000
0000
0000
3000
,
0102
0000
0000
0000
0000
0000
0023
0000
0000
0000
0000
0000
0230
0000
0000
0300
,
2010
0000
0000
0000
0000
0000
3200
0000
0000
0000
0000
0300
0020
0000
0000
0030
,
2002
0000
0000
0000
,
0000
0000
0000
0000
0000
0000
3003
0000
0001
1000
0001
1000
0001
1000
0001
1000
,
0100
0010
0100
0010
0100
0010
0100
0010
0001
1000
0001
1000
0001
1000
0001
1000
,
0010
1000
0010
1000
0010
1000
0010
1000
0001
0100
0001
0100
0001
0100
0001
0100
,
0010
1000
0010
1000
0010
1000
0010
1000
0100
0010
0100
0010
0100
0010
0100
0010
,
0001
1000
0001
1000
0001
1000
0001
1000
0001
0010
0001
0010
0001
0010
0001
0010
,
0100
1000
0100
1000
0100
1000
0100
1000
0001
0100
0001
0100
0001
0100
0001
0100
,
0010
0100
0010
0100
0010
0100
0010
0100
0010
1000
0010
1000
0010
1000
0010
1000
,
0001
0100
0001
0100
0001
0100
0001
0100
0010
1000
0010
1000
0010
1000
0010
1000
,
0001
0100
0001
0100
0001
0100
0001
0100
0001
0010
0100
1000
0001
0010
0100
1000
,
0001
1000
0010
0100
0001
1000
0010
0100
0001
1000
0100
0010
0001
1000
0100
0010
,
0001
1000
0010
0100
0001
1000
0010
0100
0001
1000
0100
0010
0001
1000
0100
0010
,
0002
0000
0003
0000
;
