#TITLE:+ﾟ.ＲＡＩＮ+ﾟ｡';
#SUBTITLE:;
#ARTIST:Kobaryo;
#TITLETRANSLIT:RAIN;
#SUBTITLETRANSLIT:;
#ARTISTTRANSLIT:;
#CREDIT:Owem;
#BANNER:../banner.png;
#BACKGROUND:../bg.png;
#LYRICSPATH:;
#CDTITLE:../cdtitleowem.png;
#MUSIC:Kobaryo - RAIN.ogg;
#OFFSET:-1.150;
#SAMPLESTART:98.348;
#SAMPLELENGTH:29.999;
#SELECTABLE:YES;
#BPMS:0.000=50.000,127.000=48.750,128.000=45.000;
#STOPS:;
#BGCHANGES:;
// cache tags:
#FIRSTBEAT:1.000;
#LASTBEAT:229.250;
#SONGFILENAME:Songs/Owem's Simfiles 08 (not release)/RAIN - [Owem]/RAIN.sm;
#HASMUSIC:1;
#HASBANNER:1;
#MUSICLENGTH:296.071;
// end cache tags

//---------------dance-single - 8/8/8----------------
#NOTES:
     dance-single:
     8/8/8:
     Challenge:
     14:
     1.000,0.958,0.135,0.574,1.000,2070.000,40.000,170.000,76.000,0.000:

0000
0000
0000
0000
0000
0000
0000
0000
1000
0100
0010
0001
1000
0001
0100
0010
0100
0001
1000
0010
1000
0100
0010
0001
1000
0100
1000
0010
0100
0001
1000
0001
,
0010
0000
0100
0000
0010
0000
0001
0000
1000
0000
0100
0000
1000
0000
0001
0000
0200
0300
0010
0000
1000
0000
0020
0030
0100
0000
0010
0000
2000
3000
0001
0000
0100
0000
0001
0000
1000
0000
0100
0000
0010
0000
0100
0000
1000
0000
0001
0000
0010
0000
0001
0000
0100
0000
0010
0000
1000
0000
0001
0000
0010
0000
0100
0000
,
10M0
0001
0M10
0001
M100
0010
1000
0001
10M0
0100
0010
0100
1000
0001
0010
0001
0100
0010
1000
0010
0100
0001
1000
0100
M010
0001
1000
0100
1000
0001
0100
0010
,
1000
0000
0001
0000
1000
0000
0100
0000
0010
0000
0001
0000
1000
0000
0100
0000
2000
3000
0001
0000
0100
0000
0002
0003
1000
0000
0100
0000
2000
3000
0010
0000
0100
0000
0010
0000
1000
0000
0001
0000
0010
0000
0100
0000
0010
0000
0001
0000
1000
0000
0100
0000
1000
0000
0001
0000
0100
0000
0010
0000
1000
0000
0010
0000
,
M100
0010
1M00
0001
01M0
0001
1000
0100
0010
0001
1000
0100
1000
0001
0010
0001
0100
0010
1000
0010
0100
0010
1000
0001
0100
0001
1000
0100
0010
0100
1000
0001
,
0010
0000
0001
0000
0100
0000
0010
0000
1000
0000
0001
0000
0010
0000
0001
0000
0200
0300
0010
0000
1000
0000
0002
0003
1000
0000
0100
0000
0020
0030
0001
0000
1000
0000
0100
0000
1000
0000
0001
0000
0100
0000
0010
0000
0100
0000
0001
0000
1000
0000
0010
0000
1000
0000
0100
0000
0010
0000
0001
0000
1000
0000
0100
0000
,
1000
0001
0100
001M
M100
0001
1M00
0010
1000
0100
0010
0001
1000
0100
1000
0001
1000
0010
0100
0010
1000
0001
1000
0100
0010
0001
1000
0100
1000
0001
0010
0001
,
0100
0000
0010
0000
1000
0000
0010
0000
0100
0000
0001
0000
1000
0000
0001
0000
0200
0300
0010
0000
0100
0000
0002
0003
1000
0000
0010
0000
2000
3000
0100
0000
0010
0000
0001
0000
1000
0000
0100
0000
1000
0000
0001
0000
0100
0000
0001
0000
1000
0000
0010
0000
0100
0000
0001
0000
1000
0000
0001
0000
0010
0000
0001
0000
,
M100
0000
0010
0000
1M00
0000
0010
0000
M100
0000
0001
0000
1000
0000
0001
0000
1000
0100
0010
0001
1000
0001
0100
0010
1000
0010
0100
0001
0100
0000
0000
0000
0102
0000
0000
0000
0000
0000
0000
0000
1003
0100
1000
0010
0100
0001
1000
0001
0100
0010
1000
0001
0010
0000
0000
0000
0100
1000
0001
1000
0010
0100
0010
1000
,
0002
0000
0000
0000
0403
0000
0000
0000
0310
1000
0010
0100
0001
1000
0001
0010
0100
1000
0100
0010
0001
1000
0100
1000
0010
0100
0001
1000
0001
0000
0000
0000
0021
0000
0000
0000
0000
0000
0000
0000
0130
1000
0001
0000
0100
0010
0100
0001
1000
0010
1000
0100
0010
0000
0000
0000
0001
0000
0100
0010
0100
0001
1000
0010
,
2000
0000
0000
0000
3002
0000
0203
0000
0320
0000
0000
0000
2030
0000
0000
0000
3001
0100
0010
0100
0001
1000
0010
1000
0100
0010
0001
1000
0001
0000
0000
0000
2001
0000
0000
0000
0000
0000
0000
0000
3010
0100
0001
1000
0100
1000
0001
0010
0100
1000
0001
1000
0010
0000
0000
0000
0100
0001
0100
0010
1000
0001
1000
0100
,
0020
0000
0000
0000
0034
0000
0000
0000
0103
0010
0100
0010
1000
0001
1000
0100
0010
0001
1000
0100
0010
0100
1000
0001
1000
0010
0100
0001
1000
0000
0000
0000
1020
0000
0000
0000
0000
0000
0000
0000
0130
0001
1000
0001
0100
0010
0100
0001
1000
0100
1000
0010
0100
0000
0000
0000
0001
0000
0100
0010
0100
0001
1000
0100
,
0020
0000
0000
0000
0032
0000
0203
0000
0320
0000
0000
0000
2030
0000
0000
0000
3001
0100
0001
1000
0010
0100
0001
1000
0100
1000
0010
0100
0001
0000
0000
0000
0201
0000
0000
0000
0000
0000
0000
0000
0310
1000
0001
0100
0010
0100
0001
1000
0100
0010
0001
1000
0010
0000
0000
0000
0100
0001
1000
0001
0010
0100
0010
0001
,
2000
0000
0000
0000
3040
0000
0000
0000
0130
0001
1000
0010
1000
0001
0100
0010
1000
0001
0010
0001
0100
0010
1000
0001
1000
0100
0010
0001
1000
0000
0000
0000
1020
0000
0000
0000
0000
0000
0000
0000
0130
0001
0100
0000
0010
1000
0001
1000
0100
0010
0001
1000
0010
0000
0000
0000
0100
0000
0001
1000
0001
0100
0010
1000
,
0020
0000
0000
0000
0230
0000
0302
0000
2003
0000
0000
0000
3200
0000
0000
0000
0310
0001
1000
0001
1000
0010
0100
0001
1000
0100
1000
0010
0100
0001
1000
0001
0020
0000
0000
0000
0000
0000
0000
0000
0130
1000
0001
1000
0010
0100
0001
0100
0010
1000
0001
1000
0100
0000
0000
0000
0010
0001
1000
0001
0100
0000
0000
0000
,
0102
0000
0000
0000
4003
0000
0000
0000
3010
0100
0010
1000
0001
0100
0001
0010
0100
1000
0001
1000
0010
0100
0001
1000
0100
0010
0100
1000
0001
0100
0010
0100
0002
0000
0000
0000
0000
0000
0000
0000
1003
0100
0010
0000
0001
1000
0001
0100
0010
1000
0010
0100
0001
0000
0000
0000
1000
0000
0010
0100
0001
1000
0001
0010
,
0200
0000
0000
0000
2300
0000
3020
0000
0230
0000
0302
0000
2003
0000
0000
0000
3010
0100
0001
1000
0010
0100
0001
1000
0100
1000
0010
0100
0001
0000
0000
0000
0201
0000
0000
0000
0000
0000
0000
0000
0310
1000
0001
0100
0010
0100
0001
1000
0100
0010
0001
1000
0010
0000
0000
0000
0100
0001
1000
0001
0010
0100
0010
0001
,
2000
0000
0000
0000
3040
0000
0000
0000
0130
0001
1000
0010
1000
0001
0100
0010
1000
0001
0010
0001
0100
0010
1000
0001
1000
0100
0010
0001
1000
0000
0000
0000
1020
0000
0000
0000
0000
0000
0000
0000
0130
0001
0100
0000
0010
1000
0001
1000
0100
0010
0001
1000
0010
0000
0000
0000
0100
0000
0001
1000
0001
0100
0010
1000
,
0020
0000
0000
0000
0230
0000
0302
0000
2003
0000
0000
0000
3200
0000
0000
0000
0310
0001
1000
0001
0100
0010
0100
0001
1000
0100
1000
0010
0100
0001
1000
0001
0020
0000
0000
0000
0000
0000
0000
0000
0130
1000
0001
1000
0010
0100
0001
0100
0010
1000
0001
1000
0100
0000
0000
0000
0010
0001
1000
0001
0100
0000
0000
0000
,
0102
0000
0000
0000
4003
0000
0000
0000
3010
0100
0010
1000
0001
0100
0001
0010
0100
1000
0001
1000
0010
0100
0001
1000
0100
0010
0100
1000
0001
0100
0010
0100
0002
0000
0000
0000
0000
0000
0000
0000
1003
0100
0010
0000
0001
1000
0001
0100
0010
1000
0010
0100
0001
0000
0000
0000
1000
0000
0010
0100
0001
1000
0001
0010
,
0200
0000
0000
0000
2300
0000
3020
0000
0230
0000
0000
0000
0302
0000
0000
0000
1003
0100
1000
0010
0100
0001
1000
0001
0010
0100
1000
0001
0100
0000
0000
0000
0120
0000
0000
0000
0000
0000
0000
0000
1030
0001
0100
0010
1000
0001
0010
0001
0100
0010
1000
0001
0010
0000
0000
0000
0100
1000
0001
1000
0010
0100
0001
1000
,
0200
0000
0000
0000
0340
0000
0000
0000
0031
1000
0001
0100
0010
1000
0100
1000
0001
0100
0010
1000
0001
1000
0100
0010
0001
1000
0100
1000
0010
0000
0000
0000
0210
0000
0000
0000
0000
0000
0000
0000
0301
1000
0001
0000
0010
0100
1000
0001
1000
0010
0100
0001
1000
0000
0000
0000
0100
0000
0010
0001
1000
0001
0100
0010
,
2000
0000
0000
0000
3002
0000
0203
0000
0320
0000
0000
0000
2030
0000
0000
0000
3001
0100
0010
1000
0001
0010
0001
0100
0010
1000
0001
1000
0100
0010
0001
1000
0020
0000
0000
0000
0000
0000
0000
0000
0130
0001
1000
0001
0010
0100
0010
0001
1000
0100
1000
0010
0100
0000
0000
0000
0001
0100
0010
1000
0001
0100
0010
0100
,
0002
0000
0000
0000
4003
0000
0000
0000
3010
0100
0010
0100
0001
1000
0010
1000
0001
1000
0100
0010
0001
1000
0100
1000
0010
0100
0001
1000
0001
0010
0100
1000
0002
0000
0000
0000
0000
0000
0000
0000
0103
0010
0100
0000
0001
1000
0010
1000
0100
0010
0001
1000
0010
0000
0000
0000
0100
0000
0001
1000
0010
1000
0001
0100
,
0020
0000
2030
3002
2003
3200
0320
0000
0031
1000
0001
0100
0010
1000
0001
1000
0100
0010
0100
1000
0001
0010
0001
0100
0010
1000
0001
1000
0100
0010
0001
1000
,
0100
0000
1000
0000
0001
0000
0100
0000
0010
0000
1000
0000
0010
0000
0100
0000
0002
0003
1000
0000
0100
0000
2000
3000
0001
0000
0010
0000
0002
0003
0100
0000
0010
0000
1000
0000
0010
0000
0100
0000
0001
0000
1000
0000
0010
0000
1000
0000
0100
0000
0010
0000
0001
0000
1000
0000
0100
0000
1000
0000
0001
0000
0100
0000
,
00M1
1000
001M
0100
0001
1000
01M0
1000
0M01
0010
0100
0010
0001
1000
0100
1000
0001
0100
0010
1000
0010
0100
0001
1000
01M0
1000
0001
0010
0001
0100
0010
1000
,
0010
0000
0100
0000
0001
0000
1000
0000
0001
0000
0100
0000
0010
0000
1000
0000
0200
0300
1000
0000
0001
0000
2000
3000
0100
0000
0010
0000
0002
0003
1000
0000
0100
0000
0010
0000
0100
0000
1000
0000
0001
0000
1000
0000
0001
0000
0100
0000
M010
0000
0100
0000
0001
0000
10M0
0000
0100
0000
0010
0000
0001
0000
0100
0000
,
0001
0000
1000
0000
0010
0100
0010
0000
0100
0001
0100
0000
0010
1000
0010
0000
0100
0000
0001
0000
1000
0000
0100
0000
1000
0000
0001
0000
0010
0000
0100
0000
0010
0000
0001
0000
1000
0000
0100
0000
1000
0000
0001
0000
0100
0000
0010
0000
1M00
0000
0010
0000
0100
0000
00M1
0000
1000
0000
00M1
0000
0100
0000
0010
0000
,
1M00
0000
0001
0000
0010
0000
0100
0000
M010
0000
0001
0000
1000
0000
01M0
0000
2000
3000
0001
0000
1000
0000
0020
0030
0100
0000
0001
0000
2000
3000
0001
0000
0100
0000
0010
0000
0100
0000
0001
0000
1000
0000
0010
0000
1000
0000
0100
0000
001M
0000
0100
0000
1000
00M0
0001
0M00
0010
0000
M001
0000
0100
0000
0001
0000
,
1000
0100
0010
0100
1000
0001
0010
0001
0100
0010
1000
0001
0M10
0001
0100
0010
1000
0001
1000
0100
0010
0001
1000
0100
1000
0001
0010
0001
0100
0010
1000
0010
,
0100
0000
0001
0000
1000
0000
0010
0000
1000
0000
0100
0000
0020
0030
0001
0000
2000
3000
0100
0000
1000
0000
0002
0003
0100
0000
0010
0000
0200
0300
0001
0000
1000
0000
0010
0000
1000
0000
0001
0000
0010
0000
0001
0000
0100
0000
0010
0000
2M00
0000
0000
0000
0M00
0000
0000
0000
0M00
0000
0000
0000
0M00
0000
0000
0000
,
3M04
0000
0000
0000
0M00
0000
0000
0000
0M00
0000
0000
0000
0M00
0000
0000
0000
1003
0010
0100
0010
1000
0001
0010
0100
1000
0010
0100
0001
1000
0000
0000
0000
1002
0000
0000
0000
0000
0000
0000
0000
1003
0100
1000
0010
0100
0001
1000
0001
0100
0010
1000
0001
0010
0000
0000
0000
0100
1000
0001
1000
0010
0100
0010
1000
,
0002
0000
0000
0000
0403
0000
0000
0000
0310
1000
0010
0100
0001
1000
0001
0010
0100
1000
0100
0010
0001
1000
0100
1000
0010
0100
0001
1000
0001
0000
0000
0000
0021
0000
0000
0000
0000
0000
0000
0000
0130
1000
0001
0000
0100
0010
0100
0001
1000
0010
1000
0100
0010
0000
0000
0000
0001
0000
0100
0010
0100
0001
1000
0010
,
2000
0000
0000
0000
3002
0000
0203
0000
0320
0000
0000
0000
2030
0000
0000
0000
3001
0100
0010
0100
0001
1000
0010
1000
0100
0010
0001
1000
0001
0000
0000
0000
2001
0000
0000
0000
0000
0000
0000
0000
3010
0100
0001
1000
0100
1000
0001
0010
0100
1000
0001
1000
0010
0000
0000
0000
0100
0001
0100
0010
1000
0001
1000
0100
,
0020
0000
0000
0000
0034
0000
0000
0000
0103
0010
1000
0010
0100
0001
1000
0100
0010
0001
1000
0100
0010
0100
1000
0001
1000
0010
0100
0001
1000
0000
0000
0000
1020
0000
0000
0000
0000
0000
0000
0000
0130
0001
1000
0001
0100
0010
0100
0001
1000
0100
1000
0010
0100
0000
0000
0000
0001
0000
0100
0010
0100
0001
1000
0100
,
0020
0000
0000
0000
0032
0000
0203
0000
0320
0000
0000
0000
2030
0000
0000
0000
3001
0100
0001
1000
0010
0100
0001
1000
0100
1000
0010
0100
0001
0000
0000
0000
0201
0000
0000
0000
0000
0000
0000
0000
0310
1000
0001
0100
0010
0100
0001
1000
0100
0010
0001
1000
0010
0000
0000
0000
0100
0001
1000
0001
0010
0100
0010
0001
,
2000
0000
0000
0000
3040
0000
0000
0000
0130
0001
1000
0010
1000
0001
0100
0010
1000
0001
0010
0001
0100
0010
1000
0001
1000
0100
0010
0001
1000
0000
0000
0000
1020
0000
0000
0000
0000
0000
0000
0000
0130
0001
0100
0000
0010
1000
0001
1000
0100
0010
0001
1000
0010
0000
0000
0000
0100
0000
0001
1000
0001
0100
0010
1000
,
0020
0000
0000
0000
0230
0000
0302
0000
2003
0000
0000
0000
3200
0000
0000
0000
0310
0001
1000
0010
0100
0010
1000
0001
0100
0000
1000
0010
0100
0001
1000
0001
0020
0000
0000
0000
0000
0000
0000
0000
0130
1000
0001
1000
0010
0100
0001
0100
0010
1000
0001
1000
0100
0000
0000
0000
0010
0001
1000
0001
0100
0000
0000
0000
,
0102
0000
0000
0000
4003
0000
0000
0000
3001
0100
0010
1000
0001
0100
0001
0010
0100
1000
0001
1000
0010
0100
0001
1000
0100
0010
0100
1000
0001
0100
0010
0100
0002
0000
0000
0000
0000
0000
0000
0000
1003
0010
0100
0000
0010
1000
0001
0100
0010
1000
0100
0010
0001
0000
0000
0000
1000
0000
0001
0100
0010
1000
0001
0010
,
0200
0000
0000
0000
2300
0000
3020
0000
0230
0000
0302
0000
2003
0000
0000
0000
3010
0000
0000
0000
0100
0000
0000
0000
0001
0000
0000
0000
2000
3000
0000
0000
1002
0003
0000
0000
0000
0000
0000
0000
0004
0000
0000
0000
1003
0100
0010
0001
1000
0001
0100
0010
0100
0000
0000
0000
0001
1000
0001
0100
0010
1000
0001
1000
,
0200
0000
0000
0000
0340
0000
0000
0000
0031
0100
0010
1000
0001
0100
0001
0010
0100
1000
0001
1000
0010
0100
0001
1000
0100
0010
0100
1000
0001
0100
0010
0100
0002
0000
0000
0000
0000
0000
0000
0000
1003
0100
0010
0000
0001
1000
0001
0100
0010
1000
0010
0100
0001
0000
0000
0000
1000
0000
0100
0010
0001
1000
0001
0010
,
0200
0000
0000
0000
0000
0000
0000
0000
0000
0000
0000
0000
2300
0000
0000
0000
0000
0000
3020
0000
0000
0000
0000
0000
0130
0000
0000
0000
0001
0000
0000
0000
0100
0000
0000
0000
0002
0000
0000
0000
0000
0000
0000
0000
0000
0000
0000
0000
1003
0000
0000
0100
0000
0000
1000
0000
0000
0010
0000
0000
0100
0000
0000
0001
0000
0000
1000
0000
0000
0001
0000
0000
0010
0000
0000
0100
0000
0000
1000
0000
0000
0001
0000
0000
0100
0000
0000
0000
0000
0000
0000
0000
0000
0000
0000
0000
0120
0000
0000
0000
0000
0000
0000
0000
0000
0000
0000
0000
0000
0000
0000
0000
0000
0000
0000
0000
0000
0000
0000
0000
1030
0000
0000
0100
0000
0000
1000
0000
0000
0001
0000
0000
0100
0000
0000
0010
0000
0000
1000
0000
0000
0010
0000
0000
0100
0000
0000
0001
0000
0000
1000
0000
0000
0100
0000
0000
0010
0000
0000
0000
0000
0000
0000
0000
0000
0000
0000
0000
0001
0000
0000
0100
0000
0000
0001
0000
0000
1000
0000
0000
0010
0000
0000
0100
0000
0000
0001
0000
0000
0100
0000
0000
,
0020
0000
0000
0000
4030
0000
0000
0000
3001
0100
0001
1000
0010
0100
0001
1000
0100
0010
0100
1000
0001
0010
0001
1000
0001
0100
0010
1000
0010
0100
0001
1000
0200
0000
0000
0000
0000
0000
0000
0000
0310
0001
1000
0000
0010
0100
0010
1000
0001
0010
0100
1000
0001
0000
0000
0000
0100
0000
0010
1000
0010
0100
0001
1000
,
0200
0000
0000
0000
0320
0000
0032
0000
2003
0000
0000
0000
3020
0000
0000
0000
0130
0001
1000
0100
1000
0001
0010
0100
0010
0001
1000
0100
0010
0000
0000
0000
0012
0000
0000
0000
0000
0000
0000
0000
1003
0010
0100
0001
1000
0100
1000
0010
0100
0001
1000
0100
0010
0000
0000
0000
0001
1000
0001
0100
0010
1000
0001
0010
,
0200
0000
0000
0000
4300
0000
0000
0000
3010
0100
0001
1000
0100
1000
0001
0010
0100
0010
0001
1000
0100
1000
0010
1000
0001
0100
0010
0100
0001
1000
0100
0010
0002
0000
0000
0000
0000
0000
0000
0000
0103
0010
1000
0000
0001
0100
0001
1000
0010
0100
0010
1000
0001
0000
0000
0000
0010
0000
0100
1000
0001
1000
0010
0100
,
0002
0000
0000
0000
0000
0000
0000
0000
0000
0000
0000
0000
2003
0000
0000
0000
0000
0000
3020
0000
0000
0000
0000
0000
1030
0000
0000
0000
0001
0000
0000
0000
1000
0000
0000
0000
0002
0000
0000
0000
0000
0000
0000
0000
0000
0000
0000
0000
1003
0000
0000
0010
0000
0000
0100
0000
0000
0010
0000
0000
1000
0000
0000
0001
0000
0000
0010
0000
0000
0001
0000
0000
0100
0000
0000
0010
0000
0000
1000
0000
0000
0001
0000
0000
1000
0000
0000
0100
0000
0000
0010
0000
0000
0001
0000
0000
0200
0000
0000
0000
0000
0000
0000
0000
0000
0000
0000
0000
0000
0000
0000
0000
0000
0000
0000
0000
0000
0000
0000
0000
0310
0000
0000
1000
0000
0000
0001
0000
0000
0100
0000
0000
0010
0000
0000
0100
0000
0000
0001
0000
0000
1000
0000
0000
0100
0000
0000
0010
0000
0000
0001
0000
0000
1000
0000
0000
0010
0000
0000
0000
0000
0000
0000
0000
0000
0000
0000
0000
0100
0000
0000
0001
0000
0000
1000
0000
0000
0010
0000
0000
1000
0000
0000
0001
0000
0000
0100
0000
0000
0010
0000
0000
,
0200
0000
0000
0000
0304
0000
0000
0000
1003
0100
1000
0001
0010
0001
0100
0010
1000
0001
1000
0100
0010
0001
0010
0100
1000
0001
0010
0001
0100
0010
1000
0010
0200
0000
0000
0000
0000
0000
0000
0000
0301
1000
0001
0000
0010
0100
1000
0001
1000
0010
0100
0001
0100
0000
0000
0000
0010
0000
1000
0010
0100
0001
1000
0001
,
0020
0000
0230
2300
3002
2003
3020
0000
0130
0001
1000
0010
0100
0001
0010
0100
1000
0001
1000
0010
1000
0100
0010
0001
1000
0100
1000
0010
0100
0001
1000
0001
,
0010
0000
0100
0000
0010
0000
0001
0000
1000
0000
0100
0000
1000
0000
0001
0000
2000
3000
0010
0000
0100
0000
0020
0030
1000
0000
0001
0000
2000
3000
0010
0000
0100
0000
0001
0000
1000
0000
0100
0000
0010
0000
0100
0000
1000
0000
0001
0000
0010
0000
0001
0000
0100
0000
0010
0000
1000
0000
0001
0000
0010
0000
0100
0000
,
1000
0001
0010
0001
0100
0010
1000
0001
1000
0100
0010
0100
1000
0001
0010
0001
0100
0010
1000
0010
0100
0001
1000
0100
0010
0001
1000
0100
1000
0001
0100
0010
,
1000
0000
0001
0000
1000
0000
0100
0000
0010
0000
0001
0000
1000
0000
0100
0000
2000
3000
0001
0000
0100
0000
0002
0003
1000
0000
0100
0000
2000
3000
0010
0000
0100
0000
0010
0000
1000
0000
0001
0000
0010
0000
0100
0000
0010
0000
0001
0000
1000
0000
0100
0000
1000
0000
0001
0000
0100
0000
0010
0000
1000
0000
0001
0000
,
0100
0010
1000
0001
0100
0001
1000
0100
0010
0001
1000
0100
1000
0001
0010
0001
0100
0010
1000
0010
0100
0010
1000
0001
0100
0001
1000
0100
0010
0100
1000
0001
,
0010
0000
0001
0000
0100
0000
0010
0000
1000
0000
0001
0000
0010
0000
0001
0000
0200
0300
0010
0000
1000
0000
0002
0003
1000
0000
0100
0000
0020
0030
0001
0000
1000
0000
0100
0000
1000
0000
0001
0000
0100
0000
0010
0000
0100
0000
0001
0000
1000
0000
0010
0000
1000
0000
0100
0000
0010
0000
0001
0000
1000
0000
0100
0000
,
1000
0001
0100
0010
1000
0001
0010
0100
1000
0100
0010
0001
1000
0010
0100
0001
1000
0010
0100
0010
1000
0001
1000
0100
0010
0001
1000
0100
1000
0001
0010
0001
,
0100
0000
0010
0000
1000
0000
0010
0000
0100
0000
0001
0000
1000
0000
0001
0000
0200
0300
0010
0000
0100
0000
0002
0003
1000
0000
0010
0000
2000
3000
0000
0000
00M2
0000
0000
0000
0M00
0000
0000
0000
M000
0000
0000
0000
0M00
0000
0000
0000
00M0
0000
0000
0000
0M00
0000
0000
0000
M000
0000
0000
0000
0M00
0000
0000
0000
,
00M0
0000
0000
0000
0000
0000
0000
0000
0000
0000
0000
0000
0M00
0000
0000
0000
0000
0000
0000
0000
0000
0000
0000
0000
M000
0000
0000
0000
0000
0000
0000
0000
0000
0000
0000
0000
0M00
0000
0000
0000
0000
0000
0000
0000
0000
0000
0000
0000
00M0
0000
0000
0000
0000
0000
0000
0000
0000
0000
0000
0000
0M00
0000
0000
0000
0000
0000
0000
0000
0000
0000
0000
0000
M000
0000
0000
0000
0000
0000
0000
0000
0000
0000
0000
0000
0M00
0000
0000
0000
0000
0000
0000
0000
0000
0000
0000
0000
00M0
0000
0000
0000
0000
0000
0000
0000
0000
0000
0000
0000
0M00
0000
0000
0000
0000
0000
0000
0000
0000
0000
0000
0000
M000
0000
0000
0000
0000
0000
0000
0000
0000
0000
0000
0000
0M03
0000
0000
0000
0000
0000
0000
0000
0000
0000
0000
0000
MMMM
0000
0000
0000
0000
0000
0000
0000
0000
0000
0000
0000
0M00
0000
0000
0000
0000
0000
0000
0000
0000
0000
0000
0000
00M0
0000
0000
0000
M000
0000
0000
0000
0000
0000
0000
0000
0000
0000
000M
0000
0000
0000
0000
0000
0000
0000
0000
0000
,
M000
0000
0000
0000
0000
0000
0M00
0000
0000
0000
0000
0000
00M0
0000
0000
0000
0000
0000
0000
0000
0000
0000
000M
0000
0000
0000
0000
0000
0000
0000
0000
0000
M000
0000
0000
0000
0000
0000
0000
0000
00M0
0000
0000
0000
0000
0000
0000
0000
0M00
0000
0000
0000
0000
0000
0000
0000
0000
0000
0000
0000
000M
0000
0000
0000
0000
0000
0000
0000
0000
0000
0000
0000
0000
0000
0000
0000
0000
0000
0000
0000
0000
0000
0000
0000
0000
0000
0000
0000
0000
0000
0000
0000
0000
0000
0000
0000
0000
0000
0000
0000
0000
0000
0000
0000
0000
0000
0000
0000
0000
0000
0000
0000
0000
0000
0000
0000
0000
0000
0000
0000
0000
0000
0000
0000
0000
0000
0000
0000
0000
0000
0000
0000
0000
0000
0000
0000
0000
0000
0000
0000
0000
0000
0000
0000
0000
0000
0000
0000
0000
0000
0000
0000
0000
0000
0000
0000
0000
0000
0000
0000
0000
0000
0000
0000
0000
0000
0000
0000
0000
0000
0000
0000
0000
0000
0000
0000
0000
0000
0000
0000
0000
0000
0000
0000
0000
0000
0000
0000
0000
0000
0000
0000
;
