#TITLE:Endless Flyer;
#SUBTITLE:;
#ARTIST:TJ_MS-DOM;
#TITLETRANSLIT:;
#SUBTITLETRANSLIT:;
#ARTISTTRANSLIT:;
#CREDIT:;
#BANNER:../Zeppelin_bn.png;
#BACKGROUND:../bg_Zeppelin.png;
#LYRICSPATH:;
#CDTITLE:../cdtitle_ZAiA.png;
#MUSIC:TJ_MS-DOM - Endless Flyer.ogg;
#OFFSET:1.490;
#SAMPLESTART:12.000;
#SAMPLELENGTH:24.100;
#SELECTABLE:YES;
#BPMS:0.000=160.000;
#STOPS:;
#BGCHANGES:;
// cache tags:
#FIRSTBEAT:4.000;
#LASTBEAT:307.750;
#SONGFILENAME:Songs/Cirque du Zeppelin/Endless Flyer - [Zaia]/Endless Flyer.sm;
#HASMUSIC:1;
#HASBANNER:1;
#MUSICLENGTH:114.027;
// end cache tags

//---------------dance-single - 64----------------
#NOTES:
     dance-single:
     64:
     Challenge:
     14:
     1.000,1.000,0.000,0.000,1.000,1134.000,0.000,0.000,0.000,0.000:
0000
0000
0000
0000
,
1000
0001
0010
0100
0010
0001
0100
0010
,
1000
0001
0010
0001
1000
0010
0100
0001
,
0010
0001
1000
0100
1000
0001
0100
0010
,
1000
0100
1000
0010
0100
0010
1000
0100
,
0010
0100
1000
0001
0100
0001
0010
0100
,
1000
0010
1000
0001
0010
0100
1000
0010
,
0100
0001
1000
0100
1000
0001
0100
0001
,
1000
0010
1000
0100
1000
0001
0010
0001
,
1000
0100
0010
0001
1000
0001
0100
0001
1000
0010
1000
0001
0010
0001
0100
0001
,
1000
0010
0100
0010
1000
0001
0010
0100
1000
0001
0100
0001
0010
0100
0010
0001
,
1000
0010
1000
0001
1000
0100
0010
0001
1000
0001
0100
0010
1000
0100
1000
0001
,
0100
0010
1000
0001
0010
0100
1000
0001
0100
0001
1000
0100
1000
0010
1000
0001
,
0100
0001
0010
0100
1000
0001
1000
0010
1000
0001
0100
0001
1000
0100
1000
0010
,
1000
0001
0100
0010
0100
0001
1000
0100
0010
0001
1000
0010
1000
0100
0010
0100
,
1000
0001
0100
0001
1000
0001
0010
0100
1000
0001
1000
0010
0100
0001
0010
0001
,
1000
0010
0100
0001
1000
0100
0010
0001
1000
0010
1000
0001
0010
0001
0100
0001
,
1000
0010
0100
0010
0100
0001
1000
0100
0010
0001
1000
0100
1000
0010
1000
0001
,
0100
0010
0100
0001
0100
0001
1000
0100
0010
0100
1000
0001
0010
0001
0100
0001
,
1000
0010
0100
0001
1000
0010
1000
0010
0100
0001
1000
0100
1000
0010
1000
0001
,
0100
0010
1000
0001
0010
0001
0010
0100
1000
0001
0100
0010
1000
0100
1000
0001
,
0010
0001
0100
0010
0100
0010
1000
0001
0010
0100
1000
0001
0010
0001
0100
0001
,
1000
0010
0100
0010
1000
0010
1000
0001
0010
0100
0010
0001
1000
0100
1000
0010
,
1000
0001
0100
0010
1000
0001
0100
0001
0100
0010
1000
0001
0010
0001
0100
0001
,
1000
0010
0100
0001
1000
0100
1000
0001
0100
0010
1000
0001
0100
0001
0010
0001
,
1000
0010
0100
0001
1000
0001
0010
0001
1000
0100
1000
0001
0100
0001
0010
0001
,
1000
0100
0010
0100
1000
0001
0100
0010
1000
0001
0010
0001
0100
0010
0100
0001
,
1000
0100
1000
0001
1000
0010
0100
0001
1000
0001
0010
0100
1000
0010
1000
0001
,
0010
0100
1000
0001
0100
0010
1000
0001
0010
0001
1000
0010
1000
0100
1000
0001
,
0010
0001
0100
0010
1000
0001
1000
0100
1000
0001
0010
0001
1000
0010
1000
0100
,
1000
0001
0010
0100
0010
0001
1000
0010
0100
0001
1000
0100
1000
0010
0100
0010
,
1000
0001
0010
0001
1000
0001
0100
0010
1000
0001
1000
0100
0010
0001
0100
0001
,
1000
0100
0010
0001
1000
0010
0100
0001
1000
0100
1000
0001
0100
0001
0010
0001
,
1000
0010
0100
0001
0010
0100
1000
0001
0010
0001
0100
0010
0100
0001
1000
0100
,
1000
0001
0010
0100
1000
0001
0100
0010
0100
0001
1000
0100
1000
0010
0100
0001
,
1000
0001
0010
0001
0010
0100
1000
0001
0100
0010
1000
0100
1000
0001
0100
0001
,
1000
0100
0010
0001
1000
0001
0100
0010
0100
0001
1000
0001
0100
0001
0010
0100
,
1000
0001
0100
0010
1000
0100
0010
0001
1000
0100
1000
0010
0100
0010
1000
0001
,
0010
0001
1000
0100
0010
0001
1000
0010
0100
0010
1000
0001
0010
0001
0100
0010
,
1000
0001
1000
0100
1000
0100
0010
0001
1000
0010
0100
0001
0010
0001
1000
0010
,
1000
0001
0010
0100
1000
0001
1000
0010
0100
0010
1000
0001
1000
0010
1000
0100
,
0010
0001
0010
0001
1000
0001
0100
0010
1000
0001
1000
0001
0010
0100
1000
0001
,
0100
0010
1000
0001
0100
0010
0100
0001
1000
0100
1000
0010
0100
0010
1000
0001
,
0100
0010
0100
0010
1000
0001
0010
0100
1000
0001
1000
0001
0100
0010
1000
0001
,
0010
0100
1000
0001
0010
0100
0010
0001
1000
0010
1000
0100
0010
0100
1000
0001
,
0010
0100
1000
0100
1000
0001
1000
0010
0100
0001
1000
0001
1000
0100
0010
0001
,
1000
0010
0100
0001
1000
0010
0100
0010
1000
0001
0010
0001
0100
0010
1000
0100
,
1000
0010
0100
0010
0100
0001
1000
0100
0010
0001
1000
0001
1000
0010
0100
0001
,
1000
0100
0010
0001
1000
0100
0010
0100
1000
0001
0100
0001
0010
0100
0010
0001
,
0100
0010
1000
0001
1000
0100
1000
0001
0010
0001
1000
0010
1000
0100
1000
0001
,
0010
0100
0010
0001
1000
0010
0100
0001
1000
0100
1000
0010
0100
0010
1000
0001
,
0010
0001
1000
0001
0100
0010
1000
0001
1000
0100
0010
0001
0100
0001
1000
0100
,
0010
0001
1000
0010
0100
0001
1000
0100
1000
0001
0100
0001
0010
0001
1000
0100
,
1000
0010
0100
0001
1000
0001
0010
0001
1000
0100
1000
0001
0100
0001
0010
0001
,
1000
0100
0010
0100
1000
0001
0100
0010
1000
0001
0010
0001
0100
0010
0100
0001
,
1000
0100
1000
0001
1000
0010
0100
0001
1000
0001
0010
0100
1000
0010
1000
0001
,
0010
0100
1000
0001
0100
0010
1000
0001
0010
0001
1000
0010
1000
0100
1000
0001
,
0010
0100
0010
0100
1000
0001
0100
0010
1000
0001
0100
0001
0010
0001
1000
0100
,
0010
0100
1000
0100
1000
0001
0100
0010
0100
0001
1000
0010
1000
0100
1000
0001
,
0010
0100
1000
0001
0010
0001
0010
0100
1000
0001
0100
0001
0010
0001
1000
0100
,
0010
0001
1000
0010
1000
0010
0100
0001
1000
0100
0010
0001
0100
0001
1000
0010
,
1000
0100
0010
0100
0010
0001
1000
0010
0100
0001
1000
0010
1000
0100
1000
0001
,
0010
0100
0010
0001
0010
0001
1000
0010
0100
0010
1000
0001
0100
0001
0010
0001
,
1000
0100
0010
0001
1000
0100
1000
0100
0010
0001
1000
0010
1000
0100
1000
0001
,
0010
0100
1000
0001
0100
0001
1000
0100
0010
0001
1000
0100
1000
0010
1000
0001
,
0010
0100
1000
0001
1000
0010
1000
0001
0100
0001
1000
0100
1000
0010
1000
0001
,
0100
0010
0100
0001
1000
0100
0010
0001
1000
0010
1000
0100
0010
0100
1000
0001
,
0100
0001
1000
0001
0010
0100
1000
0001
1000
0010
0100
0001
0010
0001
1000
0010
,
0100
0001
1000
0100
0010
0001
1000
0010
1000
0001
0010
0001
0100
0001
1000
0010
,
1000
0100
0010
0001
1000
0001
0100
0001
1000
0010
1000
0001
0010
0001
0100
0001
,
1000
0010
0100
0010
1000
0001
0010
0100
1000
0001
0100
0001
0010
0100
0010
0001
,
1000
0010
1000
0001
1000
0100
0010
0001
1000
0001
0100
0010
1000
0100
1000
0001
,
0100
0010
1000
0001
0010
0100
1000
0001
0100
0001
1000
0100
1000
0010
1000
0001
,
0010
0000
0100
1000
0000
0001
0000
1000
0010
1000
0001
0000
0010
0100
1000
0000
,
0001
0000
0100
0010
0000
0100
0000
0001
0010
0001
1000
0000
0100
1000
0010
1000
,
0001
0000
0010
0100
0000
1000
0000
0001
0100
0001
1000
0000
0100
0010
0001
0000
,
1000
0000
0010
0100
0000
0010
0000
1000
0100
1000
0001
0000
1000
0010
0100
0001
;

//---------------dance-single - 16/16----------------
#NOTES:
     dance-single:
     16/16:
     Medium:
     12:
     1.000,1.000,0.000,0.000,1.000,878.000,0.000,0.000,0.000,0.000:
0000
0000
0000
0000
,
1000
0001
0010
0100
0010
0001
0100
0010
,
1000
0001
0010
0001
1000
0010
0100
0001
,
0010
0001
1000
0100
1000
0001
0100
0010
,
1000
0100
1000
0010
0100
0010
1000
0100
,
0010
0100
1000
0001
0100
0001
0010
0100
,
1000
0010
1000
0001
0010
0100
1000
0010
,
0100
0001
1000
0100
1000
0001
0100
0001
,
1000
0010
1000
0100
1000
0001
0010
0001
,
1000
0100
0010
0001
1000
0001
0100
0001
1000
0010
1000
0001
0010
0001
0100
0001
,
1000
0010
0100
0010
1000
0001
0010
0100
1000
0001
0100
0001
0010
0100
0010
0001
,
1000
0010
1000
0001
1000
0100
0010
0001
1000
0001
0100
0010
1000
0100
1000
0001
,
0100
0010
1000
0001
0010
0100
1000
0001
0100
0001
1000
0100
1000
0010
1000
0001
,
0100
0001
0010
0100
1000
0001
1000
0010
1000
0001
0100
0001
1000
0100
1000
0010
,
1000
0001
0100
0010
0100
0001
1000
0100
0010
0001
1000
0010
1000
0100
0010
0100
,
1000
0001
0100
0001
1000
0001
0010
0100
1000
0001
1000
0010
0100
0001
0010
0001
,
1000
0010
0100
0001
1000
0100
0010
0001
1000
0010
1000
0001
0010
0001
0100
0001
,
1000
0010
0100
0010
0100
0001
1000
0100
0010
0001
1000
0100
1000
0010
1000
0001
,
0100
0010
0100
0001
0100
0001
1000
0100
0010
0100
1000
0001
0010
0001
0100
0001
,
1000
0010
0100
0001
1000
0010
1000
0010
0100
0001
1000
0100
1000
0010
1000
0001
,
0100
0010
1000
0001
0010
0001
0010
0100
1000
0001
0100
0010
1000
0100
1000
0001
,
0010
0001
0100
0010
0100
0010
1000
0001
0010
0100
1000
0001
0010
0001
0100
0001
,
1000
0010
0100
0010
1000
0010
1000
0001
0010
0100
0010
0001
1000
0100
1000
0010
,
1000
0001
0100
0010
1000
0001
0100
0001
0100
0010
1000
0001
0010
0001
0100
0001
,
1000
0010
0100
0001
1000
0100
1000
0001
0100
0010
1000
0001
0100
0001
0010
0001
,
1000
0100
0010
0100
1000
0001
0100
0010
,
0100
0001
1000
0100
1000
0001
0100
0001
,
0010
0001
1000
0100
0010
0001
1000
0001
,
0100
0010
1000
0001
0010
0100
0010
0001
,
1000
0010
0100
0010
1000
0100
1000
0001
,
0010
0001
0100
0001
1000
0100
0010
0100
,
1000
0001
1000
0010
0100
0001
1000
0001
,
0010
0100
1000
0001
0100
0001
1000
0010
,
0100
0001
1000
0100
0010
0001
1000
0100
,
1000
0001
0100
0010
1000
0001
0010
0001
,
1000
0100
1000
0010
0100
0001
0010
0001
,
1000
0100
0010
0100
1000
0001
0100
0010
,
0100
0001
1000
0100
0010
0001
1000
0010
,
0100
0001
1000
0100
1000
0001
0100
0010
,
0100
0001
0010
0001
1000
0100
1000
0010
,
0100
0010
1000
0001
0010
0100
1000
0001
,
1000
0001
0010
0001
1000
0001
0100
0010
1000
0001
1000
0001
0010
0100
1000
0001
,
0100
0010
1000
0001
0100
0010
0100
0001
1000
0100
1000
0010
0100
0010
1000
0001
,
0100
0010
0100
0010
1000
0001
0010
0100
1000
0001
1000
0001
0100
0010
1000
0001
,
0010
0100
1000
0001
0010
0100
0010
0001
1000
0010
1000
0100
0010
0100
1000
0001
,
0010
0100
1000
0100
1000
0001
1000
0010
0100
0001
1000
0001
1000
0100
0010
0001
,
1000
0010
0100
0001
1000
0010
0100
0010
1000
0001
0010
0001
0100
0010
1000
0100
,
1000
0010
0100
0010
0100
0001
1000
0100
0010
0001
1000
0001
1000
0010
0100
0001
,
1000
0100
0010
0001
1000
0100
0010
0100
1000
0001
0100
0001
0010
0100
0010
0001
,
0100
0010
1000
0001
1000
0100
1000
0001
0010
0001
1000
0010
1000
0100
1000
0001
,
0010
0100
0010
0001
1000
0010
0100
0001
1000
0100
1000
0010
0100
0010
1000
0001
,
0010
0001
1000
0001
0100
0010
1000
0001
1000
0100
0010
0001
0100
0001
1000
0100
,
0010
0001
1000
0010
0100
0001
1000
0100
1000
0001
0100
0001
0010
0001
1000
0100
,
1000
0010
0100
0001
1000
0001
0010
0001
1000
0100
1000
0001
0100
0001
0010
0001
,
1000
0100
0010
0100
1000
0001
0100
0010
1000
0001
0010
0001
0100
0010
0100
0001
,
1000
0100
1000
0001
1000
0010
0100
0001
1000
0001
0010
0100
1000
0010
1000
0001
,
0010
0100
1000
0001
0100
0010
1000
0001
0010
0001
1000
0010
1000
0100
1000
0001
,
0010
0100
1000
0010
1000
0001
0010
0100
,
0010
0001
1000
0010
1000
0001
0010
0001
,
0100
0001
1000
0010
0100
0001
1000
0001
,
0010
0100
1000
0001
0100
0010
0100
0001
,
1000
0100
0010
0100
1000
0010
1000
0001
,
0100
0001
0010
0001
1000
0010
0100
0010
,
1000
0001
1000
0100
0010
0001
1000
0001
,
0100
0010
1000
0001
0010
0001
1000
0100
,
0010
0001
1000
0010
0100
0001
1000
0010
,
1000
0001
0010
0100
1000
0001
0100
0001
,
1000
0010
1000
0100
0010
0001
0100
0001
,
1000
0010
0100
0010
1000
0001
0010
0100
,
0010
0001
1000
0010
0100
0001
1000
0100
,
0010
0001
1000
0010
1000
0001
0010
0100
,
0010
0001
0100
0001
1000
0010
1000
0100
,
0010
0100
1000
0001
0100
0010
1000
0001
,
1000
0000
0100
1000
0000
0001
0000
1000
0010
1000
0001
0000
0010
0100
1000
0000
,
0001
0000
0100
0010
0000
0100
0000
0001
0010
0001
1000
0000
0100
1000
0010
1000
,
0001
0000
0010
0100
0000
1000
0000
0001
0100
0001
1000
0000
0100
0010
0001
0000
,
1000
0000
0010
0100
0000
0010
0000
1000
0100
1000
0001
0000
1000
0010
0100
0001
;

//---------------dance-single - 8/8/32----------------
#NOTES:
     dance-single:
     8/8/32:
     Hard:
     13:
     1.000,1.000,0.000,0.000,1.000,1006.000,0.000,0.000,0.000,0.000:
0000
0000
0000
0000
,
1000
0001
0010
0100
0010
0001
0100
0010
,
1000
0001
0010
0001
1000
0010
0100
0001
,
0010
0001
1000
0100
1000
0001
0100
0010
,
1000
0100
1000
0010
0100
0010
1000
0100
,
0010
0100
1000
0001
0100
0001
0010
0100
,
1000
0010
1000
0001
0010
0100
1000
0010
,
0100
0001
1000
0100
1000
0001
0100
0001
,
1000
0010
1000
0100
1000
0001
0010
0001
,
1000
0100
0010
0001
1000
0001
0100
0001
1000
0010
1000
0001
0010
0001
0100
0001
,
1000
0010
0100
0010
1000
0001
0010
0100
1000
0001
0100
0001
0010
0100
0010
0001
,
1000
0010
1000
0001
1000
0100
0010
0001
1000
0001
0100
0010
1000
0100
1000
0001
,
0100
0010
1000
0001
0010
0100
1000
0001
0100
0001
1000
0100
1000
0010
1000
0001
,
0100
0001
0010
0100
1000
0001
1000
0010
1000
0001
0100
0001
1000
0100
1000
0010
,
1000
0001
0100
0010
0100
0001
1000
0100
0010
0001
1000
0010
1000
0100
0010
0100
,
1000
0001
0100
0001
1000
0001
0010
0100
1000
0001
1000
0010
0100
0001
0010
0001
,
1000
0010
0100
0001
1000
0100
0010
0001
1000
0010
1000
0001
0010
0001
0100
0001
,
0010
0001
1000
0010
0100
0001
1000
0010
,
1000
0001
0010
0100
1000
0001
0100
0001
,
1000
0010
1000
0100
0010
0001
0100
0001
,
1000
0010
0100
0010
1000
0001
0010
0100
,
0010
0001
1000
0010
0100
0001
1000
0100
,
0010
0001
1000
0010
1000
0001
0010
0100
,
0010
0001
0100
0001
1000
0010
1000
0100
,
0010
0100
1000
0001
0100
0010
1000
0001
,
1000
0010
0100
0001
1000
0001
0010
0001
1000
0100
1000
0001
0100
0001
0010
0001
,
1000
0100
0010
0100
1000
0001
0100
0010
1000
0001
0010
0001
0100
0010
0100
0001
,
1000
0100
1000
0001
1000
0010
0100
0001
1000
0001
0010
0100
1000
0010
1000
0001
,
0010
0100
1000
0001
0100
0010
1000
0001
0010
0001
1000
0010
1000
0100
1000
0001
,
0010
0001
0100
0010
1000
0001
1000
0100
1000
0001
0010
0001
1000
0010
1000
0100
,
1000
0001
0010
0100
0010
0001
1000
0010
0100
0001
1000
0100
1000
0010
0100
0010
,
1000
0001
0010
0001
1000
0001
0100
0010
1000
0001
1000
0100
0010
0001
0100
0001
,
1000
0100
0010
0001
1000
0010
0100
0001
1000
0100
1000
0001
0100
0001
0010
0001
,
0100
0001
1000
0100
0010
0001
1000
0100
,
1000
0001
0100
0010
1000
0001
0010
0001
,
1000
0100
1000
0010
0100
0001
0010
0001
,
1000
0100
0010
0100
1000
0001
0100
0010
,
0100
0001
1000
0100
0010
0001
1000
0010
,
0100
0001
1000
0100
1000
0001
0100
0010
,
0100
0001
0010
0001
1000
0100
1000
0010
,
0100
0010
1000
0001
0010
0100
1000
0001
,
1000
0001
0010
0001
1000
0001
0100
0010
1000
0001
1000
0001
0010
0100
1000
0001
,
0100
0010
1000
0001
0100
0010
0100
0001
1000
0100
1000
0010
0100
0010
1000
0001
,
0100
0010
0100
0010
1000
0001
0010
0100
1000
0001
1000
0001
0100
0010
1000
0001
,
0010
0100
1000
0001
0010
0100
0010
0001
1000
0010
1000
0100
0010
0100
1000
0001
,
0010
0100
1000
0100
1000
0001
1000
0010
0100
0001
1000
0001
1000
0100
0010
0001
,
1000
0010
0100
0001
1000
0010
0100
0010
1000
0001
0010
0001
0100
0010
1000
0100
,
1000
0010
0100
0010
0100
0001
1000
0100
0010
0001
1000
0001
1000
0010
0100
0001
,
1000
0100
0010
0001
1000
0100
0010
0100
1000
0001
0100
0001
0010
0100
0010
0001
,
0100
0010
1000
0001
1000
0100
1000
0001
0010
0001
1000
0010
1000
0100
1000
0001
,
0010
0100
0010
0001
1000
0010
0100
0001
1000
0100
1000
0010
0100
0010
1000
0001
,
0010
0001
1000
0001
0100
0010
1000
0001
1000
0100
0010
0001
0100
0001
1000
0100
,
0010
0001
1000
0010
0100
0001
1000
0100
1000
0001
0100
0001
0010
0001
1000
0100
,
1000
0010
0100
0001
1000
0001
0010
0001
1000
0100
1000
0001
0100
0001
0010
0001
,
1000
0100
0010
0100
1000
0001
0100
0010
1000
0001
0010
0001
0100
0010
0100
0001
,
1000
0100
1000
0001
1000
0010
0100
0001
1000
0001
0010
0100
1000
0010
1000
0001
,
0010
0100
1000
0001
0100
0010
1000
0001
0010
0001
1000
0010
1000
0100
1000
0001
,
0010
0100
0010
0100
1000
0001
0100
0010
1000
0001
0100
0001
0010
0001
1000
0100
,
0010
0100
1000
0100
1000
0001
0100
0010
0100
0001
1000
0010
1000
0100
1000
0001
,
0010
0100
1000
0001
0010
0001
0010
0100
1000
0001
0100
0001
0010
0001
1000
0100
,
0010
0001
1000
0010
1000
0010
0100
0001
1000
0100
0010
0001
0100
0001
1000
0010
,
1000
0100
0010
0100
0010
0001
1000
0010
0100
0001
1000
0010
1000
0100
1000
0001
,
0010
0100
0010
0001
0010
0001
1000
0010
0100
0010
1000
0001
0100
0001
0010
0001
,
1000
0100
0010
0001
1000
0100
1000
0100
0010
0001
1000
0010
1000
0100
1000
0001
,
0010
0100
1000
0001
0100
0001
1000
0100
0010
0001
1000
0100
1000
0010
1000
0001
,
0010
0100
1000
0001
1000
0010
1000
0001
0100
0001
1000
0100
1000
0010
1000
0001
,
0100
0010
0100
0001
1000
0100
0010
0001
1000
0010
1000
0100
0010
0100
1000
0001
,
0100
0001
1000
0001
0010
0100
1000
0001
1000
0010
0100
0001
0010
0001
1000
0010
,
0100
0001
1000
0100
0010
0001
1000
0010
1000
0001
0010
0001
0100
0001
1000
0010
,
1000
0100
0010
0001
1000
0001
0100
0001
1000
0010
1000
0001
0010
0001
0100
0001
,
1000
0010
0100
0010
1000
0001
0010
0100
1000
0001
0100
0001
0010
0100
0010
0001
,
1000
0010
1000
0001
1000
0100
0010
0001
1000
0001
0100
0010
1000
0100
1000
0001
,
0100
0010
1000
0001
0010
0100
1000
0001
0100
0001
1000
0100
1000
0010
1000
0001
,
0010
0000
0100
1000
0000
0001
0000
1000
0010
1000
0001
0000
0010
0100
1000
0000
,
0001
0000
0100
0010
0000
0100
0000
0001
0010
0001
1000
0000
0100
1000
0010
1000
,
0001
0000
0010
0100
0000
1000
0000
0001
0100
0001
1000
0000
0100
0010
0001
0000
,
1000
0000
0010
0100
0000
0010
0000
1000
0100
1000
0001
0000
1000
0010
0100
0001
;
