#TITLE:How Many Nights For Xmas;
#SUBTITLE:;
#ARTIST:DJ Sharpnel;
#TITLETRANSLIT:;
#SUBTITLETRANSLIT:;
#ARTISTTRANSLIT:;
#CREDIT:;
#BANNER:how many bns.png;
#BACKGROUND:how many bgs.png;
#LYRICSPATH:;
#CDTITLE:;
#MUSIC:How Many Nights For Xmas.ogg;
#OFFSET:-0.073;
#SAMPLESTART:58.551;
#SAMPLELENGTH:19.591;
#SELECTABLE:YES;
#DISPLAYBPM:196.000;
#BPMS:0.000=196.000,238.000=294.000,238.750=98.000,239.000=196.000,285.000=98.000,285.500=196.000,286.000=392.000,287.000=196.000,318.000=392.000,319.000=196.000,366.000=294.000,366.750=98.000,367.000=196.000,398.000=294.000,398.750=98.000,399.000=196.000,479.000=260.000,479.125=250.000,479.250=240.000,479.375=230.000,479.500=220.000,479.625=210.000,479.750=200.000,479.875=190.000,480.000=180.000,480.125=170.000,480.250=160.000,480.375=150.000,480.500=135.000,480.750=120.000,481.000=115.000,481.250=110.000,481.500=108.000,481.750=106.000,482.000=103.500,482.250=100.000,482.500=98.000,518.000=49.000,519.000=196.000;
#STOPS:62.500=0.306
,318.000=0.153
;
#BGCHANGES:;
// cache tags:
#FIRSTBEAT:32.000;
#LASTBEAT:647.500;
#SONGFILENAME:Songs/SHARPNELSTREAMZ v2/How Many Nights For Xmas/How Many Nights.sm;
#HASMUSIC:1;
#HASBANNER:1;
#MUSICLENGTH:216.816;
// end cache tags

//---------------dance-single - 14- (TYLR)----------------
#NOTES:
     dance-single:
     14- (TYLR):
     Challenge:
     14:
     1.000,1.000,0.392,0.268,1.000,1511.000,85.000,58.000,30.000,0.000:
0000
0000
0000
0000
,
0000
0000
0000
0000
,
0000
0000
0000
0000
,
0000
0000
0000
0000
,
0000
0000
0000
0000
,
0000
0000
0000
0000
,
0000
0000
0000
0000
,
0000
0000
0000
0000
,
1001
0001
0010
0001
1000
0001
0100
0010
,
1000
0010
0100
0001
1000
0001
0010
0100
,
0010
0001
10M0
0001
M100
0010
10M0
0M01
,
M010
0100
1000
0001
0100
0001
0000
0000
,
1000
0100
0010
0001
0100
0001
1000
0100
,
1000
0010
0100
0001
1000
0001
0100
0010
,
1000
0100
0010
0001
1000
0001
0010
0001
,
0000
0001
0000
0001
0000
0001
1001
1000
,
0010
0000
0100
0000
0001
1000
0001
0000
0010
0000
0100
0000
1000
0000
1000
0000
,
0001
0010
0001
0000
0100
0001
0100
0000
0040
4000
0000
0030
3001
0000
0001
0000
,
0010
0000
0001
1000
0001
0100
0001
0000
1000
0000
0010
0000
0100
0000
0100
0001
,
1000
0000
0000
0000
0004
0040
0000
0003
0430
4000
0000
0300
3001
0000
0001
0000
,
0100
0000
0000
0010
1000
0010
1000
0000
0001
1000
0000
0001
0010
0000
0010
0000
,
0400
4000
0000
0300
3001
0000
0001
0000
0010
0000
0001
0000
0100
0000
0100
0000
,
0010
1000
0010
0100
0001
0000
0001
0000
4000
0004
0000
3000
0013
0000
0010
0000
,
0100
0010
0000
0000
0000
0001
1001
1000
,
0010
0000
1000
0001
0040
0400
0000
0030
1300
0000
0100
0000
0010
0000
0010
0000
,
0001
0000
1000
0000
0001
0100
0001
0000
1000
0000
0010
0000
1000
0000
1000
0000
,
0004
4000
0000
0003
3100
0010
0100
0000
1000
0000
0001
0000
1000
0000
1000
0000
,
0200
0000
0000
0000
1300
0100
1000
0000
0004
4000
0000
0003
3010
0100
0001
0000
,
1000
0000
0010
1000
0001
1000
0001
0000
0010
0000
0001
0010
0100
0000
0100
0000
,
1000
0001
1000
0001
0100
0010
1000
0000
0004
4000
0000
0003
3010
0000
0010
0000
,
1000
0000
0010
1000
0001
1000
0001
0000
0010
0000
0001
0000
1000
0001
1000
0001
,
0100
0010
1000
0000
0004
4000
0000
0000
0000
0000
3003
0000
1001
0000
0001
0000
,
1000
0000
0001
0000
1000
0000
0010
0000
0100
0000
0001
1000
0100
0000
1000
0000
,
0000
0000
0000
0000
0000
1000
0001
1000
,
0001
1000
0001
1000
0010
0100
0001
0000
,
0000
0000
0000
0000
MMMM
0001
0010
0001
,
1000
0000
0001
0000
0010
0000
0001
0000
0100
0010
1000
0001
0010
0000
0100
0000
,
0000
0000
0000
0000
0000
0000
1000
0001
1000
0010
0100
0000
0001
0000
0100
0000
,
0000
0000
0000
0010
1000
0010
0100
0000
0001
1000
0000
0001
0100
0000
0000
0000
,
0000
0000
0000
0000
0000
0000
0000
0000
0004
4000
0000
0003
3010
0000
0100
0000
,
0001
0000
1000
0000
0100
0000
1000
0000
0010
0000
0100
0001
1000
0000
0100
0000
,
M010
0000
0000
0000
0001
0000
1000
0001
1000
0001
0000
0001
0100
0000
0001
0000
,
0100
0001
0000
0001
0010
0100
1000
0000
,
0000
0000
0000
0000
0000
0000
0000
0000
0000
0000
0001
0000
0100
0001
0000
0100
,
0000
0000
0010
0000
1000
0000
0010
1000
0000
0000
0001
0000
0010
0000
0010
0000
,
0100
0000
0100
0000
0010
0001
0010
0000
0100
1000
0001
0000
0000
0000
0001
0000
,
0100
0000
0001
0000
0100
0000
0010
0000
0010
1000
0000
0001
0000
0000
1000
0100
,
1000
0000
0001
0010
0001
1000
0001
1000
0200
0000
0300
0000
2001
0000
3100
0000
,
1002
0103
2001
3100
0010
0100
1000
0001
,
0100
0000
0001
0000
1000
0001
1000
0001
0010
0000
0100
0000
0010
0001
0010
0100
,
1000
0000
0001
0000
0010
0001
0010
0001
1000
0000
0001
0000
0100
0000
0010
0000
,
0100
0000
0001
0000
1000
0001
1000
0001
0020
0000
0030
0000
2001
0000
3100
0000
,
1002
0103
2001
3100
0010
0100
1000
0001
,
0010
0000
0001
0000
1000
0000
0001
0000
0100
0001
0100
0001
1000
0000
0001
0000
,
1000
0000
0100
0000
1000
0001
0100
0010
1000
0000
0001
0000
0100
0000
0001
1000
,
0001
0000
1000
0000
0001
1000
0001
1000
0200
0000
0000
0000
0310
0000
0010
0000
,
0001
1000
0001
0100
0010
0000
0010
0000
1000
0010
0100
0001
1000
0000
1000
0000
,
0100
0010
0100
1000
0001
0000
0001
0000
0100
0001
1000
0100
0010
0000
0010
0000
,
0001
0010
0100
1000
0010
0000
0010
0000
0010
0000
0010
0000
0200
0000
0001
0300
,
0200
0000
0002
0300
2000
0003
0000
0000
3200
0000
0000
0000
0310
0000
0010
0000
,
0100
0010
0001
1000
0010
0000
0010
0000
0100
0010
0100
0001
1000
0000
1000
0000
,
0100
1000
0001
0100
0010
0000
0010
0000
0100
0001
0100
0001
1000
0000
1000
0000
,
1000
0100
0010
0001
1000
0000
1000
0000
1000
0000
1000
0000
1010
0000
0010
0100
,
0001
0000
1000
0000
0100
0010
0100
0010
0002
0000
0000
0003
0101
0000
0100
0000
,
0101
0001
0101
0100
0010
1000
1001
0001
,
1001
1000
1001
0001
0010
0100
1100
1000
,
1100
0100
1100
1000
0001
1000
0010
0100
,
0001
0000
0100
0000
0010
0000
1000
0001
0000
1000
0010
0000
0110
0000
0100
0000
,
0110
0010
0110
0100
0001
1000
1001
0001
,
1001
1000
1001
0001
0010
0100
1100
1000
,
1100
0100
1100
1000
0001
1000
0200
0320
,
0031
0020
0200
0000
0330
0000
1001
1000
,
1001
0001
1001
1000
0100
0010
0011
0001
,
0011
0010
0011
0001
1000
0010
0110
0100
,
0110
0010
0110
0100
0001
0100
0010
1000
,
0001
0000
1000
0000
0100
0000
1000
0001
0000
1000
0010
0000
0110
0000
0100
0000
,
0110
0010
0110
0100
0001
1000
1100
0100
,
1100
1000
1100
0100
0010
0001
1001
1000
,
1001
0001
1001
1000
0010
0100
0201
0302
,
1003
0002
0020
0000
0033
0000
1100
0000
,
1000
0000
0001
0000
0010
0000
0100
1000
0000
0001
0000
0001
0000
0000
0000
0000
,
1000
0000
0001
0000
0010
0000
0100
1000
0000
0010
0000
0200
0000
0000
0310
0000
,
1000
0000
0001
0000
0010
0100
0000
1000
0000
0001
0000
1000
0000
0000
0000
0000
,
0001
1000
0010
0000
0100
0000
0101
0000
,
0100
0000
0010
0000
1000
0000
0010
0100
0000
0001
0000
0001
0000
0000
0000
0000
,
1000
0000
0001
0000
0100
0001
0000
1000
0000
0100
0000
0020
0000
0000
0130
0000
,
1000
0000
0100
0000
0010
0001
0000
1000
0000
0010
0000
0200
0000
0000
0000
0000
,
0000
0000
0000
0000
0301
0000
0000
0000
4000
0004
0000
3000
0013
0000
0001
0000
,
0010
0100
1000
0100
0010
0000
0001
0000
1000
0010
0100
0001
1000
0000
0001
0000
,
0100
0010
1000
0100
0010
0000
0001
0000
1000
0001
0010
0100
1000
0000
0001
0000
,
1000
0000
0010
0000
0100
0000
0001
0000
1000
0000
0000
0000
0001
0000
0000
0000
1000
0000
0000
0000
0001
0000
0000
0000
0200
0000
0000
0000
0000
0000
0000
0300
,
0200
0301
1000
0000
1002
0000
0013
0001
,
1000
0100
0010
0001
1000
0000
0001
0000
0010
0100
1000
0001
0100
0000
0001
0000
,
1000
0100
0010
0001
1000
0000
0010
0000
1000
0100
0010
0001
0100
0000
0001
0000
,
0010
0100
1000
0001
1000
0000
0001
0000
1000
0000
0001
0000
0020
0000
0130
1000
,
0100
0000
0010
0000
0001
1000
0001
1000
0020
0000
0000
0000
0130
0000
0100
0000
,
0002
0000
0000
0000
0103
0000
0100
0000
0010
1000
0010
0100
0001
0000
0001
0000
,
1000
0001
0100
0010
1000
0000
1000
0000
0002
0000
1003
0000
0010
0000
0010
0000
,
0200
0000
0000
0000
0301
0000
0000
0000
1000
0000
0000
0000
1000
0000
0000
0000
0001
0000
0010
0000
0001
0000
0010
0000
0200
0000
0000
0000
0000
0000
0000
0300
,
0200
0000
0000
0000
0000
0000
0000
0300
0200
0000
0000
0000
0000
0000
0000
0300
2000
0000
0000
0000
0000
0000
0000
0000
3001
0000
0000
0000
0001
0000
0000
0000
,
2000
3001
0100
0100
0020
0000
1030
1000
,
0010
0100
0001
1000
0010
0000
0010
0000
0200
0000
0310
0000
1000
0000
1000
0000
,
0001
1000
0001
0010
0100
0000
0100
0000
1000
0000
1000
0000
2002
0000
0000
0000
,
0000
0000
0000
0003
3001
0010
0100
1000
0004
4000
0000
0003
3010
0000
1000
0100
,
1000
0001
0100
0000
0010
0000
0100
0001
1000
0000
0001
0000
0100
0000
0010
0100
,
0001
1000
0010
1000
0001
0000
0100
0001
0010
0000
0100
0000
1000
0000
0001
0010
,
0001
1000
0010
0000
0100
0000
0001
1000
0001
0000
0100
0000
0020
0000
0000
0000
,
1000
0000
0000
0000
0001
0000
0000
0000
1030
0000
0000
0000
0001
0000
1000
0010
,
1000
0001
0010
0000
0100
0000
0010
0001
1000
0000
0001
0000
0010
0000
0100
0010
,
0001
1000
0100
1000
0001
0000
0010
0001
0100
0000
0010
0000
1000
0000
0001
0100
,
0001
1000
0100
0000
0010
0000
0001
1000
0001
0000
0100
0000
0020
0000
0000
0000
,
1000
0000
0000
0000
0001
0000
0000
0000
4030
0040
0000
3000
0130
0000
0001
1000
,
0001
0100
0020
0000
1030
0000
0100
0010
0001
0000
1000
0000
0100
0000
0010
0100
,
1000
0001
0100
0001
1000
0000
0010
1000
0100
0000
0010
0000
0001
0000
1000
0100
,
1000
0001
0100
0000
0010
0000
1000
0001
1000
0000
0010
0000
0200
0000
0000
0000
,
0001
0000
0000
0000
1000
0000
0000
0000
0301
0000
0000
0000
1000
0000
0001
0100
,
0001
1000
0100
0000
0010
0000
0100
1000
0001
0000
1000
0000
0100
0000
0010
0100
,
1000
0001
0010
0001
1000
0000
0100
1000
0010
0000
0100
0000
0001
0000
1000
0010
,
1000
0001
0010
0000
0100
0000
1000
0001
1000
0000
0100
0000
0020
0000
0000
0000
,
0001
0000
0000
0000
1000
0000
0000
0000
0034
0040
0000
0003
0230
0000
0000
0000
,
0000
0000
0000
0000
0000
1300
0100
0010
,
0001
1000
1010
0000
0001
0100
0110
0010
,
1000
0001
0011
0000
0010
0100
1100
1000
,
0010
0100
0101
0001
1000
0100
0110
0010
,
0001
0000
0000
0000
1000
0000
0000
0000
1010
0000
0000
0000
0000
0000
0000
0000
0001
0000
0000
0000
0100
0000
0000
0000
0110
0000
0000
0000
0010
1000
0010
1000
,
0010
0000
0100
0000
0001
0000
1000
0000
1001
0000
0001
0000
0010
0000
0001
0000
1000
0000
0100
0000
0010
0000
0001
0000
1000
0010
1000
0010
0100
0001
0100
0001
,
1000
0000
0001
0000
0100
0000
0010
0000
1010
0000
1000
0000
0001
0000
0010
0000
0100
1000
0100
1000
0001
1000
0001
1000
0010
0000
0100
0000
0001
0000
0100
0000
,
0010
0000
1000
0000
0010
0000
1000
0000
1010
0000
0010
0000
0100
0001
0100
0001
1000
0000
0001
0000
0100
0000
0010
0000
1010
0000
1000
0000
0001
1000
0001
1000
,
0100
0010
0001
1000
1001
0001
0100
0010
1000
0010
1000
0010
0110
0100
0001
0000
,
4004
0000
0000
0000
0000
0000
0000
0000
0000
0000
0000
0000
0000
0000
0000
0000
0000
0000
0000
0000
0000
0000
0000
0000
0000
0000
0000
0000
0000
0000
0000
0000
0000
0000
0000
0000
0000
0000
0000
0000
0000
0000
0000
0000
0000
0000
0000
0000
0000
0000
0000
0000
0000
0000
0000
0000
0000
0000
0000
0000
0000
0000
0000
0000
0000
0000
0000
0000
0000
0000
0000
0000
0000
0000
0000
0000
0000
0000
0000
0000
0000
0000
0000
0000
0000
0000
0000
0000
0000
0000
0000
0000
0000
0000
0000
0000
3023
M00M
0000
0000
M00M
0000
0000
M00M
0000
0000
M00M
0000
0000
M00M
0000
0000
M00M
0000
0000
M00M
0000
0000
M00M
0000
0000
M00M
0000
0000
M00M
0000
0000
0000
0000
0000
0000
0000
0030
0000
0000
0000
0000
0000
0000
0000
0000
0000
0000
0000
0001
0000
0000
0000
0000
0000
0000
0000
0000
0000
0000
0000
0010
0000
0000
0000
0000
0000
0000
0000
0000
0000
0000
0000
0100
0000
0000
0000
0000
0000
0000
0000
0000
0000
0000
0000
1000
0000
0000
0000
0000
0000
0000
0000
0000
0000
0000
0000
,
0010
0100
0010
1000
0001
1000
0010
0100
0001
1000
0100
0010
0001
1000
0010
1000
,
0100
0010
0100
1000
0001
1000
0100
0010
0001
1000
0010
1000
0010
1000
0100
0010
,
0001
0010
0100
1000
0001
1000
0001
0010
0001
1000
0100
1000
0010
0100
0001
0010
,
0100
1000
0100
0010
0001
1000
0010
0100
0001
1000
0100
1000
0001
0100
0010
1000
,
0100
0010
0100
1000
0001
1000
0010
1000
0010
0100
0001
0100
0010
1000
0001
0010
,
0100
1000
0100
0010
0001
1000
0100
1000
0001
1000
0010
0100
0001
0010
0001
0010
,
0001
0010
0100
1000
0100
1000
0100
1000
0001
1000
0001
1000
0020
0000
1030
0000
,
0001
0000
0100
0000
0002
0000
0000
0000
4003
0000
0000
0000
3001
0010
0100
1000
,
0010
0100
0010
1000
0001
1000
0010
0100
0001
1000
0100
0010
0001
1000
0010
1000
,
0100
0010
0100
1000
0001
1000
0100
0010
0001
1000
0010
1000
0100
1000
0100
0010
,
0001
0010
0100
1000
0001
1000
0001
0010
0001
1000
0100
1000
0010
0100
0001
0010
,
0100
1000
0100
0010
0001
1000
0010
0100
0001
1000
0100
1000
0001
0100
0010
1000
,
0100
0010
0100
1000
0001
1000
0010
1000
0010
0100
0001
0100
0010
1000
0001
0010
,
0100
1000
0100
0010
0001
1000
0100
1000
0001
0100
0010
1000
0001
0010
0001
0010
,
0001
0010
0100
1000
0100
1000
0100
1000
0001
1000
0001
1000
0020
0000
0130
0000
,
0010
0000
1000
0000
0001
0000
0000
0000
4000
0000
0000
0000
3001
0010
0100
1000
,
0010
0100
0010
1000
0001
1000
0010
0100
0001
1000
0100
0010
0001
1000
0010
1000
,
0100
0010
0100
1000
0001
1000
0100
0010
0001
1000
0010
1000
0100
1000
0100
0010
,
0001
0010
0100
1000
0001
1000
0001
0010
0001
1000
0100
1000
0010
0100
0001
0010
,
0100
1000
0100
0010
0001
1000
0010
0100
0001
1000
0100
1000
0001
0100
0010
1000
,
0100
0010
0100
1000
0001
1000
0010
1000
0010
0100
0001
0100
0010
1000
0001
0010
,
0100
1000
0100
0010
0001
1000
0100
1000
0001
1000
0010
0100
0001
0010
0001
0010
,
0001
0010
0100
1000
0100
1000
0100
1000
0001
1000
0001
1000
0020
0000
1030
0000
,
0001
0000
0010
0000
0200
0000
0000
0000
4300
0000
0000
0000
3001
0010
0100
1000
,
0010
0100
0010
1000
0001
1000
0100
0010
0001
1000
0010
0100
0001
1000
0100
1000
,
0010
0100
0010
1000
0001
1000
0010
0100
0001
1000
0100
1000
0100
1000
0010
0100
,
0001
0100
0010
1000
0001
1000
0001
0100
0001
1000
0010
1000
0100
0010
0001
0100
,
0010
1000
0010
0100
0001
1000
0100
0010
0001
1000
0010
1000
0001
0010
0100
1000
,
0010
0100
0010
1000
0001
1000
0100
1000
0100
0010
0001
0010
0100
1000
0001
0100
,
0010
1000
0010
0100
0001
1000
0010
1000
0001
0010
0100
1000
0001
0100
0001
0100
,
0001
0100
0010
1000
0010
1000
0010
1000
0001
1000
0001
1000
0200
0000
1300
0000
,
0001
1000
0010
0000
4000
0000
3002
0003
;

//---------------dance-single - 12+ (CTalon)----------------
#NOTES:
     dance-single:
     12+ (CTalon):
     Hard:
     12:
     0.981,1.000,0.392,0.304,0.678,1321.000,85.000,66.000,30.000,0.000:
0000
0000
0000
0000
,
0000
0000
0000
0000
,
0000
0000
0000
0000
,
0000
0000
0000
0000
,
0000
0000
0000
0000
,
0000
0000
0000
0000
,
0000
0000
0000
0000
,
0000
0000
0000
0000
,
1001
0001
0010
0001
1000
0001
0100
0010
,
1000
0010
0100
0001
1000
0001
0010
0100
,
0010
0001
10M0
0001
M100
0010
10M0
0M01
,
M010
0100
1000
0001
0100
0001
0000
0000
,
1000
0100
0010
0001
0100
0001
1000
0100
,
1000
0010
0100
0001
1000
0001
0100
0010
,
1000
0100
0010
0001
1000
0001
0010
0001
,
0000
0001
0000
0001
0000
0001
1001
1000
,
0010
0000
0100
0000
0001
1000
0001
0000
0010
0000
0100
0000
1000
0000
1000
0000
,
0001
0010
0001
0000
0100
0001
0100
0000
0040
4000
0000
0030
3001
0000
0001
0000
,
0010
0000
0001
1000
0001
0100
0001
0000
1000
0000
0010
0000
0100
0000
0100
0001
,
1000
0000
0000
0000
0004
0040
0000
0003
0430
4000
0000
0300
3001
0000
0001
0000
,
0100
0000
0000
0010
1000
0010
1000
0000
0001
1000
0000
0001
0010
0000
0010
0000
,
0400
4000
0000
0300
3001
0000
0001
0000
0010
0000
0001
0000
0100
0000
0100
0000
,
0010
1000
0010
0100
0001
0000
0001
0000
4000
0004
0000
3000
0013
0000
0010
0000
,
0100
0010
0000
0000
0000
0001
1001
1000
,
0010
0000
1000
0001
0040
0400
0000
0030
1300
0000
0100
0000
0010
0000
0010
0000
,
0001
0000
1000
0000
0001
0100
0001
0000
1000
0000
0010
0000
1000
0000
1000
0000
,
0004
4000
0000
0003
3100
0010
0100
0000
1000
0000
0001
0000
1000
0000
1000
0000
,
0200
0000
0000
0000
1300
0100
1000
0000
0004
4000
0000
0003
3010
0100
0001
0000
,
1000
0000
0010
1000
0001
1000
0001
0000
0010
0000
0001
0010
0100
0000
0100
0000
,
1000
0001
1000
0001
0100
0010
1000
0000
0004
4000
0000
0003
3010
0000
0010
0000
,
1000
0000
0010
1000
0001
1000
0001
0000
0010
0000
0001
0000
1000
0001
1000
0001
,
0100
0010
1000
0000
0004
4000
0000
0000
0000
0000
3003
0000
1001
0000
0001
0000
,
1000
0000
0001
0000
1000
0000
0010
0000
0100
0000
0001
1000
0100
0000
1000
0000
,
0000
0000
0000
0000
0000
1000
0001
1000
,
0001
1000
0001
1000
0010
0100
0001
0000
,
0000
0000
0000
0000
MMMM
0001
0010
0001
,
1000
0000
0001
0000
0010
0000
0001
0000
0100
0010
1000
0001
0010
0000
0100
0000
,
0000
0000
0000
0000
0000
0000
1000
0001
1000
0010
0100
0000
0001
0000
0100
0000
,
0000
0000
0000
0010
1000
0010
0100
0000
0001
1000
0000
0001
0100
0000
0000
0000
,
0000
0000
0000
0000
0000
0000
0000
0000
0004
4000
0000
0003
3010
0000
0100
0000
,
0001
0000
1000
0000
0100
0000
1000
0000
0010
0000
0100
0001
1000
0000
0100
0000
,
M010
0000
0000
0000
0001
0000
1000
0001
1000
0001
0000
0001
0100
0000
0001
0000
,
0100
0001
0000
0001
0010
0100
1000
0000
,
0000
0000
0000
0000
0000
0000
0000
0000
0000
0000
0001
0000
0100
0001
0000
0100
,
0000
0000
0010
0000
1000
0000
0010
1000
0000
0000
0001
0000
0010
0000
0010
0000
,
0100
0000
0100
0000
0010
0001
0010
0000
0100
1000
0001
0000
0000
0000
0001
0000
,
0100
0000
0001
0000
0100
0000
0010
0000
0010
1000
0000
0001
0000
0000
1000
0100
,
1000
0000
0001
0010
0001
1000
0001
1000
0200
0000
0300
0000
2001
0000
3100
0000
,
1002
0103
2001
3100
0010
0100
1000
0001
,
0100
0000
0001
0000
1000
0001
1000
0001
0010
0000
0100
0000
0010
0001
0010
0100
,
1000
0000
0001
0000
0010
0001
0010
0001
1000
0000
0001
0000
0100
0000
0010
0000
,
0100
0000
0001
0000
1000
0001
1000
0001
0020
0000
0030
0000
2001
0000
3100
0000
,
1002
0103
2001
3100
0010
0100
1000
0001
,
0010
0000
0001
0000
1000
0000
0001
0000
0100
0001
0100
0001
1000
0000
0001
0000
,
1000
0000
0100
0000
1000
0001
0100
0010
1000
0000
0001
0000
0100
0000
0001
1000
,
0001
0000
1000
0000
0001
1000
0001
1000
0200
0000
0000
0000
0310
0000
0010
0000
,
0001
1000
0001
0100
0010
0000
0010
0000
1000
0010
0100
0001
1000
0000
1000
0000
,
0100
0010
0100
1000
0001
0000
0001
0000
0100
0001
1000
0100
0010
0000
0010
0000
,
0001
0010
0100
1000
0010
0000
0010
0000
0010
0000
0010
0000
0200
0000
0001
0300
,
0200
0000
0002
0300
2000
0003
0000
0000
3200
0000
0000
0000
0310
0000
0010
0000
,
0100
0010
0001
1000
0010
0000
0010
0000
0100
0010
0100
0001
1000
0000
1000
0000
,
0100
1000
0001
0100
0010
0000
0010
0000
0100
0001
0100
0001
1000
0000
1000
0000
,
1000
0100
0010
0001
1000
0000
1000
0000
1000
0000
1000
0000
1010
0000
0010
0100
,
0001
0000
1000
0000
0100
0010
0100
0010
0002
0000
0000
0003
0101
0000
0100
0000
,
0101
0001
0101
0100
0010
1000
1001
0001
,
1001
1000
1001
0001
0010
0100
1100
1000
,
1100
0100
1100
1000
0001
1000
0010
0100
,
0001
0000
0100
0000
0010
0000
1000
0001
0000
1000
0010
0000
0110
0000
0100
0000
,
0110
0010
0110
0100
0001
1000
1001
0001
,
1001
1000
1001
0001
0010
0100
1100
1000
,
1100
0100
1100
1000
0001
1000
0200
0320
,
0031
0020
0200
0000
0330
0000
1001
1000
,
1001
0001
1001
1000
0100
0010
0011
0001
,
0011
0010
0011
0001
1000
0010
0110
0100
,
0110
0010
0110
0100
0001
0100
0010
1000
,
0001
0000
1000
0000
0100
0000
1000
0001
0000
1000
0010
0000
0110
0000
0100
0000
,
0110
0010
0110
0100
0001
1000
1100
0100
,
1100
1000
1100
0100
0010
0001
1001
1000
,
1001
0001
1001
1000
0010
0100
0201
0302
,
1003
0002
0020
0000
0033
0000
1100
0000
,
1000
0000
0001
0000
0010
0000
0100
1000
0000
0001
0000
0001
0000
0000
0000
0000
,
1000
0000
0001
0000
0010
0000
0100
1000
0000
0010
0000
0200
0000
0000
0310
0000
,
1000
0000
0001
0000
0010
0100
0000
1000
0000
0001
0000
1000
0000
0000
0000
0000
,
0001
1000
0010
0000
0100
0000
0101
0000
,
0100
0000
0010
0000
1000
0000
0010
0100
0000
0001
0000
0001
0000
0000
0000
0000
,
1000
0000
0001
0000
0100
0001
0000
1000
0000
0100
0000
0020
0000
0000
0130
0000
,
1000
0000
0100
0000
0010
0001
0000
1000
0000
0010
0000
0200
0000
0000
0000
0000
,
0000
0000
0000
0000
0301
0000
0000
0000
4000
0004
0000
3000
0013
0000
0001
0000
,
0010
0100
1000
0100
0010
0000
0001
0000
1000
0010
0100
0001
1000
0000
0001
0000
,
0100
0010
1000
0100
0010
0000
0001
0000
1000
0001
0010
0100
1000
0000
0001
0000
,
1000
0000
0010
0000
0100
0000
0001
0000
1000
0000
0000
0000
0001
0000
0000
0000
1000
0000
0000
0000
0001
0000
0000
0000
0200
0000
0000
0000
0000
0000
0000
0300
,
0200
0301
1000
0000
1002
0000
0013
0001
,
1000
0100
0010
0001
1000
0000
0001
0000
0010
0100
1000
0001
0100
0000
0001
0000
,
1000
0100
0010
0001
1000
0000
0010
0000
1000
0100
0010
0001
0100
0000
0001
0000
,
0010
0100
1000
0001
1000
0000
0001
0000
1000
0000
0001
0000
0020
0000
0130
1000
,
0100
0000
0010
0000
0001
1000
0001
1000
0020
0000
0000
0000
0130
0000
0100
0000
,
0002
0000
0000
0000
0103
0000
0100
0000
0010
1000
0010
0100
0001
0000
0001
0000
,
1000
0001
0100
0010
1000
0000
1000
0000
0002
0000
1003
0000
0010
0000
0010
0000
,
0200
0000
0000
0000
0301
0000
0000
0000
1000
0000
0000
0000
1000
0000
0000
0000
0001
0000
0010
0000
0001
0000
0010
0000
0200
0000
0000
0000
0000
0000
0000
0300
,
0200
0000
0000
0000
0000
0000
0000
0300
0200
0000
0000
0000
0000
0000
0000
0300
2000
0000
0000
0000
0000
0000
0000
0000
3001
0000
0000
0000
0001
0000
0000
0000
,
2000
3001
0100
0100
0020
0000
1030
1000
,
0010
0100
0001
1000
0010
0000
0010
0000
0200
0000
0310
0000
1000
0000
1000
0000
,
0001
1000
0001
0010
0100
0000
0100
0000
1000
0000
1000
0000
2002
0000
0000
0000
,
0000
0000
0000
0003
3001
0010
0100
1000
0004
4000
0000
0003
3010
0000
1000
0100
,
1000
0001
0100
0000
0010
0000
0100
0001
1000
0000
0001
0000
0100
0000
0010
0100
,
0001
1000
0010
1000
0001
0000
0100
0001
0010
0000
0100
0000
1000
0000
0001
0010
,
0001
1000
0010
0000
0100
0000
0001
1000
0001
0000
0100
0000
0020
0000
0000
0000
,
1000
0000
0000
0000
0001
0000
0000
0000
1030
0000
0000
0000
0001
0000
1000
0010
,
1000
0001
0010
0000
0100
0000
0010
0001
1000
0000
0001
0000
0010
0000
0100
0010
,
0001
1000
0100
1000
0001
0000
0010
0001
0100
0000
0010
0000
1000
0000
0001
0100
,
0001
1000
0100
0000
0010
0000
0001
1000
0001
0000
0100
0000
0020
0000
0000
0000
,
1000
0000
0000
0000
0001
0000
0000
0000
4030
0040
0000
3000
0130
0000
0001
1000
,
0001
0100
0020
0000
1030
0000
0100
0010
0001
0000
1000
0000
0100
0000
0010
0100
,
1000
0001
0100
0001
1000
0000
0010
1000
0100
0000
0010
0000
0001
0000
1000
0100
,
1000
0001
0100
0000
0010
0000
1000
0001
1000
0000
0010
0000
0200
0000
0000
0000
,
0001
0000
0000
0000
1000
0000
0000
0000
0301
0000
0000
0000
1000
0000
0001
0100
,
0001
1000
0100
0000
0010
0000
0100
1000
0001
0000
1000
0000
0100
0000
0010
0100
,
1000
0001
0010
0001
1000
0000
0100
1000
0010
0000
0100
0000
0001
0000
1000
0010
,
1000
0001
0010
0000
0100
0000
1000
0001
1000
0000
0100
0000
0020
0000
0000
0000
,
0001
0000
0000
0000
1000
0000
0000
0000
0034
0040
0000
0003
0230
0000
0000
0000
,
0000
0000
0000
0000
0000
1300
0100
0010
,
0001
1000
1010
0000
0001
0100
0110
0010
,
1000
0001
0011
0000
0010
0100
1100
1000
,
0010
0100
0101
0001
1000
0100
0110
0010
,
0001
0000
0000
0000
1000
0000
0000
0000
1010
0000
0000
0000
0000
0000
0000
0000
0001
0000
0000
0000
0100
0000
0000
0000
0110
0000
0000
0000
0010
1000
0010
1000
,
0010
0000
0100
0000
0001
0000
1000
0000
1001
0000
0001
0000
0010
0000
0001
0000
1000
0000
0100
0000
0010
0000
0001
0000
1000
0010
1000
0010
0100
0001
0100
0001
,
1000
0000
0001
0000
0100
0000
0010
0000
1010
0000
1000
0000
0001
0000
0010
0000
0100
1000
0100
1000
0001
1000
0001
1000
0010
0000
0100
0000
0001
0000
0100
0000
,
0010
0000
1000
0000
0010
0000
1000
0000
1010
0000
0010
0000
0100
0001
0100
0001
1000
0000
0001
0000
0100
0000
0010
0000
1010
0000
1000
0000
0001
1000
0001
1000
,
0100
0010
0001
1000
1001
0001
0100
0010
1000
0010
1000
0010
0110
0100
0001
0000
,
4004
0000
0000
0000
0000
0000
0000
0000
0000
0000
0000
0000
0000
0000
0000
0000
0000
0000
0000
0000
0000
0000
0000
0000
0000
0000
0000
0000
0000
0000
0000
0000
0000
0000
0000
0000
0000
0000
0000
0000
0000
0000
0000
0000
0000
0000
0000
0000
0000
0000
0000
0000
0000
0000
0000
0000
0000
0000
0000
0000
0000
0000
0000
0000
0000
0000
0000
0000
0000
0000
0000
0000
0000
0000
0000
0000
0000
0000
0000
0000
0000
0000
0000
0000
0000
0000
0000
0000
0000
0000
0000
0000
0000
0000
0000
0000
3023
M00M
0000
0000
M00M
0000
0000
M00M
0000
0000
M00M
0000
0000
M00M
0000
0000
M00M
0000
0000
M00M
0000
0000
M00M
0000
0000
M00M
0000
0000
M00M
0000
0000
0000
0000
0000
0000
0000
0030
0000
0000
0000
0000
0000
0000
0000
0000
0000
0000
0000
0001
0000
0000
0000
0000
0000
0000
0000
0000
0000
0000
0000
0000
0000
0000
0000
0000
0000
0000
0000
0000
0000
0000
0000
1000
0000
0000
0000
0000
0000
0000
0000
0000
0000
0000
0000
0000
0000
0000
0000
0000
0000
0000
0000
0000
0000
0000
0000
,
0010
0100
0001
0010
0100
1000
0001
0100
,
0010
0000
1000
0000
0001
0000
1000
0000
0100
0010
0001
1000
0001
0000
0100
0000
,
0010
1000
0100
1000
0001
0010
0100
0010
,
0001
0000
1000
0000
0001
0010
0100
1000
0001
0100
0010
1000
0001
0000
0100
0000
,
0001
0010
0100
0010
0001
1000
0010
1000
,
0100
1000
0100
0010
0001
0000
0010
0000
0001
0000
1000
0000
0002
0000
0010
0000
,
1003
0002
0010
1003
0001
1000
0020
1030
,
0001
0100
0002
0000
4003
0000
3001
0010
,
0100
0000
0010
0000
0001
1000
0100
1000
0001
0100
0001
1000
0001
0000
0010
0000
,
0100
1000
0010
0100
0001
1000
0001
0010
,
0100
1000
0100
1000
0001
0000
0100
0000
0010
0000
1000
0000
0100
0000
1000
0000
,
0001
0010
0100
1000
0001
1000
0010
0100
,
0001
0010
0001
1000
0010
1000
0001
0010
,
0001
0000
0100
0000
0010
0000
1000
0000
0100
0010
0001
1000
0002
0000
0100
0000
,
1003
0002
0100
1003
0001
1000
0020
0130
,
0010
1000
0001
0000
4000
0000
3001
0100
,
0010
1000
0100
0010
0100
1000
0001
0100
,
0001
1000
0100
0010
0001
0010
0100
1000
0001
0000
0010
0000
0100
0000
1000
0000
,
0001
0000
0100
0000
0010
0000
1000
0000
0100
0000
0010
0000
0100
0010
0001
1000
,
0001
0000
0100
0000
0010
0000
1000
0000
0100
1000
0100
1000
0001
0000
0010
0000
,
0001
0000
0100
0000
0010
0000
1000
0000
0001
0100
0010
0100
0001
0000
1000
0000
,
0001
1000
0100
0010
0001
1000
0002
0010
,
1003
0002
0010
1003
0001
0100
0020
1030
,
0001
0010
0200
0000
4300
0000
3001
0100
,
0010
1000
0100
0010
0100
1000
0001
0100
,
0010
0000
1000
0000
0100
0000
1000
0000
0001
0010
0100
0010
0001
1000
0010
1000
,
0100
1000
0001
0100
0010
1000
0100
1000
,
0010
0000
0100
0000
0010
1000
0001
1000
0001
0000
0010
0000
0100
0000
1000
0000
,
0001
1000
0100
0010
0001
0100
0010
1000
,
0001
1000
0010
1000
0001
0000
0100
0000
0010
0000
1000
0000
0002
0000
0100
0000
,
1003
0002
0100
1003
0001
0010
0200
1300
,
0001
1000
0010
0000
4000
0000
3002
0003
;
