#TITLE:Lost;
#SUBTITLE:;
#ARTIST:Avenged Sevenfold;
#TITLETRANSLIT:;
#SUBTITLETRANSLIT:;
#ARTISTTRANSLIT:;
#CREDIT:;
#BANNER:lost.png;
#BACKGROUND:lost-bg.png;
#LYRICSPATH:;
#CDTITLE:;
#MUSIC:lost.ogg;
#OFFSET:0.000;
#SAMPLESTART:55.940;
#SAMPLELENGTH:12.000;
#SELECTABLE:YES;
#BPMS:0.000=180.000;
#STOPS:;
#BGCHANGES:;
// cache tags:
#FIRSTBEAT:16.000;
#LASTBEAT:315.000;
#SONGFILENAME:Songs/6a_Rock/Lost/lost.md;
#HASMUSIC:1;
#HASBANNER:1;
#MUSICLENGTH:107.926;
// end cache tags

//---------------dance-single - Renard----------------
#NOTES:
     dance-single:
     Renard:
     Hard:
     93:
     0.717,0.876,0.158,0.565,0.088,464.000,17.000,61.000,0.000,0.000:
0000
0000
0000
0000
,
0000
0000
0000
0000
,
0000
0000
0000
0000
,
0000
0000
0000
0000
,
0000
0000
0000
0000
,
0000
0000
0000
0000
,
0000
0000
0000
0000
,
0000
0000
0000
0000
,
0001
0000
0100
0000
0001
1000
0001
0000
0020
0000
1030
0000
0020
0000
0031
0000
,
0020
0130
0020
0031
0020
1030
0020
0031
,
1000
0000
0001
0000
0100
0001
0100
0000
0020
0000
1030
0000
0020
0000
0031
0000
,
0020
1030
0020
0130
0020
1030
0020
0031
,
0020
0000
1030
0100
0002
0000
0103
1000
,
0020
0000
0031
0010
0100
0001
0100
0010
,
2000
0000
3010
0100
0002
0000
0013
1000
,
0020
0000
0000
0000
0130
0000
1000
0000
0100
0000
0001
0000
0100
1000
0100
1000
,
0100
0000
0000
0000
,
0000
0000
0000
0000
0000
0000
1001
0110
,
1001
0000
0000
0000
,
0000
0000
0000
0000
0000
0000
1001
0110
,
1002
0000
0103
0010
1000
0100
0010
0001
,
0020
0000
0130
1000
0010
0100
0001
1000
,
0002
0000
0013
0100
2000
0000
3001
0100
,
0020
0000
1030
0010
0100
0001
0010
0100
,
2000
0000
3001
0100
0010
1000
0100
0010
,
0002
0000
0013
0100
1000
0010
0100
0000
,
0002
0000
0103
0010
2000
0000
3020
0000
,
0230
0000
0301
0010
0100
1000
0001
0000
,
2001
0000
3010
0100
0001
0010
0100
1000
,
0200
0000
0310
0001
0100
0010
1000
0001
,
2000
0000
3100
0010
0002
0000
1003
0010
,
0200
0000
0301
0100
0010
1000
0100
0010
,
0002
0000
1003
0010
0100
0001
0010
0100
,
2000
0000
3100
0010
0001
0100
0010
0000
,
2000
0000
3010
0100
0002
0000
0203
0000
,
0320
0000
1030
0100
0010
0001
1000
0000
,
0001
0100
0001
0100
0010
0100
0010
0100
,
0010
1000
0010
1000
0100
1000
0100
1000
,
0001
0010
0001
0010
0100
0010
0100
0010
,
0100
0000
1000
0000
0100
0000
1000
0000
0001
1000
0001
1000
0001
1000
0001
1000
,
0001
0100
0001
0100
0010
1000
0010
1000
,
0001
1000
0001
1000
0001
1000
0001
1000
0001
0000
0000
0000
1001
0000
0000
0000
,
0002
0000
0103
0010
1000
0100
0010
0001
,
0020
0000
0130
1000
0010
0100
0001
0010
,
0100
0000
0100
1000
0000
1000
0010
0100
,
0001
0000
0001
0010
0000
0010
0100
1000
,
0010
0000
0100
0001
0010
0100
1000
0001
,
0100
0000
0100
0010
1000
0100
0010
0001
,
0020
0000
0000
0230
0000
0000
2300
0000
,
3010
0100
0001
0100
0010
1000
0100
0010
,
0002
0000
0013
0100
1000
0001
0100
0010
,
2000
0000
3010
0100
0001
0010
0100
1000
,
0001
0000
0001
1000
0000
1000
0010
0000
,
0100
0000
0100
0001
0000
0001
1000
0000
,
0100
0010
0001
0010
0000
0010
0100
0000
,
1000
0010
0100
0001
0100
0010
1000
0000
,
0100
0000
0100
0010
0000
0010
0001
0000
,
1000
0000
0010
0000
0100
0000
0001
0000
0100
0000
0010
0000
1000
0001
1000
0001
,
1000
0100
0010
0001
0100
0010
2000
0000
,
3010
0100
0001
1000
0100
0010
0001
1000
,
0002
0000
0000
0103
0010
1000
0200
0000
,
0310
0001
0010
0100
1000
0001
0100
0010
,
2000
0000
3100
0020
0000
0031
2000
0000
,
3001
0100
0010
1000
0010
0100
0001
1000
,
0001
0010
1000
0010
0001
0100
1000
0100
,
0001
0100
0010
1000
0200
0000
0310
0001
,
1000
0100
0010
0001
0010
0100
1000
0100
,
0010
0001
0010
0100
1000
0100
0010
0001
,
1000
0010
0100
0001
0100
0010
1000
0010
,
0100
0001
0100
0010
1000
0010
0100
0001
,
1000
0100
0010
0002
0000
0013
0200
0000
,
0310
0002
0000
0003
1000
0100
0010
0001
,
2000
0000
3100
0010
0002
0000
0013
0100
,
1000
0010
0100
0001
0010
0100
1000
0000
,
1001
0000
0000
0000
0001
0100
0001
0000
1001
0000
0000
0000
1000
0100
1000
0000
,
1001
0000
0000
0000
0001
0100
0001
0000
1001
0000
0000
0000
1000
0100
1000
0000
,
1001
0000
0000
0000
0001
0100
0001
0000
1001
0000
1001
0000
1001
0000
0000
0000
,
0220
0000
0000
0000
,
0000
0000
0000
0330
;

//---------------dance-single - Renard----------------
#NOTES:
     dance-single:
     Renard:
     Challenge:
     109:
     0.818,1.000,0.120,0.565,0.324,543.000,13.000,61.000,0.000,1.000:
0000
0000
0000
0000
,
0000
0000
0000
0000
,
0000
0000
0000
0000
,
0000
0000
0000
0000
,
0000
0000
0000
0000
,
0000
0000
0000
0000
,
0000
0000
0000
0000
,
0000
0000
0000
0000
,
0001
0000
0100
0000
0001
1000
0001
0000
0020
0000
1030
0000
0020
0000
0031
0000
,
0020
0130
0020
0031
0020
1030
0020
0031
,
1000
0000
0001
0000
0100
0001
0100
0000
0020
0000
1030
0000
0020
0000
0031
0000
,
0020
1030
0020
0130
0020
1030
0020
0031
,
0020
0000
1030
0100
0002
0000
0103
1000
,
0020
0000
0031
0010
0100
0001
0100
0010
,
2000
0000
3010
0100
0002
0000
0013
1000
,
0020
0000
0130
1000
0100
0001
0100
1000
,
0100
1000
0100
1000
0100
1000
0100
1000
0001
0010
0001
0010
0001
0010
0001
0010
,
0100
1000
0100
1000
0100
1000
0100
1000
0001
0010
0001
0000
1001
0000
0110
0000
,
1001
0000
0000
0000
0100
1000
0100
1000
0001
0010
0001
0010
0001
0010
0001
0010
,
0100
1000
0100
1000
0100
1000
0100
1000
0001
0010
0001
0000
1001
0000
0110
0000
,
1002
0000
0103
0010
1000
0100
0010
0001
,
0020
0000
0130
1000
0010
0100
0001
1000
,
0002
0000
0013
0100
2000
0000
3001
0100
,
0020
0000
1030
0010
0100
0001
0010
0100
,
2000
0000
3001
0100
0010
1000
0100
0010
,
0002
0000
0013
0100
1000
0010
0100
0000
,
0002
0000
0103
0010
2000
0000
3020
0000
,
0230
0000
0000
0000
0301
0000
0010
0000
0100
1000
0001
0010
0100
1000
0001
0000
,
2001
0000
3010
0100
0001
0010
0100
1000
,
0200
0000
0310
0001
0100
0010
1000
0001
,
2000
0000
3100
0010
0002
0000
1003
0010
,
0200
0000
0301
0100
0010
1000
0100
0010
,
0002
0000
1003
0010
0100
0001
0010
0100
,
2000
0000
3100
0010
0001
0100
0010
0000
,
2000
0000
3010
0100
0002
0000
0203
0000
,
0320
0000
1030
0100
0010
0001
1000
0000
,
0001
0100
0001
0100
0010
0100
0010
0100
,
0010
1000
0010
1000
0100
1000
0100
1000
,
0001
0010
0001
0010
0100
0010
0100
0010
,
0100
0000
1000
0000
0100
0000
1000
0000
0001
1000
0001
1000
0001
1000
0001
1000
,
0001
0100
0010
1000
0001
0100
0010
1000
0001
0010
0100
1000
0001
0100
0010
1000
,
0001
0100
0001
0010
0001
1000
0001
0100
0001
1000
0001
0000
1001
0000
0000
0000
,
0002
0000
0103
0010
1000
0100
0010
0001
,
0020
0000
0130
1000
0010
0100
0001
0010
,
0100
0000
0100
1000
0000
1000
0010
0100
,
0001
0000
0001
0010
0000
0010
0100
1000
,
0010
0000
0100
0001
0010
0100
1000
0001
,
0100
0000
0100
0010
1000
0100
0010
0001
,
0020
0000
0000
0230
0000
0000
2300
0000
,
3010
0100
0001
0100
0010
1000
0100
0010
,
0002
0000
0013
0100
1000
0001
0100
0010
,
2000
0000
3010
0100
0001
0010
0100
1000
,
0001
0000
0001
1000
0000
1000
0010
0000
,
0100
0000
0100
0001
0000
0001
1000
0000
,
0100
0010
0001
0010
0000
0010
0100
0000
,
1000
0010
0100
0001
0100
0010
1000
0000
,
0100
0000
0100
0010
0000
0010
0001
0000
,
1000
0100
0010
0001
0010
0100
1000
0001
0010
0100
1000
0100
0010
0001
1000
0001
,
1000
0100
0010
0001
0100
0010
2000
0000
,
3010
0100
0001
1000
0100
0010
0001
1000
,
0002
0000
0000
0103
0010
1000
0200
0000
,
0310
0001
0010
0100
1000
0001
0100
0010
,
2000
0000
3100
0020
0000
0031
2000
0000
,
3001
0100
0010
1000
0010
0100
0001
1000
,
0001
0010
1000
0010
0001
0100
1000
0100
,
0001
0100
0010
1000
0200
0000
0310
0001
,
1000
0100
0010
0001
0010
0100
1000
0100
,
0010
0001
0010
0100
1000
0100
0010
0001
,
1000
0010
0100
0001
0100
0010
1000
0010
,
0100
0001
0100
0010
1000
0010
0100
0001
,
1000
0100
0010
0002
0000
0013
0200
0000
,
0310
0002
0000
0003
1000
0100
0010
0001
,
2000
0000
3100
0010
0002
0000
0013
0100
,
1000
0100
0010
0001
1000
0001
0010
0100
1000
0001
1000
0100
0010
0001
1000
0000
,
1001
0000
0000
0000
0001
0100
0001
1000
0001
0000
0000
0000
1000
0100
1000
0001
,
1000
0000
0000
0000
0001
0100
0001
0010
0001
0000
0000
0000
1000
0100
1000
0010
,
1000
0000
0000
0000
0001
0100
0001
0000
1001
0000
1001
0000
1001
0000
0000
0000
,
0212
0000
0000
0000
,
0000
0000
0000
0303
;

//---------------dance-single - Renard----------------
#NOTES:
     dance-single:
     Renard:
     Medium:
     67:
     0.453,0.511,0.046,0.213,0.000,314.000,5.000,23.000,0.000,0.000:
0000
0000
0000
0000
,
0000
0000
0000
0000
,
0000
0000
0000
0000
,
0000
0000
0000
0000
,
1000
1000
0100
0100
,
0010
0010
0001
0001
,
1000
1000
0010
0010
,
0100
0100
0001
0001
,
1000
0000
0100
1000
0100
0000
1000
0000
,
0010
0100
0001
1000
,
0100
0000
0010
0001
0010
0000
0001
0000
,
0100
0010
1000
0001
,
0100
0000
0001
0010
0001
0000
0010
0001
,
0010
0000
0001
0010
0001
0000
0010
0000
,
0100
0000
1000
0100
1000
0000
0100
1000
,
0100
0000
1000
0100
1000
0000
0100
0000
,
1000
1000
0010
0010
,
0100
0100
0001
0001
,
1000
1000
0100
0100
,
0010
0010
0001
0001
,
2000
0000
3010
0100
,
0001
0100
0001
0100
0001
0100
0001
0100
,
0002
0000
0013
0100
,
1000
0100
1000
0100
1000
0100
1000
0100
,
2000
0000
3100
0010
,
0001
1000
0001
1000
0001
1000
0001
1000
,
0020
0000
0130
0001
,
1000
0100
1000
0100
1000
0100
1000
0000
,
1002
0000
0103
0010
,
1000
0010
1000
0010
1000
0010
1000
0010
,
1000
0100
0020
0000
,
0032
0000
0000
0000
,
2003
0000
0000
0000
3010
0000
1000
0010
,
1000
0010
1000
0010
1000
0010
1000
0010
,
0200
0000
0301
0100
,
0001
1000
0001
1000
0001
1000
0001
0000
,
2100
0000
0010
0010
,
3001
1000
0001
1000
,
0102
0000
0010
0010
,
1003
0001
1000
0010
,
0100
0010
0100
0010
0100
0010
0100
0010
,
0100
0001
1000
1001
,
2000
3100
0010
0001
,
1000
0010
1000
0000
0010
0000
0100
0000
,
0001
0000
0001
1000
0000
1000
0100
0000
,
2000
0000
0000
0000
,
3010
0000
0010
0100
0000
0100
0001
0000
,
0000
1000
0100
0010
,
0001
0000
0000
1000
0000
0000
0010
0000
,
0100
0000
0000
0001
0000
0000
1000
0000
,
0100
0000
0010
0001
,
1000
0010
0100
0001
,
1000
0000
1000
0100
0000
0100
0010
0000
,
0001
0000
0001
0010
0000
0010
0100
0000
,
1000
0010
0100
0001
,
1000
0001
0100
0010
,
2000
0000
0000
3002
0000
0000
0203
0000
,
0000
0000
0310
0100
,
0010
1000
0010
0100
,
0001
1000
0100
1000
,
0001
0000
0001
0100
0000
0100
0010
0000
,
1000
0010
0100
0001
,
1000
0000
0100
1000
0000
0001
1000
0000
,
0010
1000
0001
0100
,
0010
0000
0010
1000
0000
1000
0001
0000
,
0100
0001
1000
0100
,
0020
0000
0031
1000
,
0020
0000
0000
0130
,
0001
0000
0001
1000
0000
1000
0100
0000
,
1000
0001
0010
0001
,
1000
0000
0010
1000
0000
0001
1000
0000
,
0100
1000
0001
0100
,
0010
0000
0000
1000
0000
0000
0010
0000
,
0100
0001
0100
0010
,
2000
0000
0000
0000
3010
0000
0100
0001
,
2000
0000
3001
0100
,
0020
0000
0000
0000
1030
0100
0010
0000
,
2002
0000
0000
0000
,
0000
0000
0000
3003
;

//---------------dance-single - Renard----------------
#NOTES:
     dance-single:
     Renard:
     Easy:
     38:
     0.304,0.511,0.167,0.167,0.000,194.000,18.000,18.000,0.000,0.000:
0000
0000
0000
0000
,
0000
0000
0000
0000
,
0000
0000
0000
0000
,
0000
0000
0000
0000
,
0001
0001
0010
0010
,
0100
0100
1000
1000
,
0001
0001
0100
0100
,
0010
0010
1000
1000
,
0001
1000
0001
1000
,
1000
0100
0010
0001
,
2000
0000
0000
0000
,
0000
0000
0000
0000
,
3001
0010
0010
0001
,
1000
0100
0100
1000
,
0001
0010
0010
0001
,
1000
0100
0100
1000
,
0220
0000
0000
0000
,
0000
0000
0330
1001
,
0220
0000
0000
0000
,
0000
0000
0330
1001
,
0101
0000
0100
0010
,
1000
0000
0010
1000
,
0100
0000
0010
0001
,
1000
0000
0001
0000
,
0100
0000
0010
1000
,
0100
0000
0010
0001
,
1000
0001
0100
0010
,
1000
0000
0010
0000
,
0100
0000
0001
1000
,
0100
0000
1000
0001
,
0010
0001
1000
0000
,
0100
0000
1000
0000
,
0010
0000
0100
0001
,
1000
0000
0100
0000
,
1000
0001
0010
0100
,
1000
0000
0001
0000
,
0200
0000
0310
0010
,
1000
0000
0010
0000
,
0200
0000
0310
0010
,
0100
0001
1000
0000
,
2002
0000
0000
3003
,
0110
1001
0110
1001
,
0210
0000
0000
0000
,
0302
0000
0000
1003
,
0100
0010
0001
0010
,
1002
0000
0000
0000
,
1003
0010
1000
0001
,
0100
0000
0010
1000
,
0100
0000
1000
0010
,
0100
0000
0001
1000
,
0200
0000
0000
0000
,
0310
0002
0000
0000
,
1003
0000
0010
0000
,
0100
0100
0100
0001
,
2000
0000
0000
3001
,
0000
0100
0010
0000
,
2000
0000
0000
3001
,
0000
0100
0010
1000
,
0010
0010
0100
0100
,
0001
0000
0001
0000
,
1000
0000
0100
1000
,
0001
0000
0010
0000
,
0001
0000
1000
0000
,
0010
1000
0010
0000
,
0100
0000
0001
0000
,
1000
0000
0001
0000
,
2000
0000
0000
0000
,
3100
0010
0000
0001
,
1000
0000
0001
0000
,
0100
0100
0010
1000
,
0010
0000
1000
0000
,
0001
0000
0100
0001
,
0010
0000
0001
0000
,
1000
0100
0010
0001
,
1001
0000
0010
0000
,
1001
0000
0100
0000
,
1001
0000
0110
1001
,
0210
0000
0000
0000
,
0000
0000
0000
0300
;
