#TITLE:Elysium's Embrace;
#SUBTITLE:;
#ARTIST:Nonstop;
#TITLETRANSLIT:;
#SUBTITLETRANSLIT:;
#ARTISTTRANSLIT:;
#CREDIT:;
#BANNER:ns.jpg;
#BACKGROUND:ns-bg.jpg;
#LYRICSPATH:;
#CDTITLE:;
#MUSIC:ns.ogg;
#OFFSET:0.000;
#SAMPLESTART:32.914;
#SAMPLELENGTH:12.000;
#SELECTABLE:YES;
#BPMS:0.000=175.000;
#STOPS:;
#BGCHANGES:;
// cache tags:
#FIRSTBEAT:16.000;
#LASTBEAT:399.000;
#SONGFILENAME:Songs/b_mgd2ns/PACK04 Nonstop 15/ns.md;
#HASMUSIC:1;
#HASBANNER:1;
#MUSICLENGTH:105.000;
// end cache tags

//---------------dance-single - Nonstop----------------
#NOTES:
     dance-single:
     Nonstop:
     Insane:
     100:
     0.773,0.808,0.133,0.229,0.000,530.000,14.000,24.000,0.000,0.000:
0000
0000
0000
0000
,
0000
0000
0000
0000
,
0000
0000
0000
0000
,
0000
0000
0000
0000
,
1000
0100
1000
0100
0000
0100
0010
0001
,
0010
0001
0000
0001
0100
0000
0010
0000
,
1000
0100
1000
0100
0000
0100
0010
0001
,
0010
0001
0000
0001
1000
0000
0010
0000
,
0100
0001
0100
0001
0000
0001
0100
0010
,
1000
0010
0000
0010
1000
0000
0100
1000
,
0100
0010
0001
1000
0000
1000
0001
0100
,
0100
0010
0000
0010
1000
0000
0001
0000
,
0100
0001
0100
0010
1000
0000
1000
0010
,
0000
0010
0100
0000
0001
0000
0010
0000
,
0001
0000
0001
1000
0000
1000
0100
0000
,
0020
0000
0032
0000
,
1003
0010
0100
0001
1000
0000
1000
0001
,
0000
0001
0000
0100
0010
0000
1000
0100
,
0010
0000
0010
0001
0000
0001
1000
0000
,
0002
0000
2003
0000
,
3010
0000
0010
0100
0000
0100
0010
0000
,
0010
0100
0000
0100
0010
0000
0100
0010
,
1000
0000
1000
0001
0000
0001
1000
0000
,
1000
0001
0000
0001
1000
0000
0001
1000
,
0010
0000
0010
0100
0000
0100
0010
0000
,
0010
0100
0000
0100
0010
0000
1000
0001
,
1000
0000
0100
0010
0000
0001
0010
0000
,
0100
1000
0000
0001
1000
0000
0001
1000
,
0010
0100
0010
0100
0010
0000
0110
0000
,
0010
1000
0001
0100
0010
0000
0110
0000
,
0010
1000
0100
0010
0001
0000
0011
0000
,
0001
0010
0100
1000
0001
0000
1001
0000
,
0001
0100
0010
1000
0001
0000
1001
0000
,
1000
0100
1000
0001
0010
0000
0011
0000
,
0001
0010
0100
1000
0001
0100
0101
0000
,
0100
0010
0110
0000
0010
1000
1010
0000
,
1000
0100
1000
0001
0000
0001
1000
0000
,
1000
0100
0000
0100
1000
0000
0010
1000
,
0001
0000
0001
1000
0000
1000
0100
0000
,
0100
1000
0000
1000
0010
1000
0001
1000
,
0001
0100
0001
0010
0000
0010
0001
1000
,
0001
0100
0000
0100
0001
0010
0001
1000
,
0001
0010
0001
0100
0000
0001
1000
0000
,
0001
0000
0001
0000
0100
0010
0100
0000
,
0010
1000
0001
1000
0000
1000
0100
0000
,
0010
0001
0010
0100
1000
0001
0100
0010
,
1000
0001
0010
0001
0000
0001
1000
0000
,
0100
0010
0100
1000
0001
0010
0100
0010
,
0001
1000
0010
0100
0000
0100
0010
0000
,
1000
0010
0100
0001
0010
0100
1000
0001
,
0100
0010
1000
0100
0000
0100
1000
0000
,
0001
0010
0001
1000
0001
0100
0010
0000
,
1000
0100
0010
0001
0000
0001
0010
0100
,
1000
0001
0000
0001
0100
0010
1000
0100
,
0010
0001
0010
0100
0000
0100
1000
0010
,
0100
0001
0000
0001
1000
0100
0010
0001
,
0010
0100
1000
0001
0000
0001
0010
0001
,
1000
0010
0000
0010
0100
0001
0010
0100
,
1000
0001
0100
0010
0000
0010
1000
0100
,
1000
0001
0010
0001
1000
0010
0100
0000
,
0001
0100
0010
1000
0100
0010
0001
0010
,
0100
1000
0010
0100
0001
0010
0100
1000
,
0100
0010
0001
0100
0010
1000
0100
0010
,
0100
1000
0001
0010
0100
0010
0001
1000
,
0010
0100
0010
1000
0001
0010
0100
0010
,
0001
0100
0010
0100
0001
0010
0100
1000
,
0100
0010
0001
0100
0010
1000
0100
0010
,
0001
0000
0000
0010
0100
1000
0001
0000
,
0200
0000
0000
0000
0000
0000
0310
2000
,
0000
0000
0000
0000
0000
0000
3100
0020
,
0000
0000
0000
0000
0000
0000
0031
2000
,
0000
0000
0000
0000
0000
0000
3010
0200
,
0000
0000
0000
0000
0000
0000
0301
0020
,
0000
0000
0000
0000
0000
0000
0130
2000
,
0000
0000
0000
3020
,
0230
0000
0000
0000
0000
0000
0301
0020
,
0000
0000
0000
0000
0000
0000
0130
2000
,
0000
0000
0000
0000
0000
0000
3010
0200
,
0000
0000
0000
0000
0000
0000
0301
0020
,
0000
0000
0000
0000
0000
0000
0031
2000
,
0000
0000
0000
0000
0000
0000
3100
0020
,
0000
0000
0000
0000
0000
0032
0000
2003
,
0000
3020
0000
0230
0000
0000
0000
0000
,
0000
0000
0000
0000
0000
0301
0010
0001
,
0010
0100
1000
0001
0010
0100
1000
0001
,
0000
0001
0000
0000
0000
1000
0010
0100
,
0000
0110
0000
0000
0000
0010
0100
0001
,
0000
0101
0000
0000
0000
0001
0010
0100
,
1000
0100
0010
0001
1000
0100
0010
0001
,
0000
0011
0000
0000
0000
0001
0010
0100
,
0000
1100
0000
0000
0000
1000
0010
0100
,
0000
0101
0000
0000
0001
0100
0010
1000
,
0010
0100
0001
0010
0000
0010
0001
0010
,
0100
1000
0000
1000
0010
0100
0001
1000
,
0100
1000
0001
0010
0000
0010
0001
1000
,
0010
0100
0000
0100
0010
1000
0100
0010
,
0001
1000
0001
0010
0000
0010
0001
1000
,
0010
0100
0000
0100
0010
1000
0100
0010
,
0001
1000
0010
0100
0001
0010
0100
1000
,
0002
0000
0000
1000
1000
1000
1003
0000
;
