#TITLE:Amber Starlight EX;
#SUBTITLE:;
#ARTIST:Jackal Queenston + Renard;
#TITLETRANSLIT:;
#SUBTITLETRANSLIT:;
#ARTISTTRANSLIT:;
#CREDIT:;
#BANNER:broken.png;
#BACKGROUND:broken-bg.png;
#LYRICSPATH:;
#CDTITLE:;
#MUSIC:broken.ogg;
#OFFSET:0.000;
#SAMPLESTART:16.432;
#SAMPLELENGTH:12.000;
#SELECTABLE:NO;
#BPMS:0.000=290.000,272.000=399.999,398.000=199.999,408.000=399.999;
#STOPS:398.000=0.900
;
#BGCHANGES:;
// cache tags:
#FIRSTBEAT:32.000;
#LASTBEAT:424.000;
#SONGFILENAME:Songs/(proextra)/Amber Starlight EX/broken.md;
#HASMUSIC:1;
#HASBANNER:1;
#MUSICLENGTH:87.399;
// end cache tags

//---------------dance-single - Renard----------------
#NOTES:
     dance-single:
     Renard:
     Challenge:
     105:
     0.912,1.000,0.046,0.034,0.000,551.000,4.000,3.000,19.000,0.000:
0000
0000
0000
0000
,
0000
0000
0000
0000
,
0000
0000
0000
0000
,
0000
0000
0000
0000
,
0000
0000
0000
0000
,
0000
0000
0000
0000
,
0000
0000
0000
0000
,
0000
0000
0000
0000
,
0001
0010
0001
0100
,
0001
1000
0001
0100
0001
0010
0001
0000
,
1000
0000
0010
0000
1000
0000
0100
1000
,
0000
0001
1000
0000
0011
0000
1000
0000
,
1000
0100
1000
0010
,
1000
0001
1000
0010
1000
0100
1000
0000
,
0001
0000
0100
0000
0001
0000
0010
0001
,
0000
1000
0001
0000
1100
0000
0002
0000
,
1M00
MM00
MM00
M100
,
1M00
MM00
MM00
M100
,
1M00
MM00
MM00
M100
,
1M03
0000
0000
1001
,
0001
0010
0001
0000
0100
0000
0001
1000
,
0001
0010
0100
1000
0100
0010
0001
0000
,
1000
0100
1000
0000
0010
0000
1000
0001
,
0000
1000
0010
0000
0100
0000
0100
0000
,
0001
0010
0001
0100
0001
1000
0001
0010
,
0100
0000
1000
0100
1000
0000
0010
0000
,
0010
0000
0100
0001
0100
0001
0100
0001
,
0100
0000
0010
1000
0001
0100
0001
0000
,
1000
0100
1000
0000
0010
0000
1000
0001
,
1000
0100
0010
0001
0010
0100
1000
0000
,
0001
0010
0001
0000
0100
0000
0001
1000
,
0000
0001
0100
0000
0010
0000
0010
0000
,
1000
0100
1000
0010
1000
0001
1000
0100
,
0010
0000
0001
0010
0001
0000
0100
0000
,
0100
0000
0010
1000
0010
1000
0010
1000
,
0010
0000
0100
0001
0100
0010
1000
0010
,
1000
0100
1000
0000
0010
0000
1000
0001
,
1000
0100
0010
0001
0010
0100
1000
0000
,
0001
0010
0001
0000
0100
0000
0001
1000
,
0000
0001
0100
0000
0010
0000
0010
0000
,
1000
0100
1000
0010
1000
0001
1000
0100
,
0010
0000
0001
0010
0001
0000
0100
0000
,
0100
0000
0010
1000
0010
1000
0010
1000
,
0010
0000
0100
0001
1000
0010
1000
0000
,
0001
0010
0001
0000
0100
0000
0001
1000
,
0001
0010
0100
1000
0100
0010
0001
0000
,
1000
0100
1000
0000
0010
0000
1000
0001
,
0000
1000
0010
0000
0100
0000
0100
0000
,
0001
0010
0001
0100
0001
1000
0001
0010
,
0100
0000
1000
0100
1000
0000
0010
0000
,
0010
0000
0100
0001
0100
0001
0100
0001
,
0100
0000
0010
1000
0010
0100
0001
0100
,
0001
0010
0001
0000
1000
0100
1000
0000
,
0001
0100
0001
0000
1000
0010
1000
0000
,
0001
0010
0001
0000
0001
0100
0001
0000
,
1000
0100
1000
0000
1000
0010
1000
0000
,
0001
0010
0001
0000
1000
0100
1000
0000
,
0001
0100
0001
0000
1000
0010
1000
0000
,
0001
0010
0001
0000
0001
0100
0001
0000
,
1000
0010
1000
0000
1000
0100
1000
0000
,
0001
0010
0001
0010
0001
0100
0001
0100
,
0010
1000
0010
1000
0100
1000
0100
1000
,
0001
0100
0001
0100
0010
1000
0010
1000
,
0001
0010
0001
0010
0100
1000
0100
1000
,
0001
0010
0001
0010
0001
0100
0001
0100
,
0010
1000
0010
1000
0100
1000
0100
1000
,
0001
0010
0100
1000
0100
0010
0001
0100
,
0010
1000
0100
0010
0001
0000
0000
0000
,
1000
0000
0001
0000
1000
0010
1000
0000
,
0001
0000
1000
0000
0001
0010
0001
0000
,
1000
0000
0001
0000
1000
0010
1000
0000
,
0001
0000
1000
0000
0001
0010
0001
0000
,
1000
0000
0001
0000
0100
0001
0100
0000
,
0001
0000
1000
0000
0100
1000
0100
0000
,
1000
0000
0001
0000
0100
0001
0100
0000
,
0001
0000
1000
0000
0100
1000
0100
0000
,
1000
0000
0100
0000
0010
0100
0010
0000
,
0100
0000
1000
0000
0010
0100
0010
0000
,
1000
0000
0100
0000
0010
0100
0010
0000
,
0100
0000
1000
0000
0010
0100
0010
0000
,
0100
0000
0001
0000
0010
0100
0010
0000
,
0001
0000
0100
0000
0010
0100
0010
0000
,
0100
0000
0001
0000
0010
0100
0010
0000
,
0001
0100
0010
0000
,
0010
1000
0010
1000
0000
0010
0000
1000
,
0010
1000
0010
0000
1000
0000
1000
0000
,
0001
0100
0001
0100
0000
0001
0000
0100
,
0001
0100
0001
0000
0100
0000
0100
0000
,
0001
0010
0001
0010
0000
0001
0000
0010
,
0001
0010
0001
0000
0010
0000
0010
0000
,
0100
1000
0100
1000
0000
0100
0000
1000
,
0100
1000
0100
0000
1000
0000
1000
0000
,
0010
1000
0010
1000
0000
0010
0000
1000
,
0010
1000
0010
0000
1000
0000
1000
0000
,
0001
0100
0001
0100
0000
0001
0000
0100
,
0001
0100
0001
0000
0100
0000
0100
0000
,
0001
0010
0001
0010
0000
0001
0000
0010
,
0001
0010
0001
0000
0010
0000
0010
0000
,
0100
1000
0100
1000
0000
0100
0000
1000
,
0100
1000
0100
0000
1000
0000
0000
0000
,
0002
0000
0000
0000
,
2003
0000
0000
0000
,
3001
0010
0001
0010
0001
1000
0001
1000
,
0001
0100
0001
0100
0001
1000
0001
1000
,
0001
0010
0100
1000
0100
0010
0001
1000
,
0001
0010
0100
1000
,
1001
0000
0000
0000
;
