#TITLE:Reunite;
#SUBTITLE:;
#ARTIST:Nonstop;
#TITLETRANSLIT:;
#SUBTITLETRANSLIT:;
#ARTISTTRANSLIT:;
#CREDIT:;
#BANNER:ns.jpg;
#BACKGROUND:ns-bg.jpg;
#LYRICSPATH:;
#CDTITLE:;
#MUSIC:ns.ogg;
#OFFSET:0.000;
#SAMPLESTART:90.667;
#SAMPLELENGTH:12.000;
#SELECTABLE:YES;
#BPMS:0.000=180.000;
#STOPS:;
#BGCHANGES:;
// cache tags:
#FIRSTBEAT:32.000;
#LASTBEAT:464.000;
#SONGFILENAME:Songs/b_mgd2ns/PACK03 NONSTOP 13/ns.md;
#HASMUSIC:1;
#HASBANNER:1;
#MUSICLENGTH:105.000;
// end cache tags

//---------------dance-single - Nonstop----------------
#NOTES:
     dance-single:
     Nonstop:
     Insane:
     100:
     0.867,0.939,0.152,0.086,0.010,612.000,16.000,9.000,0.000,0.000:
0000
0000
0000
0000
,
0000
0000
0000
0000
,
0000
0000
0000
0000
,
0000
0000
0000
0000
,
0000
0000
0000
0000
,
0000
0000
0000
0000
,
0000
0000
0000
0000
,
0000
0000
0000
0000
,
1000
0000
0001
0100
0001
0000
1000
0100
,
1000
0000
0001
0010
0001
0000
1000
0000
,
0010
0100
0010
0100
0001
1000
0001
0000
,
1000
0000
0100
0000
0010
0001
0010
0000
,
0200
0000
2300
0000
,
3020
0000
0230
0000
,
0301
0010
0100
1000
0010
0100
0001
0000
,
0010
0010
0010
0010
0010
0000
1001
0000
,
0001
0000
0100
0010
0000
1000
0010
0100
,
0001
0000
0010
0001
0000
1000
0100
1000
,
0001
0010
0100
1000
0001
0100
0010
0010
,
1000
0100
0000
1100
0000
0010
0001
0000
,
1000
0000
0010
0100
0000
0001
0010
0001
,
1000
0100
0010
0001
0010
0001
0010
0100
,
1000
0001
0100
0100
0100
0100
0100
0100
,
0010
1000
0010
0100
0000
0100
0001
0000
,
0100
0010
1000
0000
0100
0010
0001
0010
,
0100
1000
0001
0100
0000
0010
1000
0010
,
0100
0001
0100
0010
1000
0010
0100
0100
,
0001
0100
0000
0010
0000
1000
0010
0000
,
0100
0000
0001
1000
0000
0100
0010
0001
,
0010
0100
1000
0100
1000
0100
1000
0100
,
1000
0000
0001
0010
0001
1000
0010
0100
,
0001
0100
0000
0010
0000
1000
0010
0000
,
1000
0000
1000
0000
0010
0100
0001
0000
,
0100
0000
0010
0000
1000
0010
1000
0000
,
0001
0000
0100
0000
0001
1000
0001
0000
,
1000
0100
1000
0000
0001
0010
0001
0000
,
1001
0000
1001
0000
0001
0100
0001
0000
,
1000
0010
1000
0000
0100
1000
0100
0000
,
1100
0000
1100
0000
1000
0100
1000
0000
,
0001
0010
0001
1000
0010
0000
1010
0000
,
1001
0000
1001
0000
0001
0100
0001
0000
,
1000
0100
1000
0000
0001
0010
0001
0000
,
1001
0000
1001
0000
1000
0010
1000
0000
,
0001
0100
0001
0000
1000
0100
1000
0000
,
0011
0000
0011
0000
0010
0100
1000
0000
,
0001
0100
0001
1000
0000
0001
1000
0100
,
0000
1000
0001
0100
0000
0001
1000
0100
,
1000
0001
0100
0010
1000
0100
0010
0000
,
0001
0000
0010
0100
1000
0000
0010
0000
,
0100
0001
0000
0100
0010
0100
0010
0100
,
1000
0000
0100
0010
0100
0000
0001
0000
,
0010
0100
0000
0010
1000
0010
0100
0010
,
0001
0000
1000
0100
0010
0000
0100
0000
,
0001
0100
0000
0010
0100
1000
0000
0010
,
0100
0000
1000
0100
0010
0100
0001
0010
,
0100
1000
0000
0001
0100
0000
0100
0000
,
0100
0000
0010
0000
1000
0100
1000
0000
,
0001
0010
0001
0000
1000
0010
0100
0001
,
0010
0000
0001
0000
1000
0100
1000
0000
,
0001
0010
0001
0000
1000
0010
1000
0000
,
0001
0000
0100
0000
0001
1000
0001
0000
,
1000
0100
1000
0000
0001
0010
0001
0000
,
1000
0000
0010
0100
0000
0001
0000
0100
,
0000
0110
1001
1100
,
1000
0100
1000
0100
0010
0100
0010
0100
,
0010
0001
0010
0001
0100
0010
1000
0000
,
0001
0100
0001
0100
0001
0010
0001
0010
,
0100
0010
0100
0010
0100
1000
0100
0000
,
1000
0010
1000
0010
0100
0001
0100
0001
,
0010
0001
0010
0001
0010
0100
1000
0000
,
0001
0100
0001
0100
0010
0100
0010
0100
,
0010
1000
0100
0010
0001
1000
0010
0100
,
0002
0000
0000
0000
,
0000
0000
0000
0000
,
1003
0100
1000
1000
,
0001
0010
0001
1000
0010
0100
0100
0000
,
0001
0000
0010
0001
1000
0000
1000
0000
,
0001
0100
0010
1000
0100
0100
0100
0000
,
0010
0001
0010
0100
1000
0000
1000
0000
,
0001
0100
0010
1000
0010
0100
0100
0000
,
0001
0000
0000
0001
0000
0000
1000
0000
0000
1000
0000
0000
0010
0000
0100
0000
,
0020
0000
0000
0000
,
0130
0000
0100
0001
0100
0010
1000
0000
,
0010
0000
1000
0100
0010
0001
0010
0000
,
0100
0000
0100
1000
0001
0000
0001
0010
,
0100
0000
0100
1000
0010
0000
0010
0100
,
0001
0000
0001
0100
0010
1000
0100
0010
,
0001
0000
0001
0010
0100
1000
0001
0100
,
0010
0000
0010
1000
0100
0000
0100
0010
,
0001
0000
0001
0100
0010
0000
0010
1000
,
0100
0000
0100
1000
0000
1000
0001
0000
,
0001
0010
0000
0010
0001
0000
1000
0010
,
0100
0000
0001
0100
0010
0000
1000
0100
,
0010
0000
0001
0010
0100
1000
0001
0100
,
0010
0000
0010
1000
0000
1000
0001
0000
,
0100
0001
0100
0000
0001
1000
0001
0000
,
1000
0100
0010
0001
1000
0010
0100
0001
,
0200
0000
0000
0000
,
0310
0000
0000
0000
,
0000
0000
0000
0000
,
0010
0000
1000
0010
0100
0001
0010
0100
,
1000
0100
0010
0001
0100
0010
1000
0100
,
0010
0001
0100
0010
1000
0000
0010
0100
,
0001
0000
0010
0100
1000
0000
0100
0010
,
0001
0000
0000
0000
0010
0100
1000
0100
,
0010
0001
0100
0010
1000
0100
0010
0001
,
0010
0100
1000
0010
0100
0000
0100
0001
,
0010
0000
0010
0100
1000
0000
0010
0000
,
0100
0000
0000
0001
,
0000
0000
0100
0000
,
0010
1000
0100
0010
0001
0010
0100
1000
,
0001
0010
0100
1000
0100
0010
0001
1000
,
0010
0000
0000
0100
0000
0000
0001
0000
,
0000
0000
0000
0000
0100
0010
1000
0100
,
0010
0001
0010
0100
1000
0000
0000
0000
,
0001
0000
0200
0020
,
0330
0000
0000
0000
;
