#TITLE:The Grandmaster III;
#SUBTITLE:;
#ARTIST:SamplingMasters Team;
#TITLETRANSLIT:;
#SUBTITLETRANSLIT:;
#ARTISTTRANSLIT:;
#CREDIT:;
#BANNER:fish.png;
#BACKGROUND:fish-bg.png;
#LYRICSPATH:;
#CDTITLE:;
#MUSIC:fish.ogg;
#OFFSET:0.000;
#SAMPLESTART:11.576;
#SAMPLELENGTH:12.000;
#SELECTABLE:NO;
#DISPLAYBPM:165.000;
#BPMS:0.000=661.000,220.000=330.000;
#STOPS:0.000=11.545
,1.000=0.273
,2.000=0.273
,3.000=0.273
,4.000=0.273
,5.000=0.273
,6.000=0.273
,7.000=0.273
,8.000=0.273
,9.000=0.273
,10.000=0.273
,11.000=0.273
,12.000=0.273
,13.000=0.273
,14.000=0.273
,15.000=0.273
,16.000=0.273
,17.000=0.273
,18.000=0.273
,19.000=0.273
,20.000=0.273
,21.000=0.273
,22.000=0.273
,23.000=0.273
,24.000=0.273
,25.000=0.273
,26.000=0.273
,27.000=0.273
,28.000=0.273
,29.000=0.273
,30.000=0.273
,31.000=0.273
,32.000=0.273
,33.000=0.273
,34.000=0.273
,35.000=0.273
,36.000=0.273
,37.000=0.273
,38.000=0.273
,39.000=0.273
,40.000=0.273
,41.000=0.273
,42.000=0.273
,43.000=0.273
,44.000=0.273
,45.000=0.273
,46.000=0.273
,47.000=0.273
,48.000=0.273
,49.000=0.273
,50.000=0.273
,51.000=0.273
,52.000=0.273
,53.000=0.273
,54.000=0.273
,55.000=0.273
,56.000=0.273
,57.000=0.273
,58.000=0.273
,59.000=0.273
,60.000=0.273
,61.000=0.273
,62.000=0.273
,63.000=0.273
,64.000=0.273
,65.000=0.273
,66.000=0.273
,67.000=0.273
,68.000=0.273
,69.000=0.273
,70.000=0.273
,71.000=0.273
,72.000=0.273
,73.000=0.273
,74.000=0.273
,75.000=0.273
,76.000=0.273
,77.000=0.273
,78.000=0.273
,79.000=0.273
,80.000=0.273
,81.000=0.273
,82.000=0.273
,83.000=0.273
,84.000=0.273
,85.000=0.273
,86.000=0.273
,87.000=0.273
,88.000=0.273
,89.000=0.273
,90.000=0.273
,91.000=0.273
,92.000=0.273
,93.000=0.273
,94.000=0.273
,95.000=0.273
,96.000=0.273
,97.000=0.273
,98.000=0.273
,99.000=0.273
,100.000=0.273
,101.000=0.273
,102.000=0.273
,103.000=0.273
,104.000=0.273
,105.000=0.273
,106.000=0.273
,107.000=0.273
,108.000=0.273
,109.000=0.273
,110.000=0.273
,111.000=0.273
,112.000=0.273
,113.000=0.273
,114.000=0.273
,115.000=0.273
,116.000=0.273
,117.000=0.273
,118.000=0.273
,119.000=0.273
,120.000=0.273
,121.000=0.273
,122.000=0.273
,123.000=0.273
,124.000=0.273
,125.000=0.273
,126.000=0.273
,127.000=0.273
,128.000=0.273
,129.000=0.273
,130.000=0.273
,131.000=0.273
,132.000=0.273
,133.000=0.273
,134.000=0.273
,135.000=0.273
,136.000=0.273
,137.000=0.273
,138.000=0.273
,139.000=0.273
,140.000=0.273
,141.000=0.273
,142.000=0.273
,143.000=0.273
,144.000=0.273
,145.000=0.273
,146.000=0.273
,147.000=0.273
,148.000=0.273
,149.000=0.273
,150.000=0.273
,151.000=0.273
,152.000=0.273
,153.000=0.273
,154.000=0.273
,155.000=0.273
,156.000=0.273
,157.000=0.273
,158.000=0.273
,159.000=0.273
,160.000=0.273
,161.000=0.273
,162.000=0.273
,163.000=0.273
,164.000=0.273
,165.000=0.273
,166.000=0.273
,167.000=0.273
,168.000=0.273
,169.000=0.273
,170.000=0.273
,171.000=0.273
,172.000=0.273
,173.000=0.273
,174.000=0.273
,175.000=0.273
,176.000=0.273
,177.000=0.273
,178.000=0.273
,179.000=0.273
,180.000=0.273
,181.000=0.273
,182.000=0.273
,183.000=0.273
,184.000=0.273
,185.000=0.273
,186.000=0.273
,187.000=0.273
,188.000=0.273
,189.000=0.273
,190.000=0.273
,191.000=0.273
,192.000=0.273
,193.000=0.273
,194.000=0.273
,195.000=0.273
,196.000=0.273
,197.000=0.273
,198.000=0.273
,199.000=0.273
,200.000=0.273
,201.000=0.273
,202.000=0.273
,203.000=0.273
,204.000=0.273
,205.000=0.273
,206.000=0.273
,207.000=0.273
,208.000=0.273
,209.000=0.273
,210.000=0.273
,211.000=0.273
,212.000=0.273
,213.000=0.273
,214.000=0.273
,215.000=0.273
,216.000=0.273
,217.000=0.273
,218.000=0.273
,219.000=0.273
,220.000=0.545
;
#BGCHANGES:0.000=fish-bg.png=1.000=0=0=1,
99999=-nosongbg-=1.000=0=0=0 // don't automatically add -songbackground-
;
// cache tags:
#FIRSTBEAT:1.000;
#LASTBEAT:220.000;
#SONGFILENAME:Songs/2_Dance/The Grandmaster III/fish.md;
#HASMUSIC:1;
#HASBANNER:1;
#MUSICLENGTH:91.393;
// end cache tags

//---------------dance-single - Renard----------------
#NOTES:
     dance-single:
     Renard:
     Hard:
     100:
     0.394,0.481,0.875,0.000,0.000,145.000,80.000,0.000,0.000,17.000:
0000
0111
0001
0000
,
0000
1110
1000
0000
,
0000
0011
0011
0000
,
0000
1100
1100
0000
,
0000
1100
1000
1000
,
0000
0011
0001
0001
,
0000
1110
1000
0000
,
0000
0100
0100
0100
,
0100
0011
0001
0001
,
0000
1100
1000
1000
,
0000
1100
0110
0000
,
0000
0011
0110
0000
,
0000
0110
0011
0000
,
0000
0110
1100
0000
,
0000
0001
0001
0011
,
0000
0010
0010
0010
,
0010
1100
0110
0000
,
0000
0011
0110
0000
,
0000
1111
0000
1111
,
0000
1100
0110
0000
,
0000
0011
0110
0000
,
0000
1100
0110
0000
,
0000
0011
0011
0000
,
0000
1100
1100
0000
,
0000
1110
0010
0000
,
0000
0111
0100
0000
,
0000
1110
0010
0000
,
0000
0111
0100
0000
,
0000
0011
0001
0001
,
0000
1100
1000
1000
,
0000
0001
0001
0011
,
0000
1000
1000
1100
,
0000
1000
1000
1000
,
1000
0000
1111
0000
,
1111
0001
0001
0001
,
0001
0000
1111
0000
,
1111
1000
1000
1000
,
1000
0000
1111
0000
,
1111
0001
0001
0001
,
0001
0011
0110
1100
,
0110
1100
1100
0000
,
0000
0011
0011
0000
,
0000
1100
1100
0000
,
0000
0011
0011
0000
,
0000
0100
0100
0100
,
0100
0010
0010
0010
,
0010
1000
1000
1000
,
1000
0001
0001
0001
,
0001
1111
0000
0000
,
1100
0110
0000
0000
,
0011
0110
0000
1111
,
0000
1100
0110
0000
,
0011
0110
0000
0000
,
1100
0110
0000
0011
,
0011
1100
1100
0011
,
0011
0000
0000
0000
;
