#TITLE:Core Cruise;
#SUBTITLE:;
#ARTIST:Nonstop;
#TITLETRANSLIT:;
#SUBTITLETRANSLIT:;
#ARTISTTRANSLIT:;
#CREDIT:;
#BANNER:ns.jpg;
#BACKGROUND:ns-bg.jpg;
#LYRICSPATH:;
#CDTITLE:;
#MUSIC:ns.ogg;
#OFFSET:0.000;
#SAMPLESTART:27.309;
#SAMPLELENGTH:12.000;
#SELECTABLE:YES;
#BPMS:0.000=175.000;
#STOPS:;
#BGCHANGES:;
// cache tags:
#FIRSTBEAT:16.500;
#LASTBEAT:447.500;
#SONGFILENAME:Songs/b_mgd2ns/PACK06 Nonstop 17/ns.md;
#HASMUSIC:1;
#HASBANNER:1;
#MUSICLENGTH:105.000;
// end cache tags

//---------------dance-single - Nonstop----------------
#NOTES:
     dance-single:
     Nonstop:
     Insane:
     100:
     0.937,1.000,0.181,0.210,0.533,648.000,19.000,22.000,0.000,4.000:
0000
0000
0000
0000
,
0000
0000
0000
0000
,
0000
0000
0000
0000
,
0000
0000
0000
0000
,
0000
1000
0000
0001
0000
1000
0000
0001
,
0000
1000
0000
0010
0100
0010
0100
0010
,
0000
1000
0000
0001
0000
1000
0000
0001
,
0000
1000
0000
0010
0100
0010
0100
0010
,
1000
0000
0100
0000
0010
0000
0000
0001
0000
0010
0000
0100
0000
0000
0000
0000
,
1000
0000
0001
0000
1000
0000
0000
0001
0000
0100
0000
0010
0000
0000
0000
0000
,
1000
0000
0010
0000
1000
0000
0000
0001
0000
0100
0000
0010
0000
0000
0000
0000
,
1000
0000
0100
0000
1000
0000
0000
0001
0000
0010
0000
0100
0000
0000
0000
0000
,
1000
0000
0001
0000
1000
0000
0000
0010
0000
0100
0000
0001
0000
0000
0000
0000
,
1000
0000
0100
0000
1000
0000
0000
0001
0000
0010
0000
0001
0000
0000
0000
0000
,
1000
0000
0010
0000
1000
0000
0000
0001
0000
0100
0000
0010
0000
0000
1000
0000
,
0100
0100
0100
0100
,
1000
0000
0001
0000
0100
0000
0000
0010
0000
1000
0000
0010
0000
0000
0100
0000
,
0001
0000
0010
0000
0100
0000
0000
1000
0000
0001
0000
0100
0000
0000
0010
0000
,
1000
0000
0100
0000
0010
0000
0000
0001
0000
0010
0000
0001
0000
0000
1000
0000
,
0010
0000
0100
0000
0001
0000
0000
0100
0000
0010
0000
1000
0000
0000
0100
0000
,
0010
0000
0001
0000
0010
0000
0000
0100
0000
1000
0000
0001
0000
0000
0100
0000
,
0010
0000
1000
0000
0100
0000
0000
1000
0000
0001
0000
0010
0000
0000
0001
0000
,
1000
0000
0010
0000
0100
0000
0000
0001
0000
0100
0000
0010
0000
0000
1000
0000
,
0010
0010
1000
2000
0200
0000
3311
0000
,
1000
0000
0100
0000
1000
0100
0000
0010
,
0001
0000
0000
1000
0000
0000
0010
0000
0100
0000
0001
0000
0100
0000
0010
0000
,
1000
0000
0100
0000
1000
0001
0000
0000
,
1000
0000
0000
0001
0000
0000
0100
0000
0010
0000
1000
0000
0100
0000
0010
0000
,
0001
0000
1000
0000
0001
0100
0000
0000
,
0001
0000
1000
0000
0100
1000
0001
0010
,
0001
0000
1000
0000
0010
0100
0000
0010
,
1000
0000
0001
0200
0002
0000
1313
0000
,
0010
0000
0000
1000
0000
0000
0100
0000
0010
0000
0001
0000
0000
0000
0010
0000
,
0100
0000
0000
1000
0000
0000
0001
0000
0100
0000
0010
0000
1000
0000
0100
0000
,
1000
0000
0000
0001
0000
0000
0010
0000
0001
0000
1000
0000
0000
0000
0010
0000
,
0100
0000
0000
0001
0000
0000
0010
0000
0100
0000
1000
0000
0001
0000
0100
0000
,
0010
0000
0000
1000
0000
0000
0100
0000
0010
0000
0001
0000
0000
0000
0010
0000
,
0100
0000
0000
1000
0000
0000
0001
0000
0100
0000
0010
0000
1000
0000
0100
0000
,
1000
0000
0000
0001
0000
0000
0010
0000
0001
0000
1000
0000
0000
0000
0010
0000
,
0100
0100
0100
0100
0100
0000
0100
0000
,
0001
0000
0000
1000
0000
0000
0100
0000
0010
0000
0001
0000
0000
0000
1000
0000
,
0100
0000
0000
1000
0000
0000
0001
0000
0100
0000
0010
0000
1000
0010
1000
0000
,
0100
0000
0000
0010
0000
0000
0001
0000
0010
0000
0100
0000
0000
0000
1000
0000
,
0001
0000
0000
0100
0000
0000
0010
0000
1000
0000
0100
1000
0100
0000
1000
0000
,
0100
0000
0000
0010
0000
0000
0001
0000
1000
0000
0001
0000
0000
0000
0100
0000
,
0010
0000
0000
1000
0000
0000
0001
0000
0010
0000
0100
1000
0100
0000
1000
0000
,
0001
0000
0000
0010
0000
0000
0001
0000
1000
0000
0010
0000
0000
0000
0010
0000
,
0100
0001
0100
0002
0200
0000
1313
0000
,
0001
0100
0001
0100
0001
0100
0001
0100
,
0001
0100
1000
0100
0010
0100
0010
0100
,
0001
0100
0001
0100
0001
0100
0001
0100
,
0001
0100
1000
0100
0010
0100
0010
0100
,
0001
0100
0001
0100
0001
0100
0001
0100
,
0001
0100
1000
0100
0010
0100
0010
0100
,
0001
0100
0001
0100
0001
0100
0001
0100
,
0001
0100
1000
0100
0010
0100
0002
0000
,
2003
0000
0000
0000
,
0000
0000
0000
0000
,
3200
0000
0000
0000
,
0000
0000
0000
0000
,
0320
0000
0000
0000
,
0000
0000
0000
0000
,
0032
0000
0000
0000
,
2003
0000
0000
0000
,
3001
0100
0001
0100
0010
0100
1000
0100
,
0010
0000
0100
0000
0001
0000
0010
0000
0100
1000
0100
0000
1000
0000
0100
0000
,
1000
0000
0001
0000
0100
0000
0010
0000
1000
0010
1000
0000
0010
0000
1000
0000
,
0100
0000
0010
0000
0001
0000
0010
0000
0100
1000
0100
0000
1000
0000
0000
0000
,
0001
0100
0010
1000
0100
1000
0001
0010
,
0001
0000
1000
0000
0010
0000
1000
0010
1000
0000
0010
0000
0100
0000
0001
0000
,
1000
0001
1000
0001
1000
0001
1000
0000
0001
0000
1000
0000
0100
0000
0010
0000
,
0001
0000
1000
0001
1000
0000
0001
0000
0100
0000
0010
0000
1000
0000
0000
0000
,
0001
0001
0100
0100
0010
0010
1000
1000
,
0100
0010
0001
0010
0100
1000
0001
0010
,
0100
0100
1000
1000
0010
0010
0100
0100
,
0101
0000
0100
0010
1000
0010
1000
0010
,
1000
1000
0100
0100
0010
0010
0001
0001
,
1000
0010
0100
0001
0010
0100
1000
0001
,
0100
0000
0010
0100
0010
0000
0100
0001
0100
0000
0001
0000
1000
0000
0100
0000
,
0010
0000
0001
0010
0001
0000
0010
0000
0100
0000
1000
0000
0002
0000
0000
0000
,
1003
0100
1000
0100
0001
0100
0001
0100
,
1000
0100
1000
0100
0001
0100
0001
0100
,
1000
0100
0010
0001
0010
0100
1000
0000
0000
1100
0000
0000
,
2200
0000
3311
0000
,
1000
0000
0000
1000
0001
0000
0000
0001
0100
0000
0000
0100
0010
0000
0000
0010
,
1000
0000
0000
1000
0100
0000
0000
0100
0010
0000
0001
0010
0001
0000
0010
0000
,
0100
0000
0000
0100
1000
0000
0000
1000
0010
0000
0000
0010
0100
0000
0000
0100
,
0001
0000
0000
0001
1000
0000
0000
1000
0100
0000
1000
0100
1000
0000
0001
0000
,
0010
0000
0000
0010
0001
0000
0000
0001
1000
0000
0000
1000
0010
0000
0000
0010
,
0100
0000
0000
0100
0001
0000
0000
0001
1000
0000
0100
1000
0100
0000
1000
0000
,
0002
0000
0000
0203
0000
0000
0320
0000
,
2030
0000
0000
3200
0000
0000
0320
0000
,
0032
0000
0000
0000
,
0000
0000
0000
0000
,
0000
0000
0000
0000
,
0000
0000
0003
1001
,
1000
0000
0000
0000
1100
0000
0000
1000
0000
0000
0001
0000
0100
0000
0000
0000
,
0001
0000
0000
0000
0011
0000
0000
0010
0000
0000
0100
0000
1000
0000
0000
0000
,
0001
0000
0000
0000
0101
0000
0000
0100
0000
0000
0010
0000
1000
0000
0000
0000
,
0100
0000
0000
0000
1100
0000
0000
1000
0000
0000
0001
0000
0010
0000
0000
0000
,
0001
0000
0000
0000
1001
0000
0000
0001
0000
0000
0100
0000
0010
0000
0000
0000
,
0010
0000
0000
0000
1010
0000
0000
1000
0000
0000
0100
0000
0010
0000
0000
0000
,
0010
0000
0000
0000
0011
0000
0000
0010
0000
0000
0100
0000
1000
0000
0000
0000
,
0001
0000
0000
0000
0101
0000
0000
0100
0000
0000
0010
0000
1000
0000
0000
0000
,
0010
0000
0010
0000
1000
0000
0000
0100
0000
0000
0010
0000
0001
0000
0000
0000
,
1000
0000
1000
0000
0001
0000
0000
0100
0000
0000
0010
0000
1000
0000
0000
0000
,
0001
0000
0001
0000
0010
0000
0000
0001
0000
0000
0100
0000
0010
0000
0000
0000
,
1000
0000
1000
0000
0001
0000
0000
0010
0000
0000
0100
0000
1000
0000
0000
0000
,
0001
0000
0100
0000
0101
0000
0000
0100
0000
0000
0010
0000
1000
0000
0000
0000
,
0010
0000
1000
0000
1010
0000
0000
1000
0000
0000
0100
0000
0010
0000
0000
0000
,
0001
0000
0010
0000
0011
0000
0000
0010
0000
0000
0100
0000
1000
0000
0000
0000
,
0001
0100
0010
1000
0100
0010
0001
1000
;
