#TITLE:Love Hina;
#SUBTITLE:- Sakura Saku [Euro Beat Mix];
#ARTIST:Erina Nakajima;
#TITLETRANSLIT:;
#SUBTITLETRANSLIT:;
#ARTISTTRANSLIT:;
#CREDIT:Anime Toshokan;
#BANNER:Love Hina - Sakura Saku [Euro Beat Mix].png;
#BACKGROUND:Love Hina - Sakura Saku [Euro Beat Mix] bg.png;
#LYRICSPATH:;
#CDTITLE:dejiko.png;
#MUSIC:Love Hina - Sakura Saku [Euro Beat Mix].mp3;
#OFFSET:1.691;
#SAMPLESTART:38.700;
#SAMPLELENGTH:11.600;
#SELECTABLE:YES;
#BPMS:0.000=166.010;
#STOPS:;
#BGCHANGES:24.000=Love Hina - Sakura Saku [Euro Beat Mix].avi=1.000=0=0=1,
320.000=Love Hina - Sakura Saku [Euro Beat Mix] bg.png=1.000=0=0=1,
99999=-nosongbg-=1.000=0=0=0 // don't automatically add -songbackground-
;
// cache tags:
#FIRSTBEAT:8.000;
#LASTBEAT:324.500;
#SONGFILENAME:Songs/DDR Anime 1st Mix/Love Hina - Sakura Saku [Euro Beat Mix]/Love Hina - Sakura Saku [Euro Beat Mix].sm;
#HASMUSIC:1;
#HASBANNER:1;
#MUSICLENGTH:122.254;
// end cache tags

//---------------dance-single - BASIC----------------
#NOTES:
     dance-single:
     BASIC:
     Easy:
     2:
     0.181,0.133,0.008,0.000,0.000,154.000,1.000,0.000,0.000,0.000:
0000
0000
0000
0000
,
0000
0000
0000
0000
,
0000
0000
0000
1000
,
0000
1000
0000
0001
,
0000
0001
0000
1000
,
0000
1000
0000
0100
,
0000
0100
0000
0010
,
0000
0010
0000
1000
,
0000
0001
0000
0100
,
0000
0010
0000
0100
,
0000
1000
0000
0010
,
0000
0001
0000
0010
,
0000
0001
0000
0010
,
0000
1000
0000
0100
,
0000
1000
0000
0100
,
0000
1000
0000
1000
,
0000
0100
0000
1000
,
0000
0001
0000
0010
,
0000
0100
0000
0001
,
0000
0100
0000
0100
,
0000
0100
0000
0100
,
0000
0010
0000
0010
,
0000
0010
0000
0010
,
0000
1000
0000
0001
,
0000
0001
0000
1000
,
0000
1000
0000
0100
,
0000
0100
0000
0010
,
0000
0010
0000
1000
,
0000
0001
0000
0100
,
0000
0010
0000
0100
,
0000
1000
0000
0010
,
0000
0001
0000
0010
,
0000
0001
0000
1000
,
0000
0100
0000
1000
,
0000
0100
0000
1000
,
0000
0010
0000
1000
,
0000
0100
0000
1000
,
0000
0001
0000
0001
,
0000
0001
0000
0001
,
0000
0100
0000
0100
,
0000
0100
0000
0100
,
0000
0010
0000
0010
,
0000
0010
0000
0010
,
0000
0100
0000
0100
,
0000
0100
0000
0100
,
0000
0100
0000
0010
,
0000
0010
0000
0010
,
0000
0010
0000
1000
,
0000
0001
0000
0001
,
0000
0100
0000
1000
,
0000
1000
0000
1000
,
0000
0010
0000
0010
,
0000
0010
0000
0001
,
0000
0001
0000
0001
,
0000
0100
0000
0100
,
0000
0100
0000
1000
,
0000
0001
0000
1000
,
0000
0001
0000
1000
,
0000
0001
0000
0100
,
0000
0010
0000
0100
,
0000
0010
0000
0100
,
0000
0010
0000
1000
,
0000
0100
0000
0001
,
0000
0010
0000
1000
,
0000
0001
0000
0100
,
0000
0010
0000
0100
,
0000
0010
0000
0001
,
0000
1000
0000
0001
,
0000
0100
0000
1000
,
0000
0010
0000
0001
,
0000
0100
0000
1000
,
0000
0010
0000
1000
,
0000
0100
0000
0010
,
0000
0010
0000
1000
,
0000
0100
0000
1000
,
0000
0001
0000
1000
,
0000
0001
0000
1000
,
0000
0001
0000
1000
,
0000
0001
0000
1000
,
0000
0000
0000
0000
,
0000
0000
0000
0000
,
1001
0000
0000
0000
;

//---------------dance-single - ANOTHER----------------
#NOTES:
     dance-single:
     ANOTHER:
     Medium:
     5:
     0.425,0.497,0.409,0.000,0.000,314.000,50.000,0.000,0.000,0.000:
0000
0000
0000
0000
,
0000
0000
0000
0000
,
0000
0000
0000
0000
,
1000
0001
1000
0001
,
1000
0001
0010
0100
,
0010
0100
0010
0100
,
1000
1000
1000
0001
,
0001
0001
0010
0010
,
0010
0100
0100
0100
,
1000
0100
0001
0010
,
1000
0010
0001
0100
,
1010
0100
0101
1000
,
0010
0001
0010
1000
,
0001
0100
1000
0001
,
0100
1000
0010
0100
,
1000
0000
0001
0000
0001
1000
0001
0000
,
0001
0001
0001
1000
,
1000
1000
0100
0010
,
1000
0001
0010
1000
,
0001
0100
1000
0100
,
1000
0110
0010
0001
,
0100
1000
0010
0001
,
0010
1001
0100
1000
,
0001
0010
0100
1000
,
0001
0010
0100
1000
,
0001
0010
1000
0001
,
1000
0001
1000
0100
,
0100
1000
1000
0001
,
0001
0010
0010
0010
,
0110
1001
0110
1001
,
1000
1000
1000
1000
,
1001
0110
1001
0110
,
0001
0001
0001
0001
,
1000
1000
1000
1000
,
0010
1000
0100
0001
,
0010
0100
0001
1000
,
0001
1000
0001
1000
,
1001
0110
1001
0110
,
0010
0010
0010
0010
,
0110
1001
0110
1001
,
0100
1000
0001
0010
,
0100
0100
0001
0001
,
0010
0010
1000
1000
,
1000
0001
0001
0001
,
1000
1000
1000
0100
,
0100
0100
0010
0010
,
0010
1000
1000
1000
,
1000
0010
0010
0010
,
0010
0001
0001
0001
,
0001
0100
0100
0100
,
0100
0010
1000
0001
,
0100
1000
0010
1000
,
0001
0100
1000
0001
,
0110
1001
0110
1001
,
1000
1000
1000
1000
,
1001
0110
1001
0110
,
0001
0001
0001
0001
,
1000
1000
1000
1000
,
0100
0010
1000
0100
,
0001
0010
0100
0001
,
1000
0001
1000
0001
,
1001
0110
1001
0110
,
0010
0010
0010
0010
,
0110
1001
0110
1001
,
0100
0010
0001
1000
,
0100
0001
0010
1000
,
0100
0001
1000
0010
,
0110
0100
0110
1000
,
1001
0001
1001
0110
,
1001
0110
1001
0001
,
0001
0100
0100
0001
,
0001
0010
0010
0100
,
0100
0100
0100
1000
,
1000
1000
1000
0010
,
0010
0010
0010
0001
,
0001
0001
0001
1000
,
0100
0001
0010
1000
,
0100
0001
0010
1000
,
0001
0010
0100
1000
,
0001
1000
0001
1010
,
0011
1100
0101
0110
,
1001
0000
0000
0000
;

//---------------dance-single - MANIAC----------------
#NOTES:
     dance-single:
     MANIAC:
     Hard:
     7:
     0.501,0.498,0.409,0.204,0.025,354.000,50.000,25.000,0.000,0.000:
0000
0000
0000
0000
,
0000
0000
0000
0000
,
0000
0000
0000
0000
,
0110
0000
0110
0000
2000
3000
0002
0003
,
0010
0100
1000
0001
0100
0000
0010
0100
,
1000
0001
0100
0000
1001
0000
1001
0000
,
0100
0001
1000
0010
0100
0000
0100
0001
,
1000
0010
0100
0000
0110
0000
0110
0000
,
1000
0010
0100
0001
1000
0000
1000
0010
,
0001
0100
1000
0000
0001
0000
0010
0000
,
1000
0010
0002
0000
,
1003
0000
1000
0001
1000
0100
0100
0000
,
1000
0000
0001
0000
0010
0010
0010
0000
,
0001
0000
1000
0000
0100
0100
0100
0000
,
0001
0000
1000
0000
1000
0001
1000
0001
,
1000
0000
0000
0110
0000
0110
1001
0000
,
0001
0000
0001
0000
1000
0001
1000
0000
,
0100
0000
0010
0000
0100
0010
0100
0000
,
0001
0000
0001
0000
1000
1000
1000
0000
,
1000
0000
0001
0001
0001
0000
0010
0000
,
0001
0000
0022
0000
0033
0000
0002
0003
,
0000
0100
0000
0100
0000
0000
0000
1100
0000
0000
0000
0000
0100
0000
0000
0000
,
1000
0000
2200
0000
3300
0000
2000
3000
,
0000
0010
0000
0010
0000
0000
0000
0101
0000
0000
0000
0000
1000
0000
0000
0000
,
0100
0000
1000
0100
1000
0000
0001
0000
,
0100
0000
0001
0100
0001
0000
1000
0000
,
0001
1000
0110
1001
,
0110
1001
0001
1000
,
0001
0100
0010
1000
,
0001
1000
0001
0100
1000
0001
1000
0001
,
0000
1000
1001
0001
,
0010
1000
0001
0100
1000
0001
1000
0001
,
0000
0002
0003
2000
,
3000
0200
0000
0000
,
0300
0010
1001
0110
,
1001
0110
0100
1000
,
0010
1000
0001
0100
,
0010
0010
0100
0100
1000
0001
1000
0001
,
0000
0010
0110
0100
,
0010
0010
0100
0100
1000
0001
1000
0001
,
0000
1000
0001
0010
,
0100
0100
0001
0001
,
0010
0010
1000
0100
,
2020
3030
0002
1000
,
0103
2000
0001
3100
,
1000
0001
1000
0001
1000
0000
0001
1000
,
0001
1000
0001
0000
1000
0000
0001
0000
,
1010
0101
0100
1000
,
1100
0011
1000
0001
,
0100
0010
0100
0010
0100
0000
0010
0100
,
0010
0100
0010
0000
0100
0000
0010
0000
,
2000
0000
0000
3000
0002
0000
0000
0003
,
0000
1000
0001
0100
,
0100
0100
0010
0010
0001
1000
0001
1000
,
0000
1000
1100
0100
,
0100
0100
0010
0010
0001
1000
0001
1000
,
0000
2000
3000
0002
,
0003
0200
0000
0000
,
0300
0010
1001
0110
,
1001
0110
0010
0100
,
1000
0001
1000
0001
,
1000
1000
0001
0001
0010
0100
0010
0100
,
0000
1000
1010
0010
,
1000
1000
0001
0001
0010
0100
0010
0100
,
0000
0100
0001
1000
,
0100
0001
0010
1000
,
0100
0001
1000
1001
,
1001
1001
0110
0110
0000
0000
0100
0000
,
0010
0100
1000
1001
,
0110
0110
1001
1001
0000
0000
1000
0000
,
0001
1000
0001
0100
,
0010
0100
0010
0100
,
0010
0100
0110
1000
,
0001
1000
1001
1000
,
0010
1000
1010
0001
,
0010
0001
0011
2000
,
0100
0001
0100
3001
,
1001
0002
0100
1000
,
0100
0000
1003
0000
0020
0000
0000
0200
,
0000
0000
0330
0000
,
0000
1000
0100
0001
0100
0001
0100
0001
,
1000
1001
0000
0000
0000
0000
0000
0000
;

//---------------dance-single - BEGINNER----------------
#NOTES:
     dance-single:
     BEGINNER:
     Beginner:
     2:
     0.183,0.166,0.008,0.000,0.000,156.000,1.000,0.000,0.000,0.000:
0000
0000
0000
0000
,
0000
0000
0000
0000
,
0001
0000
0001
0000
,
1000
0000
1000
0000
,
0001
0000
0001
0000
,
1000
0000
1000
0000
,
0100
0000
0100
0000
,
0010
0000
0010
0000
,
1000
0000
0001
0000
,
0100
0000
0010
0000
,
0100
0000
1000
0000
,
0010
0000
0001
0000
,
0010
0000
0001
0000
,
0010
0000
1000
0000
,
0100
0000
1000
0000
,
0100
0000
1000
0000
,
1000
0000
0100
0000
,
1000
0000
0001
0000
,
0010
0000
0100
0000
,
0001
0000
0100
0000
,
0100
0000
0100
0000
,
0100
0000
0010
0000
,
0010
0000
0010
0000
,
0010
0000
1000
0000
,
0001
0000
0001
0000
,
1000
0000
1000
0000
,
0100
0000
0100
0000
,
0010
0000
0010
0000
,
1000
0000
0001
0000
,
0100
0000
0010
0000
,
0100
0000
1000
0000
,
0010
0000
0001
0000
,
0010
0000
0001
0000
,
1000
0000
0100
0000
,
1000
0000
0100
0000
,
1000
0000
0010
0000
,
1000
0000
0100
0000
,
1000
0000
0001
0000
,
0001
0000
0001
0000
,
0001
0000
0100
0000
,
0100
0000
0100
0000
,
0100
0000
0010
0000
,
0010
0000
0010
0000
,
0010
0000
0100
0000
,
0100
0000
0100
0000
,
0100
0000
0100
0000
,
0010
0000
0010
0000
,
0010
0000
0010
0000
,
1000
0000
0001
0000
,
0001
0000
0100
0000
,
1000
0000
1000
0000
,
1000
0000
0010
0000
,
0010
0000
0010
0000
,
0001
0000
0001
0000
,
0001
0000
0100
0000
,
0100
0000
0100
0000
,
1000
0000
0001
0000
,
1000
0000
0001
0000
,
1000
0000
0001
0000
,
0100
0000
0010
0000
,
0100
0000
0010
0000
,
0100
0000
0010
0000
,
1000
0000
0100
0000
,
0001
0000
0010
0000
,
1000
0000
0001
0000
,
0100
0000
0010
0000
,
0100
0000
0010
0000
,
0001
0000
1000
0000
,
0001
0000
0100
0000
,
1000
0000
0010
0000
,
0001
0000
0100
0000
,
1000
0000
0010
0000
,
1000
0000
0100
0000
,
0010
0000
0010
0000
,
1000
0000
0100
0000
,
1000
0000
0001
0000
,
1000
0000
0001
0000
,
1000
0000
0001
0000
,
1000
0000
0001
0000
,
1000
0000
0000
0000
,
0000
0000
0000
0000
,
1001
0000
0000
0000
;
