#TITLE:MaxX AttaxX;
#SUBTITLE:;
#ARTIST:DM Ashura;
#TITLETRANSLIT:;
#SUBTITLETRANSLIT:;
#ARTISTTRANSLIT:;
#CREDIT:;
#BANNER:MaxX AttaxX-bn.JPG;
#BACKGROUND:MaxX AttaxX-bg.JPG;
#LYRICSPATH:;
#CDTITLE:;
#MUSIC:MaxX AttaxX.ogg;
#OFFSET:-6.000;
#SAMPLESTART:32.740;
#SAMPLELENGTH:12.000;
#SELECTABLE:YES;
#BPMS:0.000=325.499,128.000=162.739,132.000=325.999,260.000=642.000,324.000=162.000,356.000=325.000;
#STOPS:127.938=1.480
,260.000=0.090
,261.000=0.090
,262.000=0.090
,263.000=0.090
,264.000=0.090
,265.000=0.090
,266.000=0.090
,267.000=0.090
,268.000=0.090
,269.000=0.090
,270.000=0.090
,271.000=0.090
,272.000=0.090
,273.000=0.090
,274.000=0.090
,275.000=0.090
,276.000=0.090
,277.000=0.090
,278.000=0.090
,279.000=0.090
,280.000=0.090
,281.000=0.090
,282.000=0.090
,283.000=0.090
,284.000=0.090
,285.000=0.090
,286.000=0.090
,287.000=0.090
,288.000=0.090
,289.000=0.090
,290.000=0.090
,291.000=0.090
,292.000=0.090
,293.000=0.090
,294.000=0.090
,295.000=0.090
,296.000=0.090
,297.000=0.090
,298.000=0.090
,299.000=0.090
,300.000=0.090
,301.000=0.090
,302.000=0.090
,303.000=0.090
,304.000=0.090
,305.000=0.090
,306.000=0.090
,307.000=0.090
,308.000=0.090
,309.000=0.090
,310.000=0.090
,311.000=0.090
,312.000=0.090
,313.000=0.090
,314.000=0.090
,315.000=0.090
,316.000=0.090
,317.000=0.090
,318.000=0.090
,319.000=0.090
,320.000=0.090
,321.000=0.090
,322.000=0.090
,323.000=0.150
;
#BGCHANGES:0.000=MaxX AttaxX-bg.JPG=1.000=0=0=1,
99999=-nosongbg-=1.000=0=0=0 // don't automatically add -songbackground-
;
// cache tags:
#FIRSTBEAT:0.000;
#LASTBEAT:424.000;
#SONGFILENAME:Songs/StepMix 2/MaxX AttaxX/MaxX AttaxX.sm;
#HASMUSIC:1;
#HASBANNER:1;
#MUSICLENGTH:95.937;
// end cache tags

//---------------dance-single - ----------------
#NOTES:
     dance-single:
     :
     Challenge:
     12:
     1.000,1.000,1.000,0.208,0.005,565.000,97.000,20.000,40.000,25.000:
1100
0100
0110
0010
,
0011
0000
1000
0100
0001
0010
0001
0100
,
1010
0010
0110
0100
,
0101
0000
0010
1000
0001
0100
1000
0001
,
0110
0010
0011
0001
,
1001
0000
0010
0001
0100
0001
0100
0010
,
1100
0100
0110
0010
,
0011
0000
0001
0010
0100
1000
0010
0100
,
1001
0000
0100
0001
0100
0000
0010
0100
,
1000
0000
0100
0010
0001
0010
0100
1000
,
0110
0000
0001
1000
0001
0000
1000
0100
,
0010
0000
1000
0100
0010
0001
0010
0001
,
1010
0000
0100
1000
0100
0000
0100
0010
,
0001
0000
0001
0010
0100
0001
1000
0010
,
0101
0100
0001
0010
,
0110
0000
1001
0000
,
0001
0000
1000
0100
0010
0100
1000
0001
,
0010
0000
0001
0010
0100
0010
0001
1000
,
0100
0000
0001
0010
0001
0100
0001
1000
,
0001
0000
0010
0100
0010
1000
0001
0010
,
0100
0000
0001
0010
0001
0100
1000
0010
,
0100
0000
0001
0100
0010
0100
1000
0010
,
0001
0000
0100
0010
0100
1000
0001
0010
,
0100
0000
0001
0100
1000
0010
0001
0010
,
0100
0000
0001
0010
0001
0100
0001
1000
,
0001
0100
0001
0010
0001
0010
0100
0010
,
1000
0010
0100
0010
0001
0010
0100
1000
,
0100
0010
0100
0001
0010
0001
0100
1000
,
0100
0001
0010
0001
0100
0010
0001
1000
,
0001
0010
0100
0001
0010
0001
0010
0001
,
0100
0010
0100
0010
1000
0100
1000
0100
,
0001
0000
0000
0000
0000
0000
0000
0000
0010
0000
0000
0000
0000
0000
0000
0000
0100
0000
0000
0000
0000
0000
0000
0000
1000
0000
0000
0000
0000
0000
0000
0000
0001
0000
0000
0000
0000
0000
0000
0000
0010
0000
0000
0000
0000
0000
0000
0000
0100
0000
0000
0000
0000
0000
0000
0000
1000
0000
0000
0000
0000
0000
0000
0002
,
0100
0100
0100
0113
,
1001
0000
0010
0100
0010
0000
0001
0000
,
0010
0000
0100
0010
1000
0000
0001
0000
,
0010
0000
0001
0100
0010
0000
0001
0000
,
1000
0001
0000
1000
0001
0000
0100
0000
,
0011
0000
0100
0001
0100
0000
0010
0000
,
1000
0000
0001
0100
0001
0000
0100
0000
,
0010
0000
0100
1000
0100
0000
0001
0000
,
1000
0001
0000
1000
0001
0000
0100
0000
,
1100
0000
0001
0010
0100
0000
0001
0000
,
1000
0000
0010
0100
0001
0000
0100
0000
,
0001
0000
1000
0001
1000
0000
0001
0000
,
0100
0001
0000
0100
0001
0000
0010
0000
,
1100
0000
0001
0010
0100
0000
0001
0000
,
0010
0000
0100
1000
0001
0000
0010
0000
,
0001
0000
0100
0010
1000
0000
0010
0000
,
0100
0001
0000
0100
0001
0000
0010
0000
,
1100
0000
0010
0100
0001
0000
0010
0000
,
1000
0000
0100
1000
0010
0000
0001
0000
,
0100
0000
0010
1000
0010
0000
0001
0000
,
0010
1000
0000
0010
1000
0000
0001
0000
,
0110
0000
0001
0010
0001
0000
0100
0000
,
1000
0000
0001
0010
0100
0000
0010
0000
,
0001
0000
1000
0100
0010
0000
0100
0000
,
0001
1000
0000
0001
1000
0000
0001
0000
,
1100
0000
0010
0100
0010
0000
0001
0000
,
1000
0000
0100
0001
0100
0000
0010
0000
,
0001
0000
1000
0100
0010
0000
0100
0000
,
0001
0100
0000
0001
0100
0000
0010
0000
,
1000
0000
0100
0010
0001
0000
0010
0000
,
1000
0000
0001
0010
0100
0000
1000
0000
,
0001
0000
0010
0100
0010
0000
0100
0000
,
1000
0001
0000
1000
0001
0000
0100
0000
,
0110
0011
1101
1010
,
0110
0101
1M11
MMMM
,
1001
1010
0111
1100
,
1001
0011
111M
MMMM
,
0110
1100
1011
0101
,
0110
1010
11M1
MMMM
,
1001
0101
1110
0011
,
1001
1100
M111
MMMM
,
1100
0011
1101
1010
,
1001
0110
1M11
MMMM
,
1010
0101
1110
0011
,
0110
1001
M111
MMMM
,
0011
1100
1011
0101
,
1001
0110
11M1
MMMM
,
0101
1010
0111
1101
,
0110
1001
111M
MMMM
,
2010
0100
0010
0100
0001
0010
3100
0010
,
0201
0010
0301
0010
2001
0100
3001
0010
,
0201
1000
0010
0001
2010
0000
3301
0010
,
2100
0010
0001
0010
0002
0100
3013
1000
,
0210
1000
0001
1000
0010
1000
0301
1000
,
0012
1000
0010
0100
0010
1000
0103
1000
,
0021
0100
0001
0100
0001
1000
0031
0100
,
2001
0100
0010
0001
0010
0100
3010
0001
,
1000
0000
0010
0000
0001
0100
0000
0100
,
0001
0000
0010
0000
1000
0001
0000
0001
,
1000
0000
0100
0000
0010
0100
0000
0100
,
0010
0100
0022
0000
,
1033
0000
0010
0000
0100
0001
0000
0001
,
0100
0000
0010
0000
1000
0010
0000
0010
,
1000
0000
0100
0000
0001
0100
0000
0100
,
0001
0010
2200
0000
,
3301
0000
0100
0000
1000
0010
0000
0010
,
1000
0000
0100
0000
0001
1000
0000
1000
,
0001
0000
0010
0000
0100
0010
0000
0010
,
0100
0010
2200
0000
,
3301
0000
0100
0000
0010
1000
0000
1000
,
0010
0000
0100
0000
0001
0100
0000
0100
,
0001
0000
0010
0000
1000
0010
0000
0010
,
1000
0100
0011
0000
,
2200
0000
0000
3300
;

//---------------dance-single - Blank----------------
#NOTES:
     dance-single:
     Blank:
     Hard:
     10:
     0.852,0.994,0.313,0.146,0.005,528.000,30.000,14.000,16.000,12.000:
1000
0100
0010
0001
,
1000
0000
0001
0010
0001
0010
0001
0010
,
0001
0100
0010
1000
,
0010
0000
1000
0010
1000
0010
1000
0010
,
0100
0001
0010
1000
,
0010
0000
0100
0010
1000
0001
0100
1000
,
0010
1000
0001
0010
,
0100
0000
0001
0100
0001
0100
0001
1000
,
0100
0010
0001
1000
,
0100
0000
1000
0100
1000
0100
1000
0100
,
1000
0010
0001
0100
,
0001
0000
0100
0001
0100
1000
0100
0001
,
0010
1000
0001
0100
,
0001
0100
0010
0001
0100
1000
0010
0100
,
0001
0100
1000
0001
,
0010
0000
0000
0000
,
1100
0000
1000
0100
1000
0100
1000
0100
,
1000
0000
0001
0010
0001
0100
0001
0010
,
0001
0000
0010
0100
0010
0001
0010
1000
,
0010
0000
0100
1000
0100
0001
0100
0010
,
0100
0000
0010
0100
0010
0001
0010
0100
,
0010
0000
0100
0010
0100
1000
0100
0001
,
0100
0000
0010
0100
0010
0100
0010
0100
,
0010
0000
0100
0010
0100
0010
0100
0010
,
0100
0000
1000
0100
1000
0010
1000
0100
,
1000
0001
0010
0001
0010
0100
0010
1000
,
0010
0100
0010
0001
0010
0100
0010
1000
,
0010
0100
0010
0001
1000
0100
0010
0001
,
0010
0100
1000
0100
1000
0100
0010
0001
,
0010
0100
0010
1000
0010
0100
0001
0100
,
1000
0001
1000
0100
0010
0001
1000
0100
,
0010
0000
0000
0000
0000
0000
0000
0000
0001
0000
0000
0000
0000
0000
0000
0000
1000
0000
0000
0000
0000
0000
0000
0000
0100
0000
0000
0000
0000
0000
0000
0000
0010
0000
0000
0000
0000
0000
0000
0000
0001
0000
0000
0000
0000
0000
0000
0000
1000
0000
0000
0000
0000
0000
0000
0000
0010
0000
0000
0000
0000
0000
0000
0002
,
0100
0100
0100
0100
,
1003
0000
0010
1000
0010
0000
0001
0000
,
1000
0000
0100
0010
0100
0000
0010
0000
,
0001
0000
0001
0100
0001
0000
0100
0000
,
0010
1000
0000
0010
1000
0000
0010
0000
,
0001
0000
0010
1000
0010
0000
0001
0000
,
1000
0000
0100
0010
0001
0000
0010
0000
,
0001
0000
0010
0100
0010
0000
0001
0000
,
1000
0010
0000
1000
0010
0000
0100
0000
,
0001
0000
0010
0100
1000
0000
0100
0000
,
0001
0000
0010
0001
0100
0000
0010
0000
,
1000
0000
0100
0010
0100
0000
0001
0000
,
0010
0100
0000
0010
0100
0000
0001
0000
,
1000
0000
0100
0010
0001
0000
0010
0000
,
0001
0000
0010
0100
1000
0000
0100
0000
,
0010
0000
0100
1000
0100
0000
0010
0000
,
0001
1000
0000
0001
1000
0000
0010
0000
,
0100
0000
0010
0001
0010
0000
1000
0000
,
0100
0000
0001
0010
0001
0000
0010
0000
,
1000
0000
1000
0001
1000
0000
0001
0000
,
0010
0100
0000
0010
0100
0000
0010
0000
,
1000
0000
0010
0001
0010
0000
1000
0000
,
0100
0000
0001
0010
1000
0000
0010
0000
,
1000
0000
0010
0001
0010
0000
1000
0000
,
0100
0010
0000
0100
0010
0000
0001
0000
,
1000
0000
0010
0001
0100
0000
0001
0000
,
1000
0000
0010
1000
0001
0000
0010
0000
,
0100
0000
0001
0100
0001
0000
1000
0000
,
0010
0001
0000
0010
0001
0000
1000
0000
,
0100
0000
0001
0010
1000
0000
0010
0000
,
1000
0000
0010
1000
0100
0000
0001
0000
,
0010
0000
0001
0010
0001
0000
0010
0000
,
1000
0100
0000
1000
0100
0000
0010
0000
,
1000
0100
0110
0010
,
0001
0010
0101
0M0M
,
0100
0001
1001
1000
,
0010
1000
0011
00MM
,
0001
0010
0110
0100
,
1000
0100
1010
M0M0
,
0010
1000
1001
0001
,
0100
0001
1100
MM00
,
0001
0010
0110
0100
,
1000
0100
1010
M0M0
,
0010
1000
1001
0001
,
0100
0001
1100
MM00
,
1000
0100
0110
0010
,
0001
0010
0101
0M0M
,
0100
0001
1001
1100
,
0010
1000
0011
00MM
,
2100
0001
0100
3001
,
0210
1000
0321
0100
,
1032
0010
0120
1000
,
1203
0001
1032
0010
,
2313
0001
0100
0010
,
3012
0100
0010
1000
,
0123
1000
0100
0001
,
1230
0001
0010
1000
,
0301
0000
0010
0000
0100
1000
0000
1000
,
0100
0000
0010
0000
0001
0100
0000
0100
,
0001
0000
0010
0000
0100
0010
0000
0010
,
0100
0010
0100
0000
,
0100
0000
0001
0000
1000
0010
0000
0010
,
1000
0000
0001
0000
0100
1000
0000
1000
,
0100
0000
0001
0000
1000
0001
0000
0001
,
1000
0001
1000
0000
,
1000
0000
0100
0000
0010
0001
0000
0001
,
0010
0000
0100
0000
1000
0010
0000
0010
,
1000
0000
0100
0000
0010
0100
0000
0100
,
0010
0100
0010
0000
,
0010
0000
1000
0000
0001
0100
0000
0100
,
0001
0000
1000
0000
0010
0001
0000
0001
,
0010
0000
1000
0000
0001
1000
0000
1000
,
0001
1000
0001
0000
,
2020
0000
0000
0000
,
3030
0000
0000
0000
;

//---------------dance-single - ----------------
#NOTES:
     dance-single:
     :
     Medium:
     8:
     0.612,0.994,0.229,0.115,0.005,378.000,22.000,11.000,21.000,0.000:
1000
0000
0100
0000
,
0001
0000
0010
0000
,
0100
0000
0001
0000
,
0010
0000
0001
0000
,
1000
0000
0001
0000
,
0010
0000
0100
0000
,
0001
0000
0100
0000
,
0001
0000
1000
0000
,
0010
0000
0100
0000
,
0001
0000
0010
0000
,
0001
0000
0100
0000
,
0010
0000
1000
0000
,
0001
0000
0010
0000
,
0001
0000
0100
0000
,
0010
0000
0001
0000
,
0100
0000
0010
0000
,
0110
0000
0010
0000
,
0011
0000
0001
0000
,
0101
0000
0100
0000
,
1100
0000
1000
0000
,
1010
0000
0010
0000
,
0011
0000
0001
0000
,
0101
0000
0100
0000
,
0110
0000
0010
0000
,
1010
0000
0010
0000
,
0100
0000
0010
0000
,
1000
0000
0001
0000
,
1000
0000
0001
0000
,
0010
0001
0100
1000
,
0010
0001
0100
1000
,
0010
0100
0010
0100
0010
0100
0010
0100
,
0001
0000
0000
0000
0000
0000
0000
0000
1000
0000
0000
0000
0000
0000
0000
0000
0001
0000
0000
0000
0000
0000
0000
0000
1000
0000
0000
0000
0000
0000
0000
0000
0001
0000
0000
0000
0000
0000
0000
0000
1000
0000
0000
0000
0000
0000
0000
0000
0001
0000
0000
0000
0000
0000
0000
0000
1000
0000
0000
0000
0000
0000
0000
0002
,
1000
0010
0100
1003
,
1000
0100
0001
0010
,
0001
0100
0010
1000
,
0100
0010
0001
0010
,
1000
0010
0000
1000
0010
0000
0100
0000
,
0010
0001
0010
0100
,
0001
0100
0001
1000
,
0100
0010
0001
0010
,
0001
0100
0000
0001
0100
0000
0010
0000
,
1000
0100
0010
0001
,
0010
0100
0001
0100
,
0010
0010
1000
0100
,
0010
1000
0000
0010
1000
0000
0010
0000
,
0100
0010
0001
0010
,
0100
0001
1000
0100
,
0010
0001
0010
0100
,
0100
0001
0000
0100
0001
0000
0010
0000
,
1000
0100
0010
0100
,
1000
0001
0010
0001
,
0100
0001
0100
0010
,
1000
0001
0000
1000
0001
0000
0010
0000
,
1000
0100
0001
0100
,
1000
0001
0010
0001
,
0010
0100
0001
0010
,
1000
0010
0000
1000
0010
0000
0100
0000
,
0001
0100
0001
0100
,
0010
1000
0100
0100
,
0001
0010
0100
0100
,
0001
0100
0000
0001
0100
0000
1000
0000
,
0100
0010
0100
0100
,
0001
0010
0001
0100
,
0010
1000
0100
0001
,
0100
0010
0000
0100
0010
0000
0100
0000
,
1000
0000
0100
0000
,
0010
0000
0001
00MM
,
1000
0000
0010
0000
,
0100
0000
1000
MM00
,
0100
0000
0001
0000
,
0010
0000
0100
MMM0
,
0001
0000
0100
0000
,
0100
0000
0010
0MMM
,
0100
0000
1000
0000
,
0010
0000
0010
0MMM
,
0010
0000
0001
0000
,
0100
0000
0001
00MM
,
0001
0000
1000
0000
,
0100
0000
0100
MMM0
,
0100
0000
0010
0000
,
1000
0000
1000
MMM0
,
1000
0010
0100
0010
0001
0010
0001
0100
,
0010
0001
1000
0100
1000
0010
0001
0100
,
0010
0001
1000
0100
0010
0001
0100
0010
,
0001
0010
1000
0010
0100
0010
0100
1000
,
0010
0100
0001
1000
0001
0010
0100
1000
,
0010
0100
0001
1000
0010
0100
1000
0010
,
1000
0010
0100
0001
0010
0001
0100
1000
,
0010
0100
0001
0010
0001
0100
0010
1000
,
0100
0000
0010
0000
0010
0100
0000
0000
,
0001
0000
0010
0000
0010
1000
0000
0000
,
0001
0000
0100
0000
0001
0010
0000
0000
,
0011
0000
1010
0000
0220
0000
0000
0330
,
0001
0000
0010
0000
0100
0001
0000
0000
,
0100
0000
1000
0000
0010
0100
0000
0000
,
0001
0000
0010
0000
0100
0010
0000
0000
,
0110
0000
0011
0000
2200
0000
0000
3300
,
1000
0000
0010
0000
0010
1000
0000
0000
,
0100
0000
0010
0000
0010
0001
0000
0000
,
0100
0000
1000
0000
0100
0010
0000
0000
,
0110
0000
0011
0000
2020
0000
0000
3030
,
0100
0000
0010
0000
1000
0100
0000
0000
,
1000
0000
0001
0000
0010
1000
0000
0000
,
0100
0000
0010
0000
1000
0010
0000
0000
,
1010
0000
0110
0000
2002
0000
0000
3003
,
0220
0000
0000
0000
,
0330
0000
0000
0000
;

//---------------dance-single - ----------------
#NOTES:
     dance-single:
     :
     Beginner:
     2:
     0.128,0.276,0.010,0.031,0.005,82.000,1.000,3.000,0.000,0.000:
1000
0000
0000
0000
,
0000
0000
0000
0000
,
1000
0000
0000
0000
,
0000
0000
0000
0000
,
0100
0000
0000
0000
,
0000
0000
0000
0000
,
0100
0000
0000
0000
,
0000
0000
0000
0000
,
0010
0000
0000
0000
,
0000
0000
0000
0000
,
0010
0000
0000
0000
,
0000
0000
0000
0000
,
0001
0000
0000
0000
,
0000
0000
0000
0000
,
0001
0000
0000
0000
,
0000
0000
0000
0000
,
1000
0000
0000
0000
,
0100
0000
0000
0000
,
0010
0000
0000
0000
,
0001
0000
0000
0000
,
1000
0000
0000
0000
,
0100
0000
0000
0000
,
0010
0000
0000
0000
,
0001
0000
0000
0000
,
1000
0000
0000
0000
,
1000
0000
0000
0000
,
0100
0000
0000
0000
,
0100
0000
0000
0000
,
0010
0000
0000
0000
,
0010
0000
0000
0000
,
0001
0000
0000
0000
,
0001
0000
0000
0000
0000
0000
0000
0000
0000
0000
0000
0000
0000
0000
0000
0000
0000
0000
0000
0000
0000
0000
0000
0000
0000
0000
0000
0000
0000
0000
0000
0000
0000
0000
0000
0000
0000
0000
0000
0000
0000
0000
0000
0000
0000
0000
0000
0000
0000
0000
0000
0000
0000
0000
0000
0000
0000
0000
0000
0000
0000
0000
0000
0002
,
0000
0000
0000
0000
,
1003
0000
0000
0000
,
0000
0000
0000
0000
,
1000
0000
0000
0000
,
0000
0000
0000
0000
,
0100
0000
0000
0000
,
0000
0000
0000
0000
,
0100
0000
0000
0000
,
0000
0000
0000
0000
,
0010
0000
0000
0000
,
0000
0000
0000
0000
,
0010
0000
0000
0000
,
0000
0000
0000
0000
,
0001
0000
0000
0000
,
0000
0000
0000
0000
,
0001
0000
0000
0000
,
0000
0000
0000
0000
,
1000
0000
0000
0000
,
0000
0000
0000
0000
,
0100
0000
0000
0000
,
0000
0000
0000
0000
,
0010
0000
0000
0000
,
0000
0000
0000
0000
,
0001
0000
0000
0000
,
0000
0000
0000
0000
,
1000
0000
0000
0000
,
0000
0000
0000
0000
,
0010
0000
0000
0000
,
0000
0000
0000
0000
,
0100
0000
0000
0000
,
0000
0000
0000
0000
,
0001
0000
0000
0000
,
0000
0000
0000
0000
,
1000
0000
0000
0000
,
0010
0000
0000
0000
,
0100
0000
0000
0000
,
0001
0000
0000
0000
,
0010
0000
0000
0000
,
0001
0000
0000
0000
,
0100
0000
0000
0000
,
0010
0000
0000
0000
,
0100
0000
0000
0000
,
1000
0000
0000
0000
,
0010
0000
0000
0000
,
0100
0000
0000
0000
,
1000
0000
0000
0000
,
0010
0000
0000
0000
,
0001
0000
0000
0000
,
0100
0000
0000
0000
,
1000
0000
0000
0000
,
0001
0000
0000
0000
,
0100
0000
0000
0000
,
0010
0000
0000
0000
,
0001
0000
0000
0000
,
0100
0000
0000
0000
,
0010
0000
0000
0000
,
0100
0000
0000
0000
,
0001
0000
0000
0000
,
1000
0000
0000
0000
,
0010
0000
0000
0000
,
0100
0000
0000
0000
,
0001
0000
0000
0000
,
0010
0000
0000
0000
,
0100
0000
0000
0000
,
0001
0000
0000
0000
,
0010
0000
0000
0000
,
0001
0000
0000
0000
,
1000
0000
0000
0000
,
0100
0000
0000
0000
,
0010
0000
0000
0000
,
1000
0000
0000
0000
,
0010
0000
0000
0000
,
0001
0000
0000
0000
,
0220
0000
0000
0000
,
0330
0000
0000
0000
;

//---------------dance-double - ----------------
#NOTES:
     dance-double:
     :
     Hard:
     13:
     0.868,0.994,0.344,0.167,0.005,532.000,33.000,16.000,64.000,12.000:
00100000
00010000
00001000
00000010
,
00000001
00000000
00000010
00000001
00000100
00000001
00001000
00000001
,
00000010
00001000
00010000
01000000
,
10000000
00000000
01000000
10000000
00100000
10000000
00010000
10000000
,
01000000
00100000
00001000
00000100
,
00000001
00000000
00000100
00000010
00000100
00001000
00010000
01000000
,
00100000
01000000
10000000
01000000
,
00010000
00000000
00010000
00001000
00100000
00001000
01000000
00001000
,
01000000
00000010
00001000
00100000
,
10000000
00000000
00100000
10000000
00010000
10000000
00001000
10000000
,
00100000
00001000
00000010
00000001
,
00000100
00000000
00000001
00000100
01000000
00000100
00000010
00000100
,
00000001
01000000
00001000
00010000
,
10000000
00000000
00010000
00100000
00010000
00001000
00000010
00000001
,
01000000
00000001
00000100
00000001
,
00000010
00000000
00000010
00001000
01000000
00001000
00000001
00001000
,
00000100
00000000
00000010
00000100
00001000
00010000
00100000
01000000
,
10000000
00000000
00100000
00010000
00001000
00000100
00000010
00000001
,
00000010
00000000
00000100
00001000
00010000
00100000
00010000
00100000
,
01000000
00000000
00100000
01000000
10000000
01000000
00100000
00010000
,
00001000
00000000
00000100
00001000
00010000
00001000
00000100
00000010
,
00000001
00000000
00000010
00000100
00001000
00010000
00100000
01000000
,
10000000
00000000
01000000
00100000
00010000
00001000
00010000
00100000
,
00010000
00000000
00001000
00010000
00100000
01000000
10000000
01000000
,
00100000
00000000
00001000
00000100
00000010
00000001
00000010
00000100
,
00001000
00000000
00010000
00100000
01000000
00100000
00010000
00001000
,
00000100
00000010
00000100
00001000
00010000
00100000
01000000
10000000
,
01000000
00100000
00010000
00001000
00000100
00000010
00000001
00000010
,
00000100
00001000
00010000
00001000
00000100
00001000
00010000
00100000
,
01000000
10000000
01000000
00100000
00010000
00001000
00000100
00001000
,
00010000
00100000
00010000
00001000
00000100
00000010
00000001
00000010
,
00000100
00000000
00000000
00000000
00000000
00000000
00000000
00000000
00001000
00000000
00000000
00000000
00000000
00000000
00000000
00000000
00010000
00000000
00000000
00000000
00000000
00000000
00000000
00000000
00100000
00000000
00000000
00000000
00000000
00000000
00000000
00000000
01000000
00000000
00000000
00000000
00000000
00000000
00000000
00000000
10000000
00000000
00000000
00000000
00000000
00000000
00000000
00000000
01000000
00000000
00000000
00000000
00000000
00000000
00000000
00000000
00100000
00000000
00000000
00000000
00000000
00000000
00000000
00020000
,
01000000
00001000
00000001
00000100
,
00031000
00000000
01000000
00100000
00010000
00000000
00001000
00000000
,
00000100
00000000
00100000
01000000
10000000
00000000
00000100
00000000
,
00001000
00000000
00000100
00000010
00000001
00000000
00000100
00000000
,
00001000
01000000
00000000
00001000
01000000
00000000
00100000
00000000
,
00001000
00000000
00010000
00100000
01000000
00000000
00000100
00000000
,
00001000
00000000
00000010
00000100
00001000
00000000
00010000
00000000
,
01000000
00000000
10000000
01000000
00100000
00000000
00010000
00000000
,
00100000
00001000
00000000
00100000
00001000
00000000
00010000
00000000
,
00000100
00000000
00001000
00010000
00100000
00000000
01000000
00000000
,
00100000
00000000
00010000
00001000
00000100
00000000
00010000
00000000
,
00000010
00000000
00000100
00001000
00010000
00000000
00100000
00000000
,
00001000
00000010
00000000
00001000
00000010
00000000
00000100
00000000
,
00100000
00000000
10000000
01000000
00100000
00000000
10000000
00000000
,
00010000
00000000
00001000
00010000
00100000
00000000
00000100
00000000
,
00000001
00000000
00000010
00000100
00001000
00000000
00010000
00000000
,
01000000
00010000
00000000
01000000
00010000
00000000
00100000
00000000
,
00010001
00000000
00000010
00000100
00001000
00000000
00010000
00000000
,
00100000
00000000
00000100
00000010
00000001
00000000
00100000
00000000
,
00010000
00000000
00100000
01000000
10000000
00000000
00100000
00000000
,
00010000
00000010
00000000
00010000
00000010
00000000
00000100
00000000
,
00010000
00000000
00001000
00000100
00000010
00000000
00100000
00000000
,
00010000
00000000
01000000
00100000
00010000
00000000
00001000
00000000
,
00000010
00000000
00000001
00000010
00000100
00000000
00001000
00000000
,
00000100
00010000
00000000
00000100
00010000
00000000
00001000
00000000
,
00100000
00000000
00010000
00001000
00000100
00000000
00000010
00000000
,
00000100
00000000
00001000
00010000
00100000
00000000
00001000
00000000
,
01000000
00000000
00100000
00010000
00001000
00000000
00000100
00000000
,
00010000
01000000
00000000
00010000
01000000
00000000
00100000
00000000
,
00000100
00000000
00000001
00000010
00000100
00000000
00000001
00000000
,
00001000
00000000
00010000
00001000
00000100
00000000
00100000
00000000
,
10000000
00000000
01000000
00100000
00010000
00000000
00001000
00000000
,
00000010
00001000
00000000
00000010
00001000
00000000
00000100
00000000
,
10000000
00100000
00011000
00000010
,
00000100
00010000
00011000
MMMMMMMM
,
10000000
00010000
00100010
00001000
,
00000001
00001000
01000100
MMMMMMMM
,
00000001
00000100
00011000
01000000
,
00100000
00001000
00011000
MMMMMMMM
,
00000001
00001000
01000100
00010000
,
10000000
00010000
00100010
MMMMMMMM
,
00000001
00000100
00011000
01000000
,
00100000
00001000
00011000
MMMMMMMM
,
00000001
00001000
01000100
00010000
,
10000000
00010000
00100010
MMMMMMMM
,
10000000
00100000
00011000
00000010
,
00000100
00010000
00011000
MMMMMMMM
,
10000000
00010000
00100010
00001000
,
00000001
00001000
01000100
MMMMMMMM
,
20000000
01000000
00001000
00100000
,
32001000
00010000
03200100
00001000
,
00320010
00001000
00132000
01000000
,
00103200
00001000
00010320
00000100
,
00010032
00010000
00001000
01000000
,
00100023
00010000
00001000
00100000
,
01000230
00001000
00010000
00000010
,
01002300
10000000
00100000
00000100
,
00113000
00000000
00010000
00000000
01000000
00010000
00000000
00010000
,
01000000
00000000
00001000
00000000
00000100
00010000
00000000
00010000
,
00000100
00000000
00000001
00000000
00000100
01000000
00000000
01000000
,
00000100
00001000
00110000
00000000
,
00010000
00000000
00000100
00000000
00100000
00001000
00000000
00001000
,
00100000
00000000
01000000
00000000
10000000
00010000
00000000
00010000
,
10000000
00000000
00100000
00000000
00001000
00100000
00000000
00100000
,
00001000
00000100
00011000
00000000
,
00010000
00000000
00000100
00000000
00001000
00000010
00000000
00000010
,
00001000
00000000
00100000
00000000
00010000
01000000
00000000
01000000
,
00010000
00000000
00000100
00000000
00010000
00000100
00000000
00000100
,
00010000
01000000
01100000
00000000
,
00001000
00000000
00000010
00000000
00000001
00000100
00000000
00000100
,
00000001
00000000
00001000
00000000
00010000
00000100
00000000
00000100
,
00010000
00000000
00100000
00000000
01000000
00001000
00000000
00001000
,
01000000
00100000
00101000
00000000
,
00222200
00000000
00000000
00000000
,
00333300
00000000
00000000
00000000
;

//---------------dance-single - ----------------
#NOTES:
     dance-single:
     :
     Easy:
     5:
     0.348,0.718,0.511,0.031,0.005,182.000,49.000,3.000,0.000,1.000:
1000
0000
0000
0000
,
0100
0000
0000
0000
,
1000
0000
0000
0000
,
0010
0000
0000
0000
,
0100
0000
0000
0000
,
0001
0000
0000
0000
,
0100
0000
0000
0000
,
0100
0000
0000
0000
,
0010
0000
0000
0000
,
0100
0000
0000
0000
,
0010
0000
0000
0000
,
1000
0000
0000
0000
,
0001
0000
0000
0000
,
0010
0000
0000
0000
,
0001
0000
0000
0000
,
0100
0000
0000
0000
,
1000
0000
0001
0000
,
0100
0000
0100
0000
,
0010
0000
0001
0000
,
0001
0000
0100
0000
,
1000
0000
0001
0000
,
0100
0000
0010
0000
,
0010
0000
1000
0000
,
0001
0000
0100
0000
,
1000
0000
0001
0000
,
1000
0000
0010
0000
,
0100
0000
0001
0000
,
0100
0000
0100
0000
,
0010
0000
1000
0000
,
0010
0000
0100
0000
,
0001
0010
0100
1000
,
0001
0000
0000
0000
0000
0000
0000
0000
0000
0000
0000
0000
0000
0000
0000
0000
0010
0000
0000
0000
0000
0000
0000
0000
0000
0000
0000
0000
0000
0000
0000
0000
0100
0000
0000
0000
0000
0000
0000
0000
0000
0000
0000
0000
0000
0000
0000
0000
1000
0000
0000
0000
0000
0000
0000
0000
0000
0000
0000
0000
0000
0000
0000
0002
,
0000
0000
0000
0000
,
1103
0000
0000
0000
,
0011
0000
0000
0000
,
1010
0000
0000
0000
,
0101
0000
0000
0000
,
0110
0000
0000
0000
,
1100
0000
0000
0000
,
0101
0000
0000
0000
,
0110
0000
0000
0000
,
1010
0000
0000
0000
,
0110
0000
0000
0000
,
0011
0000
0000
0000
,
0101
0000
0000
0000
,
1001
0000
0000
0000
,
0110
0000
0000
0000
,
0011
0000
0000
0000
,
1100
0000
0000
0000
,
1010
0000
0000
0000
,
0110
0000
0000
0000
,
0101
0000
0000
0000
,
1010
0000
0000
0000
,
0011
0000
0000
0000
,
0101
0000
0000
0000
,
0011
0000
0000
0000
,
1100
0000
0000
0000
,
1010
0000
0000
0000
,
0110
0000
0000
0000
,
1010
0000
0000
0000
,
0011
0000
0000
0000
,
0110
0000
0000
0000
,
0101
0000
0000
0000
,
1001
0000
0000
0000
,
0110
0000
0000
0000
,
1000
0000
0100
0000
,
0010
0000
0001
0000
,
0100
0000
0010
0000
,
0001
0000
1000
0000
,
0010
0000
0010
0000
,
0001
0000
0001
0000
,
0100
0000
0010
0000
,
0010
0000
0001
0000
,
0100
0000
0010
0000
,
1000
0000
0100
0000
,
0010
0000
0001
0000
,
0100
0000
0010
0000
,
1000
0000
0001
0000
,
0010
0000
0100
0000
,
0001
0000
1000
0000
,
0100
0000
0001
0000
,
1100
0001
0010
0100
,
0011
1000
0010
0001
,
0110
0001
1100
0100
,
0011
0100
0011
0010
,
0101
0010
1000
0010
,
0101
0010
0001
0100
,
0110
0010
0001
0010
,
1100
0100
0010
0100
,
0001
0000
0100
0000
,
1000
0000
0001
0000
,
0010
0000
0100
0000
,
0110
0000
1001
0000
,
0001
0000
1000
0000
,
0010
0000
0001
0000
,
0100
0000
0010
0000
,
0011
0000
0110
0000
,
0010
0000
1000
0000
,
0001
0000
0100
0000
,
1000
0000
0001
0000
,
0110
0000
1010
0000
,
0010
0000
0100
0000
,
1000
0000
0100
0000
,
0010
0000
0100
0000
,
0001
0000
0100
0000
,
0220
0000
0000
0000
,
0330
0000
0000
0000
;

//---------------dance-double - ----------------
#NOTES:
     dance-double:
     :
     Medium:
     8:
     0.576,0.994,0.240,0.146,0.005,348.000,23.000,14.000,0.000,2.000:
10000000
00000000
01000000
00000000
,
00100000
00000000
00010000
00000000
,
00001000
00000000
00000100
00000000
,
00000001
00000000
00000010
00000000
,
00001000
00000000
00000010
00000000
,
00100000
00000000
00010000
00000000
,
10000000
00000000
00100000
00000000
,
00001000
00000000
00000010
00000000
,
00100000
00000000
00000100
00000000
,
00000001
00000000
01000000
00000000
,
10000000
00000000
00010000
00000000
,
00000010
00000000
00001000
00000000
,
00010000
00000000
01000000
00000000
,
00001000
00000000
00000100
00000000
,
00000010
00000000
00001000
00000000
,
00001000
00000000
00000000
00000000
,
00110000
00000000
00010000
00000000
,
00010100
00000000
00000100
00000000
,
00100100
00000000
00100000
00000000
,
00100010
00000000
00000010
00000000
,
00000110
00000000
00000100
00000000
,
00000101
00000000
00000001
00000000
,
00001001
00000000
00001000
00000000
,
00011000
00000000
00010000
00000000
,
10011000
00000000
10000000
00000000
,
10100000
00000000
00100000
00000000
,
00110010
00000000
00010000
00000000
,
00011000
00000000
00001000
00000000
,
00001100
00010000
00000100
00100000
,
00010010
01000000
00100000
00001000
,
01000000
00001000
00010000
00000010
00000100
00000001
00010000
00000100
,
00000001
00000000
00000000
00000000
00000000
00000000
00000000
00000000
00000010
00000000
00000000
00000000
00000000
00000000
00000000
00000000
00000100
00000000
00000000
00000000
00000000
00000000
00000000
00000000
00001000
00000000
00000000
00000000
00000000
00000000
00000000
00000000
00010000
00000000
00000000
00000000
00000000
00000000
00000000
00000000
00100000
00000000
00000000
00000000
00000000
00000000
00000000
00000000
01000000
00000000
00000000
00000000
00000000
00000000
00000000
00000000
10000000
00000000
00000000
00000000
00000000
00000000
00000000
00020000
,
00001000
00000010
00000001
00100000
,
00030100
00001000
00100000
00000100
,
00001000
00000010
00100000
00000100
,
00010000
10000000
01000000
00000100
,
10000000
00100000
00000000
10000000
00100000
00000000
00001000
00000000
,
00001000
00000010
00010000
00001000
,
00000010
00000001
00010000
00001000
,
01000000
00100000
10000000
00001000
,
00100000
00010000
00000000
00100000
00010000
00000000
00000010
00000000
,
00000010
00000001
01000000
00000010
,
00000001
00000100
01000000
00000010
,
10000000
00010000
00100000
00000010
,
00010000
01000000
00000000
00010000
01000000
00000000
00000001
00000000
,
00000001
00000100
10000000
00000001
,
00000100
00001000
10000000
00000001
,
00100000
01000000
00010000
00000001
,
01000000
10000000
00000000
01000000
10000000
00000000
00000100
00000000
,
00000100
00001000
00100000
00000100
,
00001000
00000010
00100000
00000100
,
00010000
10000000
01000000
00000100
,
10000000
00100000
00000000
10000000
00100000
00000000
00001000
00000000
,
01000000
10000000
00000010
01000000
,
10000000
00100000
00000010
01000000
,
00000001
00001000
00000100
01000000
,
00001000
00000010
00000000
00001000
00000010
00000000
10000000
00000000
,
10000000
00100000
00000001
10000000
,
00100000
00010000
00000001
10000000
,
00000100
00000010
00001000
10000000
,
00000010
00000001
00000000
00000010
00000001
00000000
00001000
00000000
,
00100000
00010000
00000100
00100000
,
00010000
01000000
00000100
00100000
,
00001000
00000001
00000010
00100000
,
00000001
00000100
00000000
00000001
00000100
00000000
00010000
00000000
,
10000000
01000000
00100000
00010000
,
00001000
00000100
00000011
00000000
,
00000001
00000010
00000100
00001000
,
00010000
00100000
11000000
00000000
,
00100000
00001000
01000000
00010000
,
10000000
00000100
00000011
00000000
,
00000001
00001000
00000100
00010000
,
00100000
00000010
11000000
00000000
,
10000000
00100000
01000000
00010000
,
00001000
00000100
00000011
00000000
,
00000001
00000100
00000010
00001000
,
00010000
00100000
11000000
00000000
,
10000000
00010000
00001000
00000001
,
00000010
00000100
01100000
00000000
,
10000000
00010000
00100000
00001000
,
00000100
01000000
00000011
00000000
,
00200000
00000000
00000000
00000000
,
00302000
00000000
02003000
00000000
,
03000200
00000000
00000320
00000000
,
00200030
00000000
00302000
00000000
,
20003000
00000000
00000000
00000000
,
30000002
00000000
00000000
00000000
,
00000023
00000000
00000000
00000000
,
00002030
00000000
00000000
00000000
,
01003000
00000000
00100000
00000000
00001000
00010000
00000000
00000000
,
00001000
00000000
00010000
00000000
00000100
00000010
00000000
00000000
,
00100000
00000000
01000000
00000000
10000000
00000001
00000000
00000000
,
00000010
00000100
00000001
00000000
,
00000010
00000000
00001000
00000000
00010000
00100000
00000000
00000000
,
00000010
00000000
00010000
00000000
00100000
01000000
00000000
00000000
,
00000010
00000000
00000100
00000000
00100000
00000100
00000000
00000000
,
01000000
00001000
00010000
00000000
,
10000000
00000000
00010000
00000000
00000010
00001000
00000000
00000000
,
00000100
00000000
00001000
00000000
01000000
00010000
00000000
00000000
,
10000000
00000000
01000000
00000000
00001000
00100000
00000000
00000000
,
00000001
00000010
00010000
00000000
,
00000001
00000000
00000010
00000000
00000100
00000001
00000000
00000000
,
00001000
00000000
00010000
00000000
00100000
00001000
00000000
00000000
,
10000000
00000000
01000000
00000000
00100000
10000000
00000000
00000000
,
00000100
00000010
00000001
00000000
,
00022000
00000000
00000000
00000000
,
00033000
00000000
00000000
00000000
;
