#TITLE:Galaxy Angel;
#SUBTITLE:- Galaxy Bang Bang;
#ARTIST:Angel Tai;
#TITLETRANSLIT:;
#SUBTITLETRANSLIT:;
#ARTISTTRANSLIT:;
#CREDIT:Anime Toshokan;
#BANNER:Galaxy Angel - Galaxy Bang Bang.png;
#BACKGROUND:Galaxy Angel - Galaxy Bang Bang bg.png;
#LYRICSPATH:;
#CDTITLE:dejiko.png;
#MUSIC:Galaxy Angel - Galaxy Bang Bang.mp3;
#OFFSET:-0.048;
#SAMPLESTART:22.000;
#SAMPLELENGTH:11.800;
#SELECTABLE:YES;
#BPMS:0.000=163.000;
#STOPS:7.000=1.480
;
#BGCHANGES:8.500=Galaxy Angel - Galaxy Bang Bang.avi=1.000=0=0=1,
210.000=Galaxy Angel - Galaxy Bang Bang bg.png=1.000=0=0=1,
99999=-nosongbg-=1.000=0=0=0 // don't automatically add -songbackground-
;
// cache tags:
#FIRSTBEAT:8.000;
#LASTBEAT:219.500;
#SONGFILENAME:Songs/DDR Anime 2nd Mix/Galaxy Angel - Galaxy Bang Bang/Galaxy Angel - Galaxy Bang Bang.sm;
#HASMUSIC:1;
#HASBANNER:1;
#MUSICLENGTH:82.969;
// end cache tags

//---------------dance-single - BASIC----------------
#NOTES:
     dance-single:
     BASIC:
     Easy:
     4:
     0.298,0.364,0.253,0.000,0.000,152.000,21.000,0.000,0.000,0.000:
0000
0000
0000
0000
,
0000
0000
0000
0000
,
1001
0000
0000
0000
1000
0000
0000
0010
,
0000
0000
0010
0000
,
1000
0000
0000
0000
0001
0000
0000
1001
,
0000
1001
0000
0000
1000
0000
0001
0000
,
0000
0000
0001
0001
0000
0000
1000
0000
,
0000
0100
0000
0001
,
0000
0000
0100
0100
0000
0000
0001
0000
,
0000
1000
0001
1000
,
0000
0000
0010
0010
0000
0000
1000
0000
,
0000
0001
1000
0001
,
1000
0001
1000
0001
,
1000
0000
1001
1001
,
1001
0000
0000
0000
0001
0000
0000
0010
,
0000
0000
1001
1001
,
1000
0000
0001
0000
0100
0000
0000
1001
,
0000
1001
0000
0000
1000
0000
0000
0000
,
0110
0000
0000
0000
0100
0000
0000
1001
,
0000
1001
0000
0000
0001
0000
1000
0000
,
0001
1000
0001
1000
,
1001
1001
1001
0000
,
1000
0000
0000
0000
0001
0000
0000
0100
,
0000
0100
0000
0000
0001
0000
0010
0000
,
0001
0000
0001
0000
,
0000
1000
0000
0000
0000
1000
0000
0000
,
0010
0000
0010
0000
,
1000
0000
1000
0000
,
0100
1000
0000
0100
,
0000
1000
0000
0100
,
0001
0010
0100
1000
,
0100
0010
0001
0010
,
0100
0000
0000
0000
,
1001
0000
1001
0000
,
0001
0000
1000
0000
0001
0000
0000
0100
,
0000
0000
0001
0000
,
1000
0000
0000
0100
,
0100
0000
0001
0000
1000
0000
0000
0001
,
0000
0000
0010
0000
,
0001
1000
0010
0100
,
0001
1000
0100
0010
,
0001
0000
0001
0000
,
1000
0000
1001
0000
1001
0000
0000
0010
,
0000
0000
1000
0001
,
1000
0000
0000
0000
,
1000
0001
1000
0001
,
0100
0000
0001
0000
,
0100
0001
0010
0001
,
1000
1000
0001
1000
,
0001
0000
0000
1000
0000
0000
0000
0000
,
0010
1000
0100
1000
,
1100
1000
0000
0001
,
0000
1000
0000
0010
,
1000
1000
0000
0001
0001
0000
0010
0000
,
0100
0000
0000
0001
0001
0000
1000
1000
;

//---------------dance-single - ANOTHER----------------
#NOTES:
     dance-single:
     ANOTHER:
     Medium:
     8:
     0.506,0.562,0.470,0.121,0.024,245.000,39.000,10.000,0.000,0.000:
0000
0000
0000
0000
,
0000
0000
0000
0000
,
1001
0000
0000
0100
1000
0000
0000
0010
,
0000
0010
0000
0001
0010
0000
0100
0000
,
1000
0000
0001
0010
0100
1000
0001
1001
,
0000
1001
0000
0100
1000
0000
0001
0000
,
0000
0000
0001
0001
0000
0000
1000
0000
,
0000
0100
0000
0001
,
0000
0000
0100
0100
0000
0000
0001
0000
,
0000
0000
1000
0000
0001
1000
0001
1000
,
0000
0000
0010
0010
0000
0000
1000
0000
,
0000
0000
0001
0000
1000
0001
1000
0001
,
2002
0000
0000
3000
,
1003
0100
0010
0001
1001
0000
1001
0000
,
1100
0000
0000
0001
0101
0000
0000
0010
,
0000
0010
0000
1000
1010
0000
0101
0000
,
1000
0000
0001
0010
0100
1000
0001
1001
,
0000
1001
0000
0100
1000
0100
0001
0010
,
0110
0000
0000
1000
0100
0001
0010
0011
,
0000
1001
0000
1000
0001
0100
0001
1000
,
2002
0000
0000
3003
,
1001
0000
0110
0000
0110
0010
0001
1000
,
0001
0000
0101
0001
0010
0100
1000
0001
,
0000
0001
0000
0100
1000
0000
0010
0000
,
0001
0010
0001
0010
0001
0010
0001
0010
,
0002
1000
0000
1000
0000
1000
0000
1003
,
0010
1000
0010
1000
0010
1000
0010
2000
,
0001
0001
0001
3001
,
0100
0000
0001
0001
0000
0000
0100
0100
,
0000
0000
1000
1000
0000
0000
0100
0100
,
0002
1000
0100
0010
,
0100
1000
0100
0013
,
1001
0000
0000
0000
0000
0100
0100
0100
,
0100
0000
0000
0100
0010
0000
0000
0001
,
0011
0000
1001
0000
1100
0000
0010
0100
,
0000
0010
0010
1000
0100
0000
0001
1000
,
0000
1000
0000
1000
0000
1000
0100
1000
,
0100
0010
0001
0010
1000
0100
0000
0001
,
0000
0000
0000
0000
0000
0000
0010
0000
0001
0000
0100
0000
,
0001
1000
0010
0100
,
0001
1000
0100
0010
,
1010
0000
1001
0000
,
0101
0000
1000
0000
1000
0000
0000
0010
,
0000
0001
0010
0100
1000
0010
0001
0100
,
1000
0000
0000
0100
0000
0001
0010
0100
,
1000
0100
0001
0100
1000
0010
0001
0000
,
0100
0000
0000
0000
0000
0000
0001
0000
1000
0000
0010
0000
,
0200
0001
0010
0301
,
0020
1000
0001
1030
,
0001
0000
1000
2000
0000
0000
0000
0000
,
3010
1000
0101
0001
,
1001
0000
1100
1100
0000
0000
0101
0000
,
0000
0000
0110
0110
0000
0000
1010
0000
,
0100
1010
0000
0100
1001
0000
0100
0010
,
0100
0010
0000
0001
1100
0000
0010
0101
;

//---------------dance-single - MANIAC----------------
#NOTES:
     dance-single:
     MANIAC:
     Hard:
     9:
     0.548,0.860,0.446,0.072,0.121,275.000,37.000,6.000,0.000,0.000:
0000
0000
0000
0000
,
0000
0000
0000
0000
,
1001
0000
0000
0100
1000
0000
0000
0010
,
0000
0010
0000
0001
0010
0000
0100
0000
,
1000
0000
0001
0010
0100
1000
0001
1001
,
0000
1001
0000
0100
1000
0000
0001
0000
,
0000
0000
0001
0001
0000
0000
1000
0000
,
0000
0100
0000
0001
,
0000
0000
0100
0100
0000
0000
0001
0000
,
0000
0000
1000
0000
0001
1000
0001
1000
,
0000
0000
0010
0010
0000
0000
1000
0000
,
0000
0000
0001
0000
1000
0001
1000
0001
,
1000
0001
1000
0001
1000
0001
1000
0001
1000
0001
1000
0001
1000
0001
1000
0001
,
1000
0100
0010
0001
1001
0000
1001
0000
,
1100
0000
0000
1000
0101
0000
0000
0010
,
0000
0010
0000
0001
1010
0000
0101
0000
,
1000
0000
0001
0010
0100
1000
0001
1001
,
0000
1001
0000
0100
1000
0100
0001
0010
,
0110
0000
0000
1000
0100
0001
0010
0011
,
0000
1001
0000
1000
0001
0100
0001
1000
,
0001
1000
0001
1000
0001
1000
0001
1000
0001
1000
0001
1000
0001
1000
0001
1000
,
1001
0000
0110
0000
0110
0010
0001
1000
,
0001
0000
0101
0001
0010
0100
1000
0001
,
0000
0001
0000
0100
1000
0000
0010
0000
,
0001
0010
0001
0010
0001
0010
0001
0010
,
0002
1000
0000
1000
0000
1000
0000
1003
,
0010
1000
0010
1000
0010
1000
0010
2000
,
0001
0001
0001
3001
,
0100
0000
0001
0001
0000
0000
0100
0100
,
0000
0000
1000
1000
0000
0000
0100
0100
,
0002
1000
0100
0010
,
0100
1000
0100
0013
,
1001
0000
0000
0000
0000
0100
0100
0100
,
0100
0000
0000
0100
0010
0000
0000
0001
,
0011
0000
1001
0000
1100
0000
0010
0100
,
0000
0010
0010
1000
0100
0000
0001
1000
,
0000
1000
0000
1000
0000
1000
0100
1000
,
0100
0010
0001
0010
1000
0100
0000
0001
,
0000
0000
0000
0000
0000
0000
0010
0000
0001
0000
0100
0000
,
0001
1000
0010
0100
,
0001
1000
0100
0010
,
1010
0000
1001
0000
,
0101
0000
1000
0000
1000
0000
0000
0010
,
0000
0001
0010
0100
1000
0010
0001
0100
,
1000
0000
0000
0100
0000
0001
0010
0100
,
1000
0100
0001
0100
1000
0010
0001
0000
,
0100
0000
0000
0000
0000
0000
0001
0000
1000
0000
0010
0000
,
0200
0001
0010
0301
,
0020
1000
0001
1030
,
0001
0000
1000
2000
0000
0000
0000
0000
,
3010
1000
0101
0001
,
1001
0000
1100
1100
0000
0000
0101
0000
,
0000
0000
0110
0110
0000
0000
1010
0000
,
0100
1010
0000
0100
1001
0000
0100
0010
,
0100
0010
0000
0001
1100
0000
0010
0101
;

//---------------dance-single - BEGINNER----------------
#NOTES:
     dance-single:
     BEGINNER:
     Beginner:
     2:
     0.181,0.230,0.133,0.000,0.000,94.000,11.000,0.000,0.000,0.000:
0000
0000
0000
0000
,
0000
0000
0000
0000
,
1001
0000
1000
0000
,
0000
0000
0010
0000
,
1000
0000
0001
0000
,
0000
0000
1000
0000
,
0000
0001
0000
1000
,
0000
0100
0000
0001
,
0000
0100
0000
0001
,
0000
1000
0001
0000
,
0000
0010
0000
1000
,
0000
0001
1000
0000
,
1000
0000
1000
0000
,
1000
0000
1001
0000
,
1001
0000
0001
0000
,
0000
0000
1001
0000
,
1000
0000
0100
0000
,
0000
0000
1000
0000
,
0110
0000
0100
0000
,
0000
0000
0001
0000
,
0001
0000
0001
0000
,
1001
0000
1001
0000
,
1000
0000
0001
0000
,
0000
0000
0001
0000
,
0001
0000
0001
0000
,
1000
0000
1000
0000
,
0010
0000
0010
0000
,
1000
0000
1000
0000
,
0100
0000
0000
0100
,
0000
1000
0000
0100
,
0001
0000
0100
0000
,
0100
0000
0001
0000
,
0100
0000
0000
0000
,
1001
0000
1001
0000
,
0001
0000
0001
0000
,
0000
0000
0001
0000
,
1000
0000
0000
0100
,
0100
0000
1000
0000
,
0000
0000
0010
0000
,
0001
0000
0010
0000
,
0001
0000
0100
0000
,
0001
0000
0001
0000
,
1000
0000
1001
0000
,
0000
0000
1000
0000
,
1000
0000
0000
0000
,
1000
0000
1000
0000
,
0100
0000
0001
0000
,
0100
0000
0010
0000
,
1000
0000
0001
0000
,
0001
0000
0000
0000
,
0010
0000
0100
0000
,
1100
0000
0000
0001
,
0000
1000
0000
0010
,
1000
0000
0001
0000
,
0100
0000
0001
0000
;
