#TITLE:Wedding Peach;
#SUBTITLE:- Yume Miru Ai Tenshi [Para Para Mix];
#ARTIST:石田燿子;
#TITLETRANSLIT:;
#SUBTITLETRANSLIT:;
#ARTISTTRANSLIT:Yoko Ishida;
#CREDIT:Anime Toshokan;
#BANNER:Wedding Peach - Yume Miru Ai Tenshi [Para Para Mix].png;
#BACKGROUND:Wedding Peach - Yume Miru Ai Tenshi [Para Para Mix] bg.png;
#LYRICSPATH:;
#CDTITLE:dejiko.png;
#MUSIC:Wedding Peach - Yume Miru Ai Tenshi [Para Para Mix].mp3;
#OFFSET:-0.191;
#SAMPLESTART:44.540;
#SAMPLELENGTH:12.500;
#SELECTABLE:YES;
#BPMS:0.000=156.000;
#STOPS:284.000=0.192
,284.500=0.192
,285.000=0.096
,285.500=0.096
,286.000=0.192
,286.500=0.096
,287.000=0.096
,287.500=0.096
,288.000=0.096
,288.500=0.096
;
#BGCHANGES:;
// cache tags:
#FIRSTBEAT:8.000;
#LASTBEAT:296.000;
#SONGFILENAME:Songs/DDR Anime 4th Mix/Wedding Peach - Yume Miru Ai Tenshi [Para Para Mix]/Wedding Peach - Yume Miru Ai Tenshi [Para Para Mix].sm;
#HASMUSIC:1;
#HASBANNER:1;
#MUSICLENGTH:117.266;
// end cache tags

//---------------dance-single - BASIC----------------
#NOTES:
     dance-single:
     BASIC:
     Easy:
     5:
     0.336,0.410,0.358,0.188,0.004,212.000,42.000,22.000,0.000,0.000:
0000
0000
0000
0000
,
0000
0000
0000
0000
,
2200
0000
0000
0000
,
0000
0000
0000
3300
,
0202
0000
0000
0000
,
0000
0000
0000
0303
,
2002
0000
0000
0000
,
0000
0000
0000
3003
,
0100
0100
0100
0100
,
0101
0100
0100
0100
,
1100
0100
0101
0100
,
1100
0010
0100
1001
,
0010
0100
0110
0100
,
0100
0001
0110
0100
,
0100
0001
1000
0100
,
0002
0000
0000
0003
2000
0000
3000
0000
,
0100
0100
0110
1000
,
0001
1000
0110
0100
,
2200
0000
0000
0000
3300
0000
0000
0101
,
0000
0101
0000
1100
,
0010
0100
1001
0100
,
0010
0100
1001
0100
,
1010
0100
0101
0100
,
2000
3000
0002
0003
,
0010
0001
0011
1000
,
0010
1000
1010
0100
,
1000
0010
0001
1000
,
2002
0000
0000
0000
0000
3003
0000
0000
,
0100
0100
0100
0000
,
0100
0100
1100
0000
,
0100
0100
0101
0000
,
0010
0000
0010
0000
0010
0000
0000
1000
,
0000
0001
0000
1000
0000
0000
0000
0000
,
0100
0010
0110
0000
,
0010
0100
0110
0000
,
0001
0100
1000
0001
,
2002
0000
0000
0000
,
3003
0100
0010
1001
,
0100
0001
1000
0100
,
1000
0010
0100
0010
,
0001
1000
0100
0010
,
0010
0100
0010
0001
,
0100
1000
1000
0100
,
0010
0001
0001
0100
,
2000
0000
0000
3000
0002
0000
0003
2000
,
0000
0000
0000
0000
,
0000
0000
0000
3000
,
0010
0100
0010
0100
,
1001
1001
0000
0000
,
0010
0100
0010
0100
,
1001
1001
0000
0000
,
0001
1000
0001
1000
,
1001
1001
0000
0100
,
2002
0000
0000
0000
,
0000
0000
0000
0000
0000
3003
0000
0000
,
0100
0100
0010
0010
,
0001
0001
1000
1000
,
0010
0010
0100
0100
,
0001
0001
1000
0001
,
0010
0000
0001
0000
1000
0000
0000
1001
,
0000
0001
0100
0001
,
1000
0000
0001
0000
0010
0000
0000
1001
,
0000
0110
0000
1001
,
0000
1001
0000
0110
,
0100
0100
0100
0100
,
0100
0000
0001
0000
1000
0000
0000
0010
,
0000
0100
0000
0000
0010
0000
0000
0100
,
1000
0000
0010
0000
0001
0000
0000
0010
,
0000
1000
0000
0000
0001
0000
0000
0001
,
0100
0000
0010
0000
1000
0000
0000
0010
,
0000
0100
0000
0000
0010
0000
0000
0001
,
0100
0000
0010
0010
0010
0000
0000
0100
,
0100
0000
0100
0200
0000
0000
0000
0000
0000
0000
0000
0000
0000
0000
0000
0000
,
0000
0000
0000
0000
,
0300
0000
0000
0000
;

//---------------dance-single - ANOTHER----------------
#NOTES:
     dance-single:
     ANOTHER:
     Medium:
     7:
     0.440,0.473,0.171,0.179,0.081,320.000,20.000,21.000,0.000,0.000:
0000
0000
0000
0000
,
0000
0000
0000
0000
,
1001
0000
0000
0000
1000
0000
0000
0000
0010
0000
0000
0010
0000
0000
0010
0000
,
0000
0000
0001
0000
0000
0001
0000
0000
1000
0000
0000
0100
0000
0000
0001
0000
,
1000
0000
0000
0000
0100
0000
0000
0000
0010
0000
0000
0010
0000
0000
0010
0000
,
0000
0000
0001
0000
0000
0100
0000
0000
0010
0000
0000
1000
0000
0000
1000
0000
,
0001
0000
0000
0000
0010
0000
0000
0000
0010
0000
0000
0010
0000
0000
0010
0000
,
0000
0000
1000
0000
0000
0100
0000
0000
0001
0000
0000
0100
0000
0000
1000
0000
,
0100
0000
0010
0000
0100
0000
0010
0001
,
0100
0000
0010
0000
0100
0000
0010
1000
,
0100
0000
0100
0001
0100
0000
0010
0100
,
0100
0010
0100
1001
,
0010
0000
0100
0010
0000
1000
0100
0010
,
0001
0000
0001
0010
0000
1000
0100
0010
,
1000
0000
0100
0010
0000
0100
0000
2002
,
0000
0000
3003
0010
,
0100
0010
0100
0010
0000
0000
1000
0000
,
0100
0010
0100
0010
0000
0000
0100
1000
,
2000
0000
0000
0000
3100
0001
0000
1001
,
0000
0010
0010
0000
1000
1000
0000
0001
,
0001
0000
0100
0100
0000
1000
0100
0001
,
0100
0000
0100
0100
0000
0010
0100
0001
,
1000
0000
0010
0001
0000
1000
0000
2002
,
0000
0000
0000
0000
0000
3003
1000
0010
,
1000
0000
0001
0001
0000
1000
0100
1000
,
0100
0000
1000
1000
0000
0010
0100
0001
,
2000
0000
3020
0030
0010
0010
0000
0220
,
0000
0000
0000
0000
0000
0000
0330
0100
,
0000
0100
0000
1001
0000
1000
0100
0001
,
0000
0100
0100
0000
1000
0001
0000
0100
,
0000
0100
0100
0000
0001
1000
0000
0001
,
0000
0100
1000
0100
0010
0100
0000
0010
,
0000
1001
0000
0100
0000
0000
0000
0010
,
0000
0100
0100
0000
1000
0001
0000
0010
,
0000
0100
0100
0000
1000
0001
0000
0000
,
1000
0000
0100
0000
0001
0001
0000
0002
,
0000
0000
0000
0000
,
0003
0100
0100
0100
,
0100
0000
0010
0001
0000
0000
0010
0000
,
0100
0000
0010
1000
0000
0000
0100
0000
,
0101
0000
1000
0100
0000
0010
0100
1001
,
0000
0100
0010
0100
0000
0100
0010
0100
,
0100
0000
0100
0001
0000
0010
0100
0001
,
0100
0000
0100
1000
0000
0010
0100
0001
,
0100
0000
0100
0000
0010
0010
0000
2002
,
0000
0000
0000
0000
,
0000
0000
0000
0000
0000
3003
0000
0000
,
2010
0010
0010
3010
,
1000
0001
1000
0001
0000
0000
0001
0000
,
0012
0010
0010
0013
,
0001
1000
0001
1000
0000
0000
0010
0000
,
0120
0100
0100
0130
,
0100
0010
0100
0010
0000
0000
0200
0000
,
0020
0000
0000
0000
0000
0000
0330
2002
,
0000
0000
0000
0000
0000
3003
0000
1001
,
0000
0000
0100
0001
0000
1000
0010
0100
,
0010
0000
0100
0000
0001
0000
0100
0010
,
0001
0000
0001
0000
0100
0000
0100
0010
,
1000
0010
0001
1000
,
0001
0100
0001
0000
1000
0000
0100
0010
,
0000
0001
0100
0001
,
1000
0100
1000
0000
0010
0000
0100
0010
,
0000
0001
0100
1000
,
0100
0001
0100
1000
,
1001
0000
1001
0000
1000
0001
1001
0000
,
0010
0000
0000
0000
0010
0000
0000
0000
0001
0000
0000
0100
0000
0000
1000
0000
,
0000
0000
1000
0000
0000
0100
0000
0000
0010
0000
0000
0001
0000
0000
0001
0000
,
0100
0000
0000
0000
0100
0000
0000
0000
1000
0000
0000
0100
0000
0000
0001
0000
,
0000
0000
0100
0000
0000
0100
0000
0000
0001
0000
0000
1000
0000
0000
0001
0000
,
0010
0000
0000
0000
0010
0000
0000
0000
0100
0000
0000
0010
0000
0000
0100
0000
,
0000
0000
0001
0000
0000
1000
0000
0000
0001
0000
0000
0100
0000
0000
0001
0000
,
1000
0001
0100
0010
0100
0100
1000
0010
,
0001
0000
0100
2002
0000
0000
0000
0000
0000
0000
0000
0000
0000
0000
0000
0000
,
0000
0000
0000
0000
,
3003
0000
0000
0000
;

//---------------dance-single - MANIAC----------------
#NOTES:
     dance-single:
     MANIAC:
     Hard:
     8:
     0.546,0.726,0.503,0.188,0.090,367.000,59.000,22.000,0.000,0.000:
0000
0000
0000
0000
,
0000
0000
0000
0000
,
1001
0000
0000
0000
1000
0000
0000
0000
0110
0000
0000
0011
0000
0000
0101
0000
,
0000
0000
0010
0000
0000
0001
0000
0000
0100
0000
0000
0010
0000
0000
0001
0000
,
1001
0000
0000
0000
0100
0000
0000
0000
0110
0000
0000
1010
0000
0000
1100
0000
,
0000
0000
0100
0000
0000
0001
0000
0000
0100
0000
0000
0010
0000
0000
1000
0000
,
0101
0000
0000
0000
0100
0000
0000
0000
1010
0000
0000
1001
0000
0000
0101
0000
,
0000
0000
0100
0000
0000
0010
0000
0000
0001
0000
0000
1000
0000
0000
1000
0000
,
0120
0000
0100
0000
0130
0000
0100
0001
,
0001
0000
0100
0000
0100
0000
0100
1000
,
1000
0000
0000
0000
0100
0000
0001
0000
0001
0000
0000
0000
0000
0000
1000
0001
,
0100
0010
0100
1001
,
0010
1000
0100
0001
0000
1000
0100
0010
,
0100
1000
0001
0100
0000
0010
0100
1000
,
0001
0010
0100
0010
0001
1000
0100
0010
,
0002
0003
2000
3000
0002
0003
1000
1000
,
0100
0010
0100
1001
0000
0010
1000
0100
,
0001
0010
0100
1001
0000
0010
0100
1000
,
0002
0000
0100
0000
0103
1000
0100
0101
,
0000
0010
0010
0000
0001
0001
0000
0100
,
0100
0010
0100
0100
0000
0010
0100
0001
,
0010
1000
0100
0100
0000
0010
0010
0001
,
1000
0010
0100
0001
1000
0001
0100
1001
,
2000
3000
0002
0003
2000
3000
1000
0100
,
0010
0001
0001
1000
0000
0100
0001
0010
,
0100
1000
1000
0100
0000
0010
0100
0001
,
1000
0100
0010
0001
1000
0010
0010
0220
,
0000
0000
0000
0000
0000
0000
0330
0100
,
0000
1100
0000
0101
0000
1000
0010
0001
,
0000
0010
0100
0000
0110
0110
0000
1000
,
0000
0010
0100
0000
0110
0110
0000
0001
,
0010
0100
0010
0001
0010
0100
0000
0110
,
0000
0101
0000
1100
0000
0000
0000
1000
,
0000
0010
0100
0000
0110
0110
0000
0001
,
0000
0010
0100
0000
0110
0110
0000
0000
,
0100
0000
0100
0000
0010
0010
0000
0202
,
0000
0000
0000
0000
,
0303
0100
0110
1001
,
0100
0010
0001
1000
0000
1000
0100
0001
,
1000
0000
0001
0100
0000
0010
0100
0010
,
0001
1000
0010
0100
0000
0010
0000
1001
,
0010
0100
0010
0100
0010
1000
0001
1000
,
0100
0000
0100
0101
0000
0001
0100
1000
,
0100
0000
0100
1100
0000
0010
0100
0001
,
2000
3000
0200
0300
0001
0100
0000
0002
,
1000
1000
1000
1000
,
1000
0000
1000
0000
1000
0000
1000
1000
,
1003
0100
0110
1001
,
1000
0001
1000
0001
0000
0000
0001
0000
,
1000
0100
0110
1001
,
0001
1000
0001
1000
0000
0000
0001
0000
,
1000
0001
1001
0110
,
1000
0001
1000
0001
0000
0000
0200
0000
,
0010
0000
0000
0000
0000
0000
0310
2002
,
0000
0000
0000
0000
0000
3003
0000
1001
,
0100
0000
0100
0001
0000
2000
0000
3100
,
0000
0000
0000
0010
0001
0100
1000
0100
,
0010
0000
0001
1000
0000
0200
0000
0310
,
0000
0000
0000
0000
0000
0000
1000
0001
1000
0000
0100
0000
0001
0000
0100
0000
,
0010
0000
0001
0000
0001
0000
1000
1100
,
0000
0001
0100
0001
,
1000
0000
1000
0000
0100
0000
0100
0101
,
0000
0001
1000
0001
,
1000
0001
1000
0001
,
1000
0001
1000
0001
1000
0001
1000
0000
,
0100
0000
0000
0000
0010
0000
0000
0000
0001
0000
0000
0010
0000
0000
0100
0000
,
0000
0000
1000
0000
0000
0100
0000
0000
0010
0000
0000
0001
0000
0000
0100
0000
,
1000
0000
0000
0000
0100
0000
0000
0000
0001
0000
0000
0100
0000
0000
1000
0000
,
0000
0000
0100
0000
0000
0001
0000
0000
0100
0000
0000
1000
0000
0000
1000
0000
,
0100
0000
0000
0000
0001
0000
0000
0000
0100
0000
0000
1000
0000
0000
0100
0000
,
0000
0000
0001
0000
0000
0100
0000
0000
1000
0000
0000
0100
0000
0000
0001
0000
,
1001
0101
0110
1100
0110
0101
1100
0110
,
1001
0000
0110
2002
0000
0000
0000
0000
0000
0000
0000
0000
0000
0000
0000
0000
,
0000
0000
0000
0000
,
3003
0000
0000
0000
;

//---------------dance-single - BEGINNER----------------
#NOTES:
     dance-single:
     BEGINNER:
     Beginner:
     2:
     0.210,0.277,0.298,0.171,0.000,117.000,35.000,20.000,0.000,0.000:
0000
0000
0000
0000
,
0000
0000
0000
0000
,
2200
0000
0000
0000
,
3300
0000
0000
0000
,
0202
0000
0000
0000
,
0303
0000
0000
0000
,
2002
0000
0000
0000
,
3003
0000
0000
0000
,
0100
0000
0100
0000
,
0101
0000
0100
0000
,
1100
0000
0101
0000
,
1100
0000
0100
0000
,
0010
0000
0110
0000
,
0100
0000
0110
0000
,
0100
0000
1000
0000
,
0002
0000
0000
0003
2000
0000
3000
0000
,
0100
0000
0110
0000
,
0001
0000
0110
0000
,
2200
0000
3300
0000
,
0000
0101
0000
0100
,
0010
0000
1001
0000
,
0010
0000
1001
0000
,
1010
0000
0101
0000
,
2000
3000
0002
0003
,
0010
0000
0011
0000
,
0010
0000
1010
0000
,
1000
0000
0001
0000
,
2002
0000
0000
0000
0000
3003
0000
0000
,
0100
0000
0100
0000
,
0100
0000
1100
0000
,
0100
0000
0101
0000
,
0010
0000
0010
0000
,
1001
0000
0000
0000
,
0100
0000
0110
0000
,
0010
0000
0110
0000
,
0001
0000
1000
0000
,
2002
0000
0000
0000
,
3003
0000
0010
0000
,
0100
0000
1000
0000
,
1000
0000
0100
0000
,
0001
0000
0100
0000
,
0010
0000
0010
0000
,
0100
0000
1000
0000
,
0010
0000
0001
0000
,
2000
0000
0000
3000
0002
0000
0003
0000
,
1000
0000
1000
0000
,
0001
0000
0001
0000
,
0010
0000
0010
0000
,
1001
0000
0000
0000
,
0010
0000
0010
0000
,
1001
0000
0000
0000
,
0001
0000
0001
0000
,
1001
0000
0000
0100
,
2002
0000
0000
0000
,
0000
0000
0000
0000
0000
3003
0000
0000
,
0100
0000
0010
0000
,
0001
0000
1000
0000
,
0010
0000
0100
0000
,
0001
0000
1000
0000
,
0010
0000
1000
0000
,
0000
0001
0100
0000
,
1000
0000
0010
0000
,
0000
0110
0000
1001
,
0000
1001
0000
0110
,
0000
0000
0100
0000
,
0100
0000
1000
0000
,
0000
0000
0010
0000
,
1000
0000
0001
0000
,
0000
0000
0001
0000
,
0100
0000
1000
0000
,
0000
0000
0010
0000
,
0100
0000
0000
0000
,
0000
1001
0000
0000
;
