#TITLE:Level 1;
#SUBTITLE:;
#ARTIST:Renard;
#TITLETRANSLIT:;
#SUBTITLETRANSLIT:;
#ARTISTTRANSLIT:;
#CREDIT:;
#BANNER:level1bn.png;
#BACKGROUND:level1bg.png;
#LYRICSPATH:;
#CDTITLE:;
#MUSIC:Level 1.mp3;
#OFFSET:-0.075;
#SAMPLESTART:28.770;
#SAMPLELENGTH:17.280;
#SELECTABLE:YES;
#BPMS:0.000=180.000,96.000=90.000,112.000=180.000;
#STOPS:;
#BGCHANGES:;
// cache tags:
#FIRSTBEAT:8.000;
#LASTBEAT:241.000;
#SONGFILENAME:Songs/StepMix 2/Level 1/level1.sm;
#HASMUSIC:1;
#HASBANNER:1;
#MUSICLENGTH:86.378;
// end cache tags

//---------------dance-single - By Hamm----------------
#NOTES:
     dance-single:
     By Hamm:
     Challenge:
     10:
     0.779,0.977,0.556,0.243,0.434,402.000,48.000,21.000,88.000,0.000:

0000
0000
0000
0000
,
0000
0000
0000
0000
,
1002
0000
0013
0100
1000
0000
0001
1000
,
0010
0100
0000
0101
0000
1000
0001
1000
,
0101
0000
0010
1000
0100
0000
0010
0001
,
0010
0100
0000
1100
0000
0100
0010
0001
,
0012
0000
0013
0001
1000
0000
0100
0001
,
0100
1000
0000
1100
0000
0001
0100
0010
,
0100
0000
0001
0M00
1001
0000
0001
0000
1000
0000
0010
0000
0100
0000
0001
0000
,
1000
0000
0100
0000
0010
0000
0100
0000
0000
0000
1000
0000
0010
0000
0010
1000
,
0002
0000
0000
M000
0000
0000
0103
0001
0200
0000
0000
000M
0300
0000
0010
0000
,
1000
0000
0010
0000
0100
0000
0020
0000
0000
0030
0100
0001
1000
0000
0000
0000
,
0010
1000
0201
M000
0301
0010
1000
0010
,
0100
0000
0010
0000
0001
0000
0101
0000
0000
0000
0001
0000
1000
0000
0010
1000
,
0020
0000
0000
0M00
0000
0030
1000
0100
2000
000M
0000
0000
3000
0000
1000
0000
,
0010
0000
0001
0000
0010
0000
1000
0000
0000
0000
0001
1000
0100
0000
0000
0000
,
1000
0001
1000
0100
1000
0001
1000
0100
,
1000
0000
0000
0000
0001
0000
0000
0000
1000
0000
0000
0000
0100
0000
0000
0000
1000
0000
0000
0000
0000
0100
0000
0000
1000
0000
0000
0100
0000
0000
1000
0000
0000
0010
0000
0000
0100
0000
0000
0001
0000
0000
1000
0000
0000
0100
0000
0000
,
0010
0000
0001
0000
0001
0010
1000
0010
,
0100
0100
1000
1000
0001
0001
0100
0100
,
0010
1000
0010
0000
1000
0000
0001
0000
0010
0000
0000
0000
0001
0000
1000
0000
,
0000
1000
0001
1000
0100
0001
0100
1000
,
0100
0000
0000
1000
0100
0000
0000
1000
0100
0000
0000
1000
0010
0000
0000
0000
,
0010
0100
0001
0100
0010
1000
0001
1000
0100
0000
0010
0000
0100
0000
1000
0000
,
2010
0000
0000
0001
3010
0000
0000
0100
1000
0010
0000
1100
0000
1000
0010
1000
,
1002
0000
0000
0100
0013
0000
0000
1000
0010
0100
0000
1001
0000
0100
0001
1000
,
1002
0000
0000
0010
0103
0000
0000
1000
0100
0010
0000
0011
0000
0100
0001
0010
,
1200
0000
0000
1000
0310
0000
0000
1000
0001
0010
0000
0011
0000
0100
0001
0010
,
1200
0000
1300
0010
0100
0000
0100
0001
,
1000
0100
0000
0011
0000
1000
0001
0100
,
0201
0000
0301
0010
0001
0000
1000
0100
,
0001
0100
0000
0110
0000
0001
0010
0001
,
2001
0000
3010
0100
0001
0000
0100
0010
,
1000
0100
0000
0011
0000
1000
0010
0100
,
2010
0000
3001
0010
0100
0000
1000
0010
,
0001
0010
0000
0101
0000
1000
0100
1000
,
0001
010M
0010
1000
0010
1000
0100
0010
,
0100
1M00
0010
0100
0001
0010
0001
1000
,
0010
0000
00M0
0000
1010
0000
MMMM
M00M
M11M
M00M
MMMM
0000
0001
0000
1000
0000
,
0001
0000
0000
0100
0000
0000
M000
00M0
0000
0101
0000
0000
0000
0000
0000
0001
0000
0000
1000
0000
0000
0000
0000
0000
,
1000
0000
0000
0100
M000
0000
0100
0000
0000
0001
0000
0000
0100
000M
0000
0100
0000
0000
1000
0000
0000
0010
M000
0000
,
0010
0000
0000
0001
0000
0000
0010
000M
0000
0010
0000
0000
1000
0000
0000
0100
M000
0000
0100
0000
0000
0001
0000
0000
,
0100
0000
0000
0000
0000
0000
M000
0000
0M00
0000
0000
0000
1010
0000
0000
0000
0000
0000
MMMM
0000
0000
M00M
0000
0000
M11M
0000
0000
M00M
0000
0000
MMMM
0000
0000
0000
0000
0000
1000
0000
0000
0000
0000
0000
0010
0000
0000
0000
0000
0000
,
1000
0001
M000
1010
0000
0001
1000
0000
,
0001
0000
0000
0100
000M
0000
0100
0000
0000
1000
0000
0000
0010
0000
0000
0100
0000
0000
0001
0000
0000
0010
000M
0000
,
0010
0000
0000
1000
0000
0000
0100
0000
0000
0010
0000
0000
0001
0000
0000
0100
000M
0000
0100
0000
0000
1000
0000
0000
,
0101
0000
0000
0000
0000
0000
000M
0000
0M00
0000
0000
0000
1001
0000
0000
0000
0000
0000
MMMM
0000
0000
M00M
0000
0000
M11M
0000
0000
M00M
0000
0000
MMMM
0000
0000
0000
0000
0000
0100
0000
0000
0000
0000
0000
0010
0000
0000
0000
0000
0000
,
0100
0000
0000
0010
0000
000M
0M00
0000
0000
1100
0000
0000
0000
0000
0000
0001
0000
0000
1000
0000
0000
0000
0000
0000
,
0001
0000
0000
0100
000M
0000
0100
0000
0000
1000
0000
0000
0100
0000
0000
0001
0000
0000
0100
0000
0000
1000
0000
0000
,
0010
M000
0000
0010
0000
0000
0001
0000
0000
0100
0000
0000
1000
0000
0000
0100
0000
0000
0001
0000
0000
0100
0000
0000
,
1100
0000
0000
0000
0000
0000
000M
0000
0M00
0000
0000
0000
1001
0000
0000
0000
0000
0000
MMMM
0000
0000
M00M
0000
0000
M11M
0000
0000
M00M
0000
0000
MMMM
0000
0000
0000
0000
0000
1000
0000
0000
0000
0000
0000
0001
0000
0000
0000
0000
0000
,
1000
0000
0000
0100
0000
0000
M000
0M00
0000
1001
0000
0000
0000
0000
0000
0010
0000
0000
1000
0000
0000
0000
0000
0000
,
1200
0000
0000
0000
0010
0300
0100
0000
1000
0000
0000
0000
1000
0000
0100
0000
,
0010
0100
0000
1100
0000
0010
0001
0010
,
0011
0000
0001
0100
1000
0000
0100
0001
,
0010
1000
0000
0011
0000
0100
0010
1000
,
0102
0000
0013
0001
1000
0000
0100
0001
,
0100
1000
0000
1100
0000
0001
0100
0010
,
1002
0000
0013
0100
1000
0000
0001
1000
,
0010
0100
0000
0101
0000
1000
0100
0010
,
0022
0033
0000
0000
;

//---------------dance-single - By Hamm----------------
#NOTES:
     dance-single:
     By Hamm:
     Hard:
     7:
     0.643,0.698,0.243,0.475,0.058,327.000,21.000,41.000,38.000,0.000:



0000
0000
0000
0000
,
0000
0000
0000
0000
,
2000
0000
3000
0100
0020
0000
0030
0001
,
0100
0020
0000
1030
0000
1000
0100
1000
,
0002
0000
0003
0010
0200
0000
0300
1000
,
0010
0002
0000
0013
0000
0010
1000
0100
,
2000
0000
3000
0001
0200
0000
0300
0010
,
1000
0200
0000
0301
0000
0001
0100
1000
,
0000
0000
1010
0000
1000
0100
1000
0010
,
0100
0001
0010
0002
0000
1003
0001
1000
,
0002
0000
0003
100M
0200
0000
0300
0010
,
0001
0010
0100
1000
0000
0000
1001
0000
,
0010
0000
0100
0000
0001
1000
0100
0001
,
0100
1000
0010
0200
0000
0310
1000
0001
,
0200
0000
0000
0000
0300
0M00
0010
0000
2000
0000
0000
0000
3000
0000
0100
0000
,
0010
0001
0100
0010
0000
0100
0010
0000
,
1001
1010
0101
0011
,
0001
0000
0010
0000
0001
0000
0100
0000
0000
0010
0000
0000
0100
0000
0000
0001
0000
0000
1000
0000
0000
0010
0000
0000
,
1000
0000
0001
0000
0100
0010
1000
0200
,
0010
0001
1000
0010
,
0301
0100
1000
0010
0100
0000
0001
1000
,
0000
0100
0010
0100
1000
0001
0100
0010
,
1000
1100
1100
1100
,
1000
0001
0100
0010
1000
0100
0001
0100
,
1000
0000
0000
1000
0001
0000
0100
0000
0000
0000
0010
0000
0100
0000
0001
0000
,
1001
0000
0000
1000
0010
0000
0100
0000
0000
0000
0010
0000
0100
0000
0001
0000
,
1010
0000
0000
1000
0010
0000
0100
0000
0000
0000
0001
0000
1000
0000
0100
0000
,
0011
0000
0000
1000
0100
0000
0010
0000
0000
0001
0100
0000
0001
0100
0010
0100
,
0002
0000
0003
0010
0200
0000
0300
1000
,
0010
0200
0000
0301
0000
0001
0010
0001
,
2000
0000
3000
0100
0020
0000
0030
0001
,
0100
2000
0000
3100
0000
0100
0001
0010
,
0002
0000
0003
1000
0020
0000
0030
0100
,
0001
0020
0000
1030
0000
1000
0010
0001
,
0200
0000
0300
1000
0200
0000
0300
0010
,
0100
0002
0000
1003
0000
0100
0010
0001
,
0100
0010
0100
0010
1000
0010
1000
0010
,
1000
0001
1000
0001
0010
0001
0010
0001
,
1000
0000
1010
M000
0M00
00M0
100M
0100
,
0010
0001
0000
1010
M000
0M00
00M0
000M
,
1000
0100
1000
0100
0010
0001
0010
0001
,
0100
0010
0100
0010
1000
0100
1000
0001
,
0100
0000
1010
000M
00M0
0M00
M001
1000
,
0010
0100
0000
0101
000M
00M0
0M00
M000
,
1000
0010
0100
0001
1000
0100
0010
0001
,
0010
0001
0100
0010
1000
0100
0010
0100
,
0010
0000
0110
M000
0M00
00M0
100M
0100
,
0010
0001
0000
1010
M000
0M00
00M0
000M
,
1000
0100
0010
0100
1000
0100
0010
0100
,
1000
0001
0100
0010
0100
0001
0100
0010
,
0100
0000
0101
M000
0M00
00M0
100M
0100
,
0010
0001
0000
1010
M000
0M00
00M0
000M
,
00M2
0M00
M003
1000
0020
0000
0030
0100
,
0001
0020
0000
0031
0000
0001
1000
0001
,
0200
0000
0300
0010
2000
0000
3000
0001
,
0010
0200
0000
0310
0000
0010
0001
1000
,
0002
0000
0003
0100
2000
0000
3000
0100
,
0001
2000
0000
3100
0000
0001
0010
0100
,
2000
0000
3000
0010
0200
0000
0300
0001
,
1000
0200
0000
1300
0000
0010
0100
0001
,
1002
M000
0003
0000
0000
0000
0000
0000
;

//---------------dance-single - By Hamm----------------
#NOTES:
     dance-single:
     By Hamm:
     Medium:
     5:
     0.420,0.453,0.174,0.671,0.000,181.000,15.000,58.000,0.000,0.000:



0000
0000
0000
0000
,
0000
0000
0000
0000
,
2000
3000
0020
0030
,
0100
0020
0000
1030
0000
0000
0100
0000
,
0020
0030
0200
0300
,
0010
0200
0000
1300
0000
0000
1000
0000
,
2000
3000
0200
0300
,
1000
0200
0000
0301
0000
0000
0100
0000
,
0000
1010
1000
1000
,
0100
0010
0001
0001
,
0100
0010
0100
0001
,
1000
0100
0010
1001
,
0010
0100
0001
0100
,
0100
0010
0010
1000
,
0100
0100
1000
0100
,
0010
0100
0010
0010
,
1001
1001
1001
1001
,
0001
0001
1000
0100
,
0010
0100
1000
1000
,
1000
1000
0001
0100
,
1010
1010
0001
0000
,
1100
1100
0001
0000
,
0100
0100
0100
0100
,
0001
1000
0100
1000
,
0010
0210
0001
0301
,
1000
2010
0100
3001
,
0010
0102
0100
1003
,
0001
2100
0010
3100
,
2000
3000
0020
0030
,
0100
0020
0000
1030
0000
0000
0100
0000
,
0020
0030
0200
0300
,
0010
0200
0000
1300
0000
0000
1000
0000
,
2000
3000
0200
0300
,
1000
0200
0000
0301
0000
0000
0100
0000
,
2000
3000
0020
0030
,
0100
0020
0000
1030
0000
0000
0100
0000
,
0020
0000
0230
0000
,
2300
0000
3020
0000
,
1030
1000
0000
1001
,
1000
0200
0000
0300
1000
0000
0000
0000
,
0020
0000
0230
0000
,
0302
0000
2003
0000
,
3010
0010
0000
0000
,
1000
0020
0000
0130
0000
0000
0000
0000
,
0002
0000
0023
0000
,
0032
0000
0203
0000
,
0301
0001
0000
0000
,
1000
0200
0000
0310
0000
0000
0000
0000
,
0020
0000
0230
0000
,
2300
0000
3020
0000
,
0130
0100
0000
0000
,
0001
0020
0000
0031
0000
0000
0000
0000
,
0020
0030
0200
0300
,
0001
0200
0000
0310
0000
0000
0001
0000
,
0200
0300
0002
0003
,
0100
0002
0000
0013
0000
0000
0010
0000
,
0020
0030
0002
0003
,
0010
0002
0000
1003
0000
0000
0001
0000
,
0020
0030
0200
0300
,
0001
0200
0000
0310
0000
0000
0001
0000
,
0200
0300
0000
0000
;

//---------------dance-single - By Hamm----------------
#NOTES:
     dance-single:
     By Hamm:
     Easy:
     3:
     0.240,0.349,0.185,0.324,0.000,101.000,16.000,28.000,0.000,0.000:



0000
0000
0000
0000
,
0000
0000
0000
0000
,
1000
0000
0010
0000
,
0200
0000
0000
0300
,
0010
0000
0100
0000
,
0020
0000
0000
0030
,
1000
0000
0100
0000
,
2000
0000
0000
3000
,
0100
0000
1100
0000
,
0001
0000
0110
0000
,
2100
0000
3020
0000
,
0130
0100
0001
1000
,
0001
0000
1100
0000
,
0001
0000
1100
0000
,
2000
0000
3020
0000
,
0130
0100
0001
0100
,
0010
0010
0010
0010
,
1000
0001
1000
0001
,
0010
0010
0010
0100
,
0100
0000
0000
0000
,
1000
1000
0010
0000
,
0100
0100
0010
0000
,
0100
0100
0100
0100
,
0001
1000
0001
1000
,
0010
0110
0000
0000
,
1000
1010
0000
0000
,
0010
0101
0000
0000
,
0001
1100
0000
0000
,
1000
0000
0010
0000
,
0200
0000
0000
0300
,
0010
0000
0100
0000
,
0020
0000
0000
0030
,
1000
0000
0100
0000
,
2000
0000
0000
3000
,
1000
0000
0100
0000
,
2000
0000
0000
3000
,
0022
0000
0000
0000
,
0000
0000
0000
0000
,
0033
1001
0000
0000
,
2000
0000
0000
3000
0000
0000
0000
0000
,
0220
0000
0000
0000
,
0000
0000
0000
0000
,
0330
1010
0000
0000
,
0002
0000
0000
0003
0000
0000
0000
0000
,
2002
0000
0000
0000
,
0000
0000
0000
0000
,
3003
0001
0000
0000
,
2000
0000
0000
3000
0000
0000
0000
0000
,
2020
0000
0000
0000
,
0000
0000
0000
0000
,
3030
0110
0000
0000
,
0002
0000
0000
0003
0000
0000
0000
0000
,
0001
0000
0010
0000
,
0020
0000
0000
0030
,
1000
0000
0010
0000
,
0020
0000
0000
0030
,
0010
0000
0100
0000
,
0020
0000
0000
0030
,
1000
0000
0100
0000
,
0020
0000
0000
0030
,
0002
0003
0000
0000
;
