#TITLE:Digi Charat;
#SUBTITLE:- Party Night;
#ARTIST:Asami/Miyuki/Kyoko;
#TITLETRANSLIT:;
#SUBTITLETRANSLIT:;
#ARTISTTRANSLIT:;
#CREDIT:Anime Toshokan;
#BANNER:Digi Charat - Party Night.png;
#BACKGROUND:Digi Charat - Party Night bg.png;
#LYRICSPATH:;
#CDTITLE:dejiko.png;
#MUSIC:Digi Charat - Party Night.mp3;
#OFFSET:0.858;
#SAMPLESTART:69.390;
#SAMPLELENGTH:12.800;
#SELECTABLE:YES;
#BPMS:0.000=58.320,14.875=150.000;
#STOPS:;
#BGCHANGES:;
// cache tags:
#FIRSTBEAT:2.000;
#LASTBEAT:255.000;
#SONGFILENAME:Songs/DDR Anime 1st Mix/Digi Charat - Party Night/Digi Charat - Party Night.sm;
#HASMUSIC:1;
#HASBANNER:1;
#MUSICLENGTH:112.052;
// end cache tags

//---------------dance-single - BASIC----------------
#NOTES:
     dance-single:
     BASIC:
     Easy:
     2:
     0.181,0.199,0.107,0.000,0.000,130.000,12.000,0.000,0.000,0.000:
0000
0000
0000
0000
0000
1001
0000
0000
,
0000
1000
0000
0000
0000
0001
0000
0000
,
0000
1001
0000
0000
0000
0010
0000
0000
,
0000
0110
0000
0000
0000
1001
0000
0000
,
0000
1000
0000
0010
,
0000
0100
0000
0001
,
0000
0001
0000
1000
,
0000
1000
0000
1001
,
0000
0001
0000
0001
,
0000
1000
0000
0010
,
0000
0100
0000
0010
,
0000
1000
0000
1001
,
0000
0001
0000
0100
,
0000
0010
0000
1000
,
0000
1000
0000
0001
,
0000
0001
0000
0010
,
0000
0010
0000
0100
,
0000
0100
0000
1000
,
0000
0001
0000
1000
,
0000
0001
0000
1000
,
0000
0010
0000
0100
,
0000
0001
0000
1000
,
0000
0010
0000
0100
,
0000
0001
0000
0110
,
0000
1000
0000
1000
,
0000
1000
0000
0100
,
0000
0010
0000
0001
,
0000
0001
0000
0001
,
0000
1000
0000
0010
,
0000
0100
0000
0100
,
0000
0100
0000
1000
,
0000
0001
0000
0010
,
0000
0010
0000
0010
,
0000
0110
0000
0100
,
0000
0010
0000
0001
,
0000
1000
0000
0100
,
0000
0001
0000
0010
,
1000
0000
0000
0001
1000
0000
0001
0000
,
0000
0001
0000
1000
,
0000
0100
0000
0010
,
0000
0010
0000
0100
,
0000
0010
0000
0100
,
0000
1000
0000
1000
,
0000
0001
0000
0001
,
0000
0100
0000
0100
,
0000
0010
0000
0010
,
0000
1000
0000
0100
,
0000
0010
0000
0001
,
0000
1000
0000
0001
,
0000
1001
0000
0001
,
0000
0010
0000
0001
,
0000
1000
0000
0100
,
0000
1000
0000
0010
,
0000
0100
0000
1000
,
0000
0001
0000
1001
,
0000
0001
0000
0001
,
0000
1000
0000
1000
,
0000
0001
0000
0001
,
0000
0100
0000
0100
,
0000
0010
0000
0010
,
0000
0100
0000
0100
,
0000
0100
0000
1000
,
0000
0010
0000
0000
,
0001
1000
0110
1001
;

//---------------dance-single - ANOTHER----------------
#NOTES:
     dance-single:
     ANOTHER:
     Medium:
     5:
     0.362,0.427,0.187,0.071,0.000,255.000,21.000,8.000,0.000,0.000:
0000
0000
0000
0000
1000
2000
0000
3000
,
0001
0002
0000
0003
1000
2000
0000
3000
,
0001
0002
0000
0003
1000
2000
0000
3000
,
1000
0002
0000
0000
0003
0000
0000
0000
,
0000
1100
0100
0001
,
0001
1000
1000
0010
,
0100
0100
0001
1001
,
1000
1000
0100
0001
,
0001
0100
0010
0010
,
1000
0110
0001
1000
,
0001
1000
1000
0010
,
0100
0010
0100
0001
,
0010
1000
1000
0101
,
0001
0010
0100
1000
,
0010
0001
0010
0010
,
0001
1000
0010
0001
,
1000
0011
0100
0100
,
0100
0100
0010
0100
,
0010
0100
1000
0001
,
0101
1000
1000
0001
,
0100
0100
1000
1000
,
0010
0010
0001
0001
,
0100
0010
1001
0100
,
0001
0100
0010
1000
,
0001
0100
0010
1000
,
0001
0110
0001
0001
,
0001
1000
1000
1000
,
0010
0010
0010
1000
,
0011
0100
0010
0001
,
1000
0100
0010
0001
,
1000
0100
0010
1100
,
0001
0010
0100
0001
,
0010
1000
0001
0010
,
0001
0100
1010
0001
,
0001
1000
1000
0010
,
0010
0100
0100
0010
,
1000
1000
0100
0001
,
0220
0000
0330
1001
1001
0000
0110
0000
,
0100
0000
1000
0000
0001
0001
0000
0000
,
1000
1000
0100
0010
,
0001
0100
0010
1000
,
0001
0100
0100
0010
,
1001
0000
0100
0000
1000
1000
0000
0000
,
1000
0100
0100
0010
,
0010
0001
0001
1000
,
0001
1000
0001
0100
,
1001
0000
0010
0000
0001
0001
0000
0000
,
0010
0100
1000
0001
,
0010
0001
0100
1000
,
0010
0100
0001
0010
,
1001
0000
0100
0000
1000
1000
0000
0000
,
1000
0001
1000
0001
,
1000
0010
0100
0010
,
0100
1000
0001
1000
,
0001
1001
0100
0100
,
0100
0010
0010
0010
,
0100
0010
0100
0010
,
0110
1000
0001
0100
,
0010
0010
1000
0001
,
0100
0001
1000
1001
,
1000
0010
1000
0001
,
0100
0001
1000
0001
,
0010
0000
0100
0000
0100
0100
0000
1000
,
0001
1000
0001
0010
0100
0010
0100
0000
;

//---------------dance-single - MANIAC----------------
#NOTES:
     dance-single:
     MANIAC:
     Hard:
     7:
     0.450,0.455,0.250,0.152,0.000,308.000,28.000,17.000,0.000,0.000:
0000
0000
0000
0000
1000
2020
0000
3030
,
0001
2002
0000
3003
1000
0202
0000
0303
,
0001
0220
0000
0330
1000
0022
0000
0033
,
1001
2200
0000
0000
3300
0000
0000
0000
,
0000
0000
0010
0000
0001
0000
0001
1000
,
0001
0000
0100
0000
0010
0000
1000
0001
,
1000
0000
0100
0000
0001
0000
1000
0100
,
0001
0000
1000
0000
0001
0000
0001
0100
,
1000
0000
0010
0000
0100
0000
1000
1000
,
0001
0000
0001
0000
1000
0000
0001
0001
,
1000
0000
1000
0000
0001
0000
0001
1000
,
0001
0000
0001
0000
1000
0000
1000
0001
,
1000
0000
0010
0000
0100
0000
0100
0100
,
0100
0000
0100
0000
0010
0000
0010
0010
,
0010
0000
0001
0000
1000
0000
0100
0100
,
0001
0000
0010
0000
1000
0000
0001
0001
,
0100
0000
0010
0000
1000
0000
1000
1000
,
0100
0000
1000
0000
0010
0000
0100
0100
,
1000
0000
0001
0000
1000
0000
0010
0100
,
0010
0000
0010
0000
0001
0000
1000
0100
,
1000
0000
0001
0000
1000
0000
0100
0010
,
0100
0000
0100
0000
1000
0000
0001
0100
,
0001
0000
0010
0000
0100
0000
0100
0100
,
0010
0000
1000
0000
0001
0000
1000
0100
,
0001
0000
0100
0000
1000
0000
1000
0100
,
1000
0000
0100
0000
0001
0000
0001
0100
,
0001
0001
0100
1000
,
0010
0000
0010
0020
0000
0000
0030
0000
,
1001
0100
1000
0010
,
0001
0100
1000
0010
,
0001
0100
1000
0010
,
0001
0100
1000
0010
,
0001
0100
1000
0010
,
0001
0100
1000
0010
,
1000
0001
1000
0001
,
0010
0100
0010
0100
,
0010
1000
0001
0100
,
0220
0000
0330
1001
1001
0000
0110
0000
,
1001
0000
0101
0000
1000
1100
0000
1000
,
0001
1000
0001
1000
0010
0100
0010
0000
,
0001
1000
0001
0010
,
0100
0010
1000
0001
,
1100
0000
0101
0000
0010
0110
0000
1000
,
0001
1000
0001
1000
0100
0010
0100
0000
,
0010
0001
1000
0100
,
0010
0001
1000
0001
,
1001
0000
0101
0000
1000
1010
0000
0001
,
1000
0001
1000
0001
0010
0100
0010
0000
,
0100
0010
1000
0001
,
0100
0010
1000
0001
,
1010
0000
0011
0000
0010
1001
0000
0010
,
0100
0010
0100
0010
1000
0001
1000
0000
,
0010
0000
0001
0000
1000
0000
0000
0010
,
1000
0001
2002
0000
0000
0000
3003
0000
,
0010
0100
0010
0000
1000
0001
1000
0000
,
0100
0010
0100
0000
0001
1000
0001
0000
,
1000
0100
1000
0000
0001
0100
0001
0000
,
0010
0100
0010
0000
1000
0010
1000
0000
,
0001
0010
0001
0000
1000
0001
1000
0000
,
0001
1000
0001
0000
0100
1000
0100
0000
,
0100
0001
0100
0000
0010
1000
0010
0000
,
0010
0001
0010
0001
1000
0001
1000
0000
,
1001
0000
1001
0000
0010
0001
0000
1000
,
0001
1000
0001
0100
0100
0100
1001
0000
;

//---------------dance-single - BEGINNER----------------
#NOTES:
     dance-single:
     BEGINNER:
     Beginner:
     2:
     0.159,0.170,0.054,0.000,0.000,119.000,6.000,0.000,0.000,0.000:
0000
0000
0000
0000
,
0000
0000
0000
0000
,
0000
0000
0000
0000
,
0000
0000
0000
0000
,
0000
0000
1000
0000
,
0010
0000
0100
0000
,
0001
0000
0001
0000
,
1000
0000
1000
0000
,
1001
0000
0001
0000
,
0001
0000
1000
0000
,
0010
0000
0100
0000
,
0010
0000
1000
0000
,
1001
0000
0001
0000
,
0100
0000
0010
0000
,
1000
0000
1000
0000
,
0001
0000
0001
0000
,
0010
0000
0010
0000
,
0100
0000
0100
0000
,
1000
0000
0001
0000
,
1000
0000
0001
0000
,
1000
0000
0010
0000
,
0100
0000
0001
0000
,
1000
0000
0010
0000
,
0100
0000
0001
0000
,
0110
0000
1000
0000
,
1000
0000
1000
0000
,
0100
0000
0010
0000
,
0001
0000
0001
0000
,
0001
0000
1000
0000
,
0010
0000
0100
0000
,
0100
0000
0100
0000
,
1000
0000
0001
0000
,
0010
0000
0010
0000
,
0010
0000
0110
0000
,
0100
0000
0010
0000
,
0001
0000
1000
0000
,
0100
0000
0001
0000
,
0010
0000
1000
0000
,
1000
0000
0001
0000
,
1000
0000
0100
0000
,
0010
0000
0010
0000
,
0100
0000
0010
0000
,
0100
0000
1000
0000
,
1000
0000
0001
0000
,
0001
0000
0100
0000
,
0100
0000
0010
0000
,
0010
0000
1000
0000
,
0100
0000
0010
0000
,
0001
0000
1000
0000
,
0001
0000
1001
0000
,
0001
0000
0010
0000
,
0001
0000
1000
0000
,
0100
0000
1000
0000
,
0010
0000
0100
0000
,
1000
0000
0001
0000
,
1000
0000
0001
0000
,
0001
0000
1000
0000
,
1000
0000
0001
0000
,
0001
0000
0100
0000
,
0100
0000
0010
0000
,
0010
0000
0100
0000
,
0100
0000
0100
0000
,
1000
0000
0010
0000
,
0001
0000
0110
0000
;
