#TITLE:Legacy;
#SUBTITLE:;
#ARTIST:KaW;
#TITLETRANSLIT:;
#SUBTITLETRANSLIT:;
#ARTISTTRANSLIT:;
#CREDIT:;
#BANNER:Legacy.png;
#BACKGROUND:Legacy-bg.png;
#LYRICSPATH:;
#CDTITLE:chao.png;
#MUSIC:Legacy.mp3;
#OFFSET:-0.080;
#SAMPLESTART:31.922;
#SAMPLELENGTH:12.000;
#SELECTABLE:YES;
#BPMS:0.000=152.000,48.000=76.000,80.000=152.000,274.000=180.000;
#STOPS:;
#BGCHANGES:;
// cache tags:
#FIRSTBEAT:16.000;
#LASTBEAT:241.500;
#SONGFILENAME:Songs/StepMix 1.0/Legacy/Legacy.sm;
#HASMUSIC:1;
#HASBANNER:1;
#MUSICLENGTH:108.359;
// end cache tags

//---------------dance-single - E. Holniker----------------
#NOTES:
     dance-single:
     E. Holniker:
     Challenge:
     12:
     1.000,1.000,0.083,1.000,1.000,646.000,9.000,112.000,1.000,11.000:








0000
0000
0000
0000
,
0000
0000
0000
0000
,
0000
0000
0000
0000
,
0000
0000
0000
0000
,
1000
0000
0010
0000
0100
0000
0010
0000
0001
0000
0010
0000
1000
0100
0010
0001
,
0020
0000
0130
0000
1000
0000
0010
0000
0100
0000
0010
0000
0001
0010
0100
0010
,
2000
0000
3100
0000
0010
0000
0001
0000
0010
0000
0100
0000
1000
0100
0010
0100
,
0001
0100
0020
0000
1030
0000
0001
0000
0100
0000
0010
0000
0100
0010
1000
0010
,
0001
0010
0200
0000
0301
0000
0010
0000
1000
0000
0100
0000
1000
0100
0010
0100
,
0001
0100
0020
0000
0130
0000
0001
0000
1000
0000
0010
0000
0100
0010
1000
0010
,
0001
0010
0200
0000
1300
0000
0010
0000
1000
0000
0100
0000
0001
0100
0001
0100
,
0010
0100
0020
0000
0031
1000
0002
0000
1003
0001
2000
0000
3010
0100
0020
0000
,
1030
0000
0001
0000
0100
0000
0000
0010
1000
0000
1000
0000
0100
0000
0010
0000
0001
0000
0001
0010
0000
0010
0100
0000
1000
0000
0100
1000
0100
0000
1000
0001
,
1000
0000
0001
0000
0101
0000
0000
0010
0000
0000
0110
0000
0000
0000
0010
1000
0000
0000
0100
0000
1000
0000
0000
0100
1000
0000
0000
1000
0100
0000
1000
0100
,
1000
0000
0001
0000
0101
0000
0000
0000
0010
0000
0110
0000
0000
0000
0010
0000
1000
0000
0100
0000
1000
0000
0000
0100
1000
0000
1000
0000
0100
0000
0100
0000
,
0010
0000
0010
0000
0001
0000
0000
0000
1000
0000
0001
0000
0000
0000
0001
0000
1000
0100
0010
0001
0010
0000
0100
0000
1000
0000
0000
0000
1010
0000
0000
0000
,
0010
0000
1000
0000
1010
0000
0010
0000
0100
0000
0010
0000
0110
0000
0010
0000
0001
0000
0001
0010
0000
0010
1000
0000
1000
0000
0010
0100
0010
0000
0010
0001
,
0010
0000
0100
0000
1000
0000
0000
0000
0010
0000
0110
0000
0000
0000
0010
0000
1000
0000
0100
0000
1000
0000
0100
1000
0000
1000
0001
0000
0100
0000
0001
0100
,
0010
0000
0100
0000
0010
0000
1000
0000
0100
0000
0010
0000
0001
0000
0010
0000
0100
0000
1000
0000
0010
0000
0100
0010
0000
0010
0100
0000
0010
0000
1000
0100
,
0010
0001
0010
0100
1000
0000
0010
0000
0100
0000
0010
0000
0001
0000
0010
0000
1000
0010
0000
1000
0010
0000
1000
0000
0020
0000
0000
0000
2000
0000
0000
3030
,
0100
0001
0100
0010
2000
0000
3100
0000
0010
0000
0001
0000
0010
0000
0100
0000
,
1000
0100
0010
0100
0002
0000
0100
0003
1000
0000
0001
0000
0100
0000
0010
0000
,
0100
0010
2000
0000
3010
0100
0010
0001
0010
0100
0020
0000
1030
0100
0010
0100
,
0001
0100
0020
0000
0130
1000
0001
0100
0001
0100
0002
0000
0103
0010
1000
0010
,
0020
0000
0000
0000
0100
0030
1000
0000
0100
0000
0010
0000
0100
0001
0100
0010
,
0100
0010
2000
0000
3100
0000
0010
0000
0100
0000
0010
0000
1000
0100
0010
0100
,
0002
0000
0003
0000
0001
0000
1000
0010
0100
0010
0200
0000
0310
0000
1000
0100
,
0020
0000
0000
0030
0001
0000
1000
0100
0010
0001
0010
0001
2000
0000
3001
0000
,
0100
0010
0002
0000
0013
1000
0100
0010
0001
0010
0200
0000
1300
0100
0010
0100
,
0010
0100
0020
0000
0031
1000
0001
0100
0010
0100
0020
0000
1030
0100
0010
0100
,
0001
0100
0020
0000
0130
0001
0100
0010
0100
0010
0002
0000
1003
0100
0010
0100
,
0010
0100
0002
0000
0103
1000
0100
1000
0010
1000
0200
0000
1300
0000
0100
0000
,
0010
0000
0001
0010
1000
0100
0010
0001
,
0010
0100
2000
0000
3100
0010
0100
0001
0100
0010
0200
0000
1300
0001
1000
0001
,
1000
0001
2000
0000
3010
0100
0010
0100
1000
0100
0020
0000
0031
0010
0100
1000
,
0100
0010
0200
0000
0301
0010
0100
0010
0100
0010
2000
0000
3010
1000
0100
0010
,
2000
3200
2300
3200
2300
3200
0320
0002
,
0000
0000
1000
0033
0200
2300
3020
0230
,
0000
0000
0002
0000
0000
0000
0000
0000
0000
0000
0000
0000
1000
0010
1000
0000
,
0000
0000
0010
1000
0010
0000
0000
0000
2000
0000
3303
0000
0200
0000
0320
0000
,
0032
0000
0023
0230
2300
3020
0230
0320
,
0000
0000
2030
3200
2300
3200
2000
0002
,
0000
0003
0020
0000
,
0001
3330
0000
0200
2300
3200
0320
0032
,
0103
0010
0200
0000
1300
0001
0100
0010
0001
0010
2000
0000
3010
1000
0100
0010
,
0100
0001
0020
0000
1030
0001
1000
0010
0100
0010
0002
0000
0013
1000
0100
0010
,
0100
0001
0200
0000
0310
1000
0100
0010
0100
0001
0020
0000
1030
0001
0100
0010
,
0001
0010
0200
0000
0310
1000
0100
0010
0001
0010
2000
0000
3010
0001
1000
0010
,
0100
0010
0002
0000
0013
0100
0010
1000
0100
0010
0200
0000
0301
0100
0010
0100
,
0010
0001
0020
0000
1030
0100
0010
0001
0010
1000
0020
0000
1030
0100
0010
0100
,
0010
0100
0002
0000
0013
0000
0100
0000
1000
0000
0010
0000
0100
0000
0010
0000
,
0100
0010
0000
0000
0010
0000
0010
0000
1000
0100
0000
0000
1000
0000
0100
0000
,
0010
0000
0001
0010
0002
0000
0013
0100
0020
0000
0130
1000
0020
0000
0130
0010
,
0002
0000
0013
0100
0020
0000
1030
0100
0020
0000
0130
0001
0020
0000
0031
0010
,
0002
0000
0103
0010
0200
0000
1300
0010
0200
0000
0310
0001
0020
0000
0130
0000
,
2200
0000
0000
0000
0000
0000
0300
0000
3100
0000
0010
0000
1000
0100
0010
00M0
,
0001
0000
0010
0100
2000
0000
3100
0010
0200
0000
0310
0001
0020
0000
0130
1000
,
0200
0000
0310
0001
0020
0000
0130
0010
0200
0000
1300
0010
0200
0000
0310
0001
,
0010
0100
0010
1000
0020
0000
0130
0010
0001
0010
0100
0010
2000
0000
3100
0010
,
0100
0001
0100
0010
0200
0000
1300
0001
1000
0001
0020
0000
1030
0000
0010
0002
,
2000
0000
0000
3003
0000
0000
0000
0000
;

//---------------dance-single - E. Holniker----------------
#NOTES:
     dance-single:
     E. Holniker:
     Hard:
     9:
     0.831,0.947,0.074,1.000,0.415,400.000,8.000,222.000,2.000,2.000:

0000
0000
0000
0000
,
0000
0000
0000
0000
,
0000
0000
0000
0000
,
0000
0000
0000
0000
,
2000
3020
0230
0320
0032
0023
2030
0000
,
3200
0320
0032
0023
0230
2300
3020
0000
,
0230
0320
0032
0023
2030
3200
2300
0000
,
3002
0203
0320
0230
0320
2030
3100
0010
,
0200
0320
0032
0023
0230
0320
0230
0000
,
2300
3020
0230
0320
0032
0023
0230
0000
,
2300
3200
0320
0230
0302
0203
2300
0000
,
3002
0203
0320
0032
2003
3200
2300
0000
,
3100
0001
1000
0000
0010
0101
0000
0010
1000
0100
0010
0000
0001
1000
0001
1000
,
0010
1000
0010
0000
0000
0101
0000
0000
0010
0100
0100
0000
1000
0100
0010
0010
,
0001
0001
0010
0000
0000
1100
0000
0000
0010
0010
0100
0000
0001
1000
0000
1000
,
0001
0000
1000
0000
1001
0000
0000
0000
0010
0000
1010
0000
0000
0000
0010
0000
1000
0100
1000
0100
1000
0000
0010
0000
0100
0000
0000
0000
0101
0000
0000
0000
,
1000
0100
0010
0001
0010
0100
0010
0100
1000
0100
0010
0100
0001
0100
0001
0100
,
1000
0100
1000
0100
1000
0010
1000
0010
0001
0010
0001
0010
0100
0010
0100
0000
,
1000
0100
0010
0100
0001
0100
0010
0100
1000
0001
0100
0001
0010
0001
1000
0001
,
0100
0000
0010
0000
1000
0000
0100
0000
0010
0000
0100
0000
1000
0000
0010
0000
1000
0100
1000
0100
1000
0000
0010
0000
0100
0000
0000
0000
0101
0000
0000
0000
,
2000
3200
0320
0032
0023
0230
2300
3020
,
0000
0030
0020
0230
0302
2003
3200
0302
,
0000
0000
0200
0000
0000
0000
0000
0000
0000
0000
0303
0000
1000
0001
1000
0000
,
0000
0000
0001
1000
0001
0000
0000
0000
2000
0000
0000
0000
3020
0000
0230
0000
,
0320
0000
2030
3200
0320
0230
0302
0023
,
0000
0030
2000
3020
0230
0320
0230
0020
,
0000
0000
0001
0000
,
1000
0000
0330
2000
3200
0320
0032
0023
,
0230
0000
0300
0M00
0200
0000
2300
0000
3020
0000
0230
0000
0320
0000
0032
0000
,
0000
0000
0023
0230
2300
3200
0320
0032
,
0000
2000
0000
0000
3003
0000
1000
0002
,
0003
0000
0001
0000
2000
0000
0000
0000
3002
0000
0003
000M
0002
0000
2003
0000
,
0000
3000
0200
0320
2030
3200
0320
0032
,
0000
0003
0002
0023
0230
2300
3020
0230
,
0000
0000
0010
0000
0300
0020
2030
3020
,
0030
0020
0230
0320
0032
0023
2030
3000
,
2000
3200
0320
0032
0023
0230
0320
2030
,
3000
0000
0020
0230
0320
0032
0023
2030
,
0000
0200
0000
0000
3300
0000
0010
2000
,
3000
0000
0001
0200
0300
1000
0200
2300
,
3200
0300
0020
0032
0023
0230
2300
3200
,
0000
0000
0320
0230
2300
3200
2300
3020
,
0000
0000
0000
0030
0002
0000
2003
0000
,
3020
2030
3000
0002
0203
0320
2030
3200
,
0320
0030
0002
0023
0230
2300
3020
2030
,
0000
0000
3020
0230
0302
2003
3200
0302
,
0000
0000
2000
0000
0000
0000
0000
0000
3003
0000
0000
0000
1000
0001
2000
0000
,
3001
1000
0002
0000
1003
0010
2000
0000
0000
0000
3020
0000
0230
0000
0320
0000
,
0000
0030
2000
3200
0320
0032
0023
0230
,
0000
0300
0020
0230
2300
3020
0230
0320
,
0000
0000
2030
0000
3000
0100
2000
0100
,
0100
0000
0100
0000
0100
0000
0100
0000
0100
0000
0100
0000
0100
0100
0100
3000
,
0100
0010
0000
2000
0000
0000
0000
3000
0100
0010
0000
0002
0000
0000
0000
0003
,
0010
0100
0000
2000
0000
0000
0000
3000
0010
0001
0000
0020
0000
0000
0000
0030
,
0100
0010
0000
2000
0000
0000
0000
3000
0100
0010
0000
0002
0000
0000
0000
0000
,
2000
0000
0000
0000
0000
3003
0000
0010
0000
0000
0100
0000
1000
0010
0100
0000
,
1000
0010
0000
0200
0000
0000
0000
0300
0001
1000
0000
0200
0000
0000
0000
0300
,
0010
0001
0000
0020
0000
0000
0000
0030
0100
1000
0000
0020
0000
0000
0000
0030
,
0100
0001
0000
2000
0000
0000
0000
3000
0100
0010
0000
0001
0000
0002
0000
0000
,
0020
0000
0000
0000
0000
0033
0000
0100
1000
0000
1000
0000
1000
0000
0010
0000
,
2002
0000
0000
3003
0000
0000
0000
0000
;

//---------------dance-single - E. Holniker----------------
#NOTES:
     dance-single:
     E. Holniker:
     Medium:
     7:
     0.413,0.585,0.065,0.055,0.097,300.000,7.000,6.000,0.000,0.000:


0000
0000
0000
0000
,
0000
0000
0000
0000
,
0000
0000
0000
0000
,
0000
0000
0000
0000
,
1000
0010
0100
0001
,
1000
0000
0010
0000
1000
0100
1000
0100
,
0001
1000
0100
0000
0010
0000
1000
0100
,
0001
0100
0001
0100
1000
0100
1000
0000
,
0100
0010
1000
0100
,
0010
0100
0010
0100
0010
0100
1000
0000
,
0001
1000
0010
0100
,
1000
0001
1000
0001
1000
0010
1000
0000
,
1000
0000
0100
0000
0010
0000
0001
0000
0010
0100
0010
0100
0010
0000
0100
0000
,
1000
0000
0010
0000
0100
0000
0001
0000
0100
0001
0100
0001
0000
0000
0000
0000
,
1000
0000
0010
0000
0100
0000
0001
0000
1000
0100
1000
0100
1000
0000
0100
0000
,
0010
0000
0001
0000
0010
0000
0100
0000
0010
0100
0010
0100
0000
1000
0000
1000
,
0001
0000
0100
0000
0010
0000
1000
0000
0100
1000
0100
1000
0000
1000
0000
1000
,
0100
0000
0010
0000
0001
0000
0010
0000
0100
0010
0100
0010
0100
0000
0100
0000
,
1000
0000
0010
0000
0100
0000
0001
0000
0001
0100
0001
0100
0001
0000
0100
0000
,
0010
0000
1000
0000
0100
0000
0010
0000
0100
0010
0100
1000
0000
1000
0100
0000
,
0010
0001
0010
0100
0010
0100
0010
0100
,
0000
1000
0010
0100
,
0001
1000
0010
0100
,
0010
1000
0100
0001
,
0010
0100
1000
0010
,
0100
0010
0001
0010
,
1000
0100
0010
0100
,
1000
0100
1000
0100
1000
0000
0001
0000
,
0010
0100
1000
0010
,
0100
0010
0100
0000
0001
0000
1000
0000
,
0100
0010
0100
0001
,
1000
0000
0010
0000
,
0100
0001
1000
0100
,
0010
0100
0010
0001
,
1000
0010
1000
0000
0100
0010
0100
0000
,
0001
0100
0001
0000
0010
0100
0010
0000
,
1000
0100
0010
0001
,
1001
0000
1000
0010
,
0100
0010
0001
0010
,
1000
0000
0100
0000
0010
0000
0100
0010
,
0100
1000
0010
0001
,
0010
0100
1000
0100
,
1000
0100
1000
0000
0001
0010
0001
0000
,
0010
0100
1000
1010
,
0001
0100
0010
1000
,
0100
0001
0100
0010
,
0010
1000
0001
0100
,
0010
1000
0100
0010
,
0001
0000
0100
0010
0100
0000
1100
0000
,
0001
0010
0100
0000
0010
0000
0110
0000
,
0001
0010
1000
0100
0010
0000
0000
0000
,
0001
1000
0010
0100
0010
0001
0010
0000
,
1000
0100
1000
0100
,
0010
0001
0010
0001
,
0100
0010
0100
1000
,
2200
0000
3300
0000
0100
1000
0100
1000
,
0001
0010
0100
1000
,
0010
0100
0010
0001
,
0010
1000
0100
0010
,
0220
0000
0000
0000
0000
0330
0000
0000
0000
0000
0000
0000
0010
0000
0001
0000
,
2002
0000
0000
3003
0000
0000
0000
0000
;

//---------------dance-single - E. Holniker----------------
#NOTES:
     dance-single:
     E. Holniker:
     Easy:
     3:
     0.272,0.360,0.028,0.028,0.000,200.000,3.000,3.000,0.000,0.000:





0000
0000
0000
0000
,
0000
0000
0000
0000
,
0000
0000
0000
0000
,
0000
0000
0000
0000
,
1000
0010
0100
0010
,
0000
0000
0000
0000
,
1000
0100
0010
0001
,
0010
0100
1000
0000
,
0010
0100
0010
0001
,
0010
0000
1000
0000
0100
0000
1000
0100
,
1000
0001
0010
0100
,
0010
0100
1000
0000
,
1000
0000
0100
0000
1000
0100
1000
0000
,
0001
0000
0010
0000
0100
0010
0100
1000
,
0010
0000
0100
0000
0001
1000
0100
0000
,
0010
0000
0001
0000
1000
0100
1000
0100
,
0010
0000
0001
0000
1000
0010
0100
0010
,
0001
0010
1000
0100
,
0010
0000
0001
0000
1000
0010
0100
0010
,
1000
0100
1100
1100
,
0001
1000
0010
0100
,
0010
0000
0001
0010
,
0001
0000
0100
1000
,
0100
0000
0010
0001
,
0010
0100
1000
0010
,
0100
0000
0001
1000
,
0020
0000
0000
0030
,
0100
0000
1000
0100
,
1000
0100
0010
0001
,
1000
0000
0010
0100
,
0010
0000
0000
1000
,
0100
1000
0001
0010
,
0100
0000
1000
0010
,
0100
0000
0001
0100
,
0010
0000
1000
0000
,
0100
0000
0010
0100
0010
0000
0110
0000
,
0001
1000
0010
0100
,
0010
0000
1000
0100
,
1000
0000
0000
0001
,
0010
0000
0100
1000
,
0010
0100
0010
0001
,
0010
0000
1000
0100
,
2000
0000
0000
3000
,
0002
0000
0103
0010
,
0100
0010
1000
0100
,
0010
0000
0001
1000
,
0010
0100
0000
0000
,
0001
0000
0001
1000
,
0010
0100
0010
1000
,
0100
0000
0010
0001
,
0010
0001
1000
0010
,
0100
0010
0100
0010
,
1000
0100
1000
0100
,
0010
0001
0010
0001
,
1000
0010
0100
0001
,
1000
0000
0100
0000
,
0010
0001
0010
0100
,
1000
0001
0010
0100
,
0001
0010
1000
0100
,
0010
0001
0010
0001
,
1000
0000
0000
0000
;

//---------------dance-single - E. Holniker----------------
#NOTES:
     dance-single:
     E. Holniker:
     Beginner:
     1:
     0.133,0.221,0.009,0.000,0.000,100.000,1.000,0.000,0.000,0.000:





0000
0000
0000
0000
,
0000
0000
0000
0000
,
0000
0000
0000
0000
,
0000
0000
0000
0000
,
1000
0000
0000
0000
,
0001
0000
0000
0000
,
0010
0000
0000
0000
,
0100
0000
0000
0000
,
1000
0000
0000
0000
,
0010
0000
0000
0000
,
0100
0000
0000
0000
,
1000
0000
0000
0000
,
1000
0010
0001
0000
,
0100
1000
0010
0000
,
1000
0100
0001
0000
,
0010
0100
1000
1000
,
0001
0100
1000
0000
,
1000
0010
0001
0000
,
0010
0100
1000
0000
,
1000
0100
0010
0010
,
1000
0000
0001
0000
,
1000
0000
0000
0000
,
0010
0000
1000
0000
,
0100
0000
0000
0000
,
0001
0000
0100
0000
,
1000
0000
0000
0000
,
0010
0000
1000
0000
,
0001
0000
0000
0000
,
0100
0000
0100
0000
,
1000
0000
0000
0000
,
0010
0000
1000
0000
,
0001
0000
0000
0000
,
1000
0000
0100
0000
,
0001
0000
0000
0000
,
0010
0000
1000
0000
,
0001
0000
0001
0000
,
1000
0000
0100
0000
,
0010
0000
0000
0000
,
0001
0000
1000
0000
,
1000
0000
0000
0000
,
1000
0000
0100
0000
,
0001
0000
0000
0000
,
0010
0000
0100
0000
,
1000
0000
0000
0000
,
1000
0000
0010
0000
,
1000
0000
0000
0000
,
0001
0000
0100
0000
,
0001
0000
0000
0000
,
0010
0000
0100
0000
,
0010
0000
0000
0000
,
1000
0000
0100
0000
,
0001
0000
0010
0000
,
1000
0000
0001
0000
,
1000
0000
0010
0000
,
0001
0000
0100
0000
,
1000
0000
0000
0000
,
0010
0000
1000
0000
,
0001
0000
0100
0000
,
1000
0000
0010
0000
,
0100
0000
0100
0000
,
1001
0000
0000
0000
;
