#TITLE:Bitches;
#SUBTITLE:;
#ARTIST:Mindless Self Indulgence;
#TITLETRANSLIT:;
#SUBTITLETRANSLIT:;
#ARTISTTRANSLIT:;
#CREDIT:Plaguefox (gamecast.org/plaguemix);
#BANNER:bitches-bn.png;
#BACKGROUND:bitches-bg.jpg;
#LYRICSPATH:;
#CDTITLE:pm1cd.png;
#MUSIC:bitches.ogg;
#OFFSET:-0.007;
#SAMPLESTART:10.027;
#SAMPLELENGTH:12.508;
#SELECTABLE:YES;
#BPMS:0.000=95.935,140.000=191.869;
#STOPS:;
#BGCHANGES:;
// cache tags:
#FIRSTBEAT:16.000;
#LASTBEAT:171.500;
#SONGFILENAME:Songs/Plaguemix Series/Bitches/bitches.sm;
#HASMUSIC:1;
#HASBANNER:1;
#MUSICLENGTH:99.527;
// end cache tags

//---------------dance-single - BASIC----------------
#NOTES:
     dance-single:
     BASIC:
     Easy:
     4:
     0.222,0.280,0.201,0.080,0.050,127.000,20.000,8.000,0.000,0.000:
0000
0000
0000
0000
,
0000
0000
0000
0000
,
0000
0000
0000
0000
,
0000
0000
0000
0000
,
1000
0000
0000
0010
,
0100
0000
0000
0001
,
0010
0000
0000
0100
,
1000
0000
0000
0010
,
0110
0000
0000
0000
,
1001
1000
0000
0001
,
0110
1000
0000
1000
,
0110
0001
0000
0001
,
0110
1000
0000
0000
,
0110
0000
0000
1001
,
0110
0000
0000
1001
,
0110
1000
0001
1001
,
0110
0001
1000
1001
,
1000
0000
0000
1000
0000
0000
0010
0000
0001
0000
0000
0001
0000
0000
0010
0000
,
1000
0000
0000
1000
0000
0000
0010
0000
0001
0000
0000
0000
1000
0000
0010
0000
,
0001
0000
0010
0000
,
0001
0000
0100
0010
,
2002
0000
0000
0000
0000
0000
0000
3003
,
0110
0000
0000
0000
0000
0001
0100
1000
,
2002
0000
0000
0000
0000
0000
0000
3003
,
0220
0000
0000
0000
0000
0000
0000
0330
,
1000
0000
0000
0100
0000
0000
1000
0000
0001
0000
0000
0100
0000
0000
0001
0000
,
1000
0000
0000
0100
0000
0000
1000
0000
0001
0000
0000
0000
0000
0000
0000
0000
,
1000
0000
0000
1000
0000
0000
0001
0000
0000
0100
0000
0000
0010
0000
1000
0000
,
0001
0000
0000
0001
0000
0000
0100
0000
0000
0010
0000
0000
1000
0000
0100
0000
,
1000
0000
1000
0010
1000
0000
1000
0100
,
1000
0000
1000
0010
1000
0100
0000
0000
,
0001
0000
0001
0010
0001
0000
0001
0100
,
0001
0000
0001
0010
0001
0100
0000
0000
,
0000
1000
0000
0001
,
0000
0110
0000
1001
,
1000
0000
0001
0000
,
0010
0000
0100
0000
,
0001
0000
1000
0000
,
0100
0000
0010
0000
,
1000
0100
0001
0100
,
0010
1000
0100
1000
,
0001
0010
1000
0010
,
0100
0000
0001
0000
0220
0000
0000
0330
;

//---------------dance-single - ANOTHER----------------
#NOTES:
     dance-single:
     ANOTHER:
     Medium:
     7:
     0.343,0.448,0.171,0.020,0.196,220.000,17.000,2.000,0.000,0.000:


0000
0000
0000
0000
,
0000
0000
0000
0000
,
0000
0000
0000
0000
,
0000
0000
0000
0000
,
1000
1000
0000
0000
0000
0000
0010
0001
,
0100
0100
0000
0000
0000
0000
0001
1000
,
0010
0010
0000
0000
0000
0000
0100
0001
,
1000
1000
0000
0000
0000
0000
0010
1000
,
0110
0110
0000
0000
0000
0000
0000
0000
,
1000
0000
0001
0000
1000
0000
0100
1000
0000
0100
1000
0000
0010
0000
1000
0000
,
1000
0000
0001
0000
1000
0000
0100
1000
0000
0100
1000
0000
0010
0000
1000
0000
,
0001
0000
1000
0000
0001
0000
0100
0001
0000
0100
0001
0000
0010
0000
0001
0000
,
0001
0000
1000
0000
0001
0000
0100
0001
0000
0000
0000
0000
0000
0000
0000
0000
,
1000
0000
0010
0000
0100
0000
0001
0010
0000
0100
1000
0000
0010
0000
0001
0000
,
0010
0000
1000
0000
0100
0000
0010
0001
0000
0100
0010
0000
1000
0000
0100
0000
,
0010
0010
0000
0000
1000
1000
0000
0000
0100
0100
0000
0000
0101
0000
0000
0000
,
0100
0100
0000
0000
0001
0001
0000
0000
0010
0010
0000
0000
1100
0000
1000
0000
,
1100
0000
0000
1010
0000
0000
1000
0000
0101
0000
0000
0011
0000
0000
0001
0000
,
1010
0000
0000
0011
0000
0000
0010
0000
0100
0000
0000
0000
0110
0000
0110
0000
,
1000
0000
0010
0001
0001
0000
0100
1000
,
1000
0000
0010
0001
0001
0000
1000
0000
,
1002
0100
1000
0100
,
1003
0000
0000
0000
0000
1000
0001
0000
,
2001
0100
0001
0100
,
3001
0000
0000
0000
,
1000
0000
0000
1000
0000
0000
1000
0000
0001
0000
0000
0100
0000
0000
0001
0000
,
1000
0000
0000
0100
0000
0000
0000
1000
0000
0001
0000
0100
0000
0001
0000
0000
,
1000
0000
0000
1000
0000
0000
0001
0000
0000
0100
0000
0000
0010
0000
1000
0000
,
0001
0000
0000
0001
0000
0000
0100
0000
0000
0010
0000
0000
1000
0000
0100
0000
,
1000
0000
1000
0000
0001
0000
0010
0100
0010
0000
1000
0000
0001
0100
1000
0100
,
0001
0000
0001
0000
1000
0000
0100
0010
0100
0000
0001
0000
0000
0000
0000
0000
,
0001
0000
0001
0000
1000
0000
0100
0010
0100
0000
0001
0000
1000
0010
0001
0010
,
1000
0000
1000
0000
0001
0000
0010
0100
0010
0000
1000
0000
0000
0000
0000
0000
,
1001
0001
0000
1000
,
0000
0100
0000
0010
,
0010
0100
0001
0001
,
1000
0100
0010
0010
,
0001
1000
0010
0100
,
1000
0001
1000
0001
1000
0001
1000
0001
,
1000
0001
1000
0000
0001
0000
0100
0000
,
0010
1000
0100
0010
,
0001
0000
0100
0000
0001
0000
1000
0100
,
0010
1001
1001
0000;

//---------------dance-single - MANIAC----------------
#NOTES:
     dance-single:
     MANIAC:
     Hard:
     8:
     0.428,0.512,0.372,0.030,0.286,258.000,37.000,3.000,0.000,0.000:
0000
0000
0000
0000
,
0000
0000
0000
0000
,
0000
0000
0000
0000
,
0000
0000
0000
0000
,
1010
1010
0000
0000
0000
0000
0010
0011
,
0001
0101
0000
0000
0000
0000
0100
1100
,
1000
1010
0000
0000
0000
0000
1000
1100
,
0100
0101
0000
0000
0000
0000
0001
0011
,
0010
1010
0000
0000
0000
0000
0000
0000
,
0001
0000
1000
0100
1000
0000
0001
0100
0000
0001
0100
0001
0100
0000
0010
0000
,
1000
0000
0001
0100
0001
0000
1000
0100
0000
1000
0100
1000
0100
0000
0010
0000
,
0001
0000
1000
0010
1000
0000
0001
0010
0000
0001
0010
0001
0010
0000
0100
0000
,
1000
0000
0001
0010
0001
0000
1000
0010
0000
0000
0000
0000
0000
0000
0000
0000
,
1000
0000
0010
0100
0000
0001
1000
0000
0010
0000
0100
0001
0100
0000
0000
0000
,
0010
0000
0001
1000
0000
0100
0010
0000
0001
0000
1000
0100
1000
0000
0000
0000
,
0010
0001
0000
0000
0100
0010
0000
0000
1000
0010
0000
0000
0101
0000
0000
0000
,
0010
1000
0000
0000
0100
0010
0000
0001
0010
0001
0000
0000
1100
0000
0001
0000
,
1000
0000
0001
0100
0010
0000
1000
0100
0010
0000
0001
0100
0010
0000
1000
0100
,
0001
0000
0100
1000
0010
0000
0100
0001
1000
0000
0000
0000
1100
0000
0101
0000
,
1001
0000
0000
0001
0000
0000
1000
0000
0100
0000
0000
0010
0000
0000
1000
0000
,
0010
0000
0000
0100
0000
0000
1000
0000
0001
0000
0000
0100
0001
0000
0000
1000
,
0002
1000
0100
0010
0100
1000
0010
0100
,
2003
0000
0000
0000
0000
0001
0001
3000
,
2001
0100
0010
0001
0100
0010
0100
0001
,
3010
0000
0000
0000
,
1000
0000
0000
1000
0000
0000
1000
0000
0001
0000
0000
0100
0000
0000
0001
0000
,
1000
0000
0000
0100
0000
0000
0000
1100
0000
0101
0000
0011
0000
1010
0000
0000
,
1100
0000
0000
0011
0000
0000
1001
0000
0000
0110
0000
0000
1010
0000
1001
0000
,
1100
0000
0000
0101
0000
0000
1001
0000
0000
0011
0000
0000
1000
0000
0001
0000
,
1000
0000
1000
0000
1000
0000
0100
0010
0001
0000
0001
0000
0100
0010
1000
0100
,
0010
0000
0010
0000
0010
0000
0001
0100
0010
0000
0010
0000
1000
0000
0100
0000
,
0001
0000
0001
0000
0001
0000
1000
0100
0010
0000
0010
0000
0001
1000
0100
0010
,
0001
0000
0001
0000
0001
0000
1000
0100
0010
0000
0001
0000
1000
0000
0100
0000
,
0010
0001
0000
1000
,
0000
0100
0000
0010
,
0110
0000
1000
0100
0010
0000
0010
0001
,
1000
0000
0100
1000
0001
0000
0001
0100
,
0010
0000
1000
0100
0001
0000
1100
0000
,
0101
1010
1001
0110
,
0011
0000
0001
0100
1000
0000
0010
1000
,
0001
0000
0001
0100
0010
0000
0001
1000
,
0100
0000
0001
1000
0010
0000
0001
0010
,
0001
1000
0001
0100
0001
0000
0000
0000
;
