#TITLE:F8;
#SUBTITLE:;
#ARTIST:Auston Montville;
#TITLETRANSLIT:;
#SUBTITLETRANSLIT:;
#ARTISTTRANSLIT:;
#CREDIT:;
#BANNER:F8BAN.png;
#BACKGROUND:F8BGF.png;
#LYRICSPATH:;
#CDTITLE:;
#MUSIC:F8.mp3;
#OFFSET:0.000;
#SAMPLESTART:32.000;
#SAMPLELENGTH:10.000;
#SELECTABLE:YES;
#BPMS:0.000=150.000;
#STOPS:;
#BGCHANGES:;
// cache tags:
#FIRSTBEAT:0.000;
#LASTBEAT:272.000;
#SONGFILENAME:Songs/StepMix 1/F8/F8.sm;
#HASMUSIC:1;
#HASBANNER:1;
#MUSICLENGTH:110.845;
// end cache tags

//---------------dance-single - ----------------
#NOTES:
     dance-single:
     :
     Hard:
     8:
     0.664,0.674,0.839,0.586,0.343,357.000,93.000,65.000,0.000,2.000:
1001
0001
1000
0001
,
0110
0100
0010
0100
,
1001
0001
1000
0001
,
0110
0000
0100
0000
0010
0000
0100
0001
,
1001
1010
0010
0101
,
0010
0110
0100
1001
,
0010
1001
0100
1001
,
0010
0000
1001
0000
0100
0000
1001
1001
,
1001
0010
1000
0001
1000
0100
1001
0000
,
0001
0100
1000
0100
0001
0010
0110
0000
,
0001
0100
0010
0100
1000
0100
1001
0000
,
0001
0010
0100
0010
1000
0010
0110
0010
,
1001
0000
0000
0100
0000
0000
0100
0000
1000
0000
0000
0100
0000
0000
0100
0000
,
0010
0000
0000
0100
0000
0000
0100
0000
0001
0000
0000
0100
0000
0000
0100
0000
,
1000
0000
0000
0010
0000
0000
0001
0000
0010
0000
0000
1000
0000
0000
0100
0000
,
0001
0000
0000
0100
0000
0000
1000
0000
0001
0000
0000
0100
0000
0000
0010
1000
,
0010
0000
0000
1000
0000
0000
0010
0000
0100
0000
0000
0001
0000
0000
0010
0000
,
0100
0000
0000
1000
0000
0000
1000
0000
0001
0000
0000
0010
0000
0000
0010
0000
,
0100
0000
0000
1000
0000
0000
1000
0000
0001
0000
0000
0100
0000
0000
0100
0000
,
0010
0000
0000
0001
0000
0000
0001
0000
1000
0000
0000
0001
0000
0000
1000
0001
,
1000
0000
0000
1000
0000
0000
0100
0000
0020
0000
0000
0000
0032
0000
0000
0000
,
0103
0000
0000
0100
0000
0000
0010
0000
2000
0000
0000
0000
3002
0000
0000
0000
,
0013
0000
0000
0010
0000
0000
0100
0000
0002
0000
0000
0000
2003
0000
0000
0000
,
3100
0000
0000
0100
0000
0000
0010
0000
2001
0000
0000
0000
3102
0000
0000
0000
,
0023
0000
0000
0200
0000
0300
0001
0030
2200
0000
0000
0300
0020
0000
0000
3030
,
0200
0000
0000
0002
0000
0003
0010
0300
0200
0000
0000
0000
0020
0000
0000
0330
,
2000
0000
0000
0002
0000
0003
0100
3000
0020
0000
0000
0000
2000
0000
0000
3030
,
0001
0000
0000
0010
0000
0000
0100
0000
1000
0000
0000
0000
0010
0000
0000
0000
,
0010
0000
0000
0010
0000
0000
0100
0000
2000
0000
0000
0000
3200
0000
0000
0000
,
0301
0000
0000
0010
0000
0000
1000
0000
0020
0000
0000
0000
0032
0000
0000
0000
,
0103
0000
0000
1000
0000
0000
0100
0000
0002
0000
0000
0000
0203
0000
0000
0000
,
1300
0000
0000
0010
0000
0000
0001
0000
2001
0000
0000
3000
1002
0000
0000
0003
,
0020
0000
0000
0200
0000
0300
1000
0030
0020
0000
0000
0000
0200
0000
0000
0330
,
2000
0000
0000
0020
0000
0030
0001
3000
0200
0000
0000
0000
2000
0000
0000
3300
,
0020
0000
0000
0002
0000
0003
0100
0030
2000
0000
0000
0000
0020
0000
0000
0030
,
3100
0000
0000
1000
0000
0000
0001
0000
0110
0000
0000
0000
2002
0000
0000
0000
,
3103
0000
0000
0100
0000
0000
0010
0000
0000
0100
0000
0000
0000
0110
0000
0000
,
1001
0000
0000
0100
0000
0000
0010
0000
0000
0100
0000
0000
0000
0010
0000
0000
,
0110
0000
0000
1000
0000
0000
0100
0000
0000
0001
0000
0000
0000
0101
0000
0000
,
1100
0000
0000
0001
0000
0000
0100
0000
0000
1000
0000
0000
0000
0100
0000
0000
,
1001
0000
0000
0010
0000
0000
0010
0000
0000
0010
0000
0000
0000
0110
0000
0000
,
1001
0000
0000
0100
0000
0000
0100
0000
0000
0100
0000
0000
0000
0010
0000
0000
,
1010
0000
0000
0100
0000
0000
0001
0000
0000
0100
0000
0000
0000
1001
0000
0000
,
0101
0000
0000
0100
0000
0000
1000
0000
0000
0100
0000
0000
0000
0010
0000
0000
,
1001
0000
0011
0000
0000
0001
1100
0000
,
1000
0000
1010
0000
0000
1000
0101
0000
,
0001
0000
1001
0000
0000
1000
0110
0000
,
0010
0000
0100
0000
0010
0000
0100
0010
,
0100
0000
1001
0000
0000
0001
0110
0000
,
1000
0000
1010
0000
0000
0010
0101
0000
,
0100
0000
1100
0000
0000
1000
0011
0000
,
0010
0000
0001
0000
0010
0000
0001
0000
0010
0000
0001
1000
0000
0001
0100
0000
,
1001
0000
0000
1001
0000
0000
1001
0000
0020
0000
0000
0000
0200
0000
0330
0000
,
1001
0000
0000
1001
0000
0000
1001
0000
0200
0000
0000
0000
0020
0000
0330
0000
,
1001
0000
0000
0011
0000
0000
0101
0000
0200
0000
0000
0000
0020
0000
0330
0000
,
1010
0000
0000
1001
0000
0000
1100
0000
0001
0000
0010
0000
0010
0000
0001
0000
,
1001
0000
0000
1001
0000
0000
1001
0000
0200
0000
0000
0000
0020
0000
0330
0000
,
1001
0000
0000
1001
0000
0000
1001
0000
0020
0000
0000
0000
0200
0000
0330
0000
,
1001
0000
0000
0110
0000
0000
1001
0000
0200
0000
0000
0000
0020
0000
0330
0000
,
0110
0000
0000
1001
0000
0000
0110
0000
1000
0000
0100
0000
0100
0000
1000
0000
,
0012
0000
0000
1000
0000
0000
0100
0000
1000
0000
0003
0000
1002
0000
0003
0000
,
2010
0000
0000
0001
0000
0000
0100
0000
0010
0000
0000
0000
0001
0000
3000
0000
,
1200
0000
0000
0010
0000
0000
0001
0000
0010
0000
0300
0000
0120
0000
0030
0000
,
0011
0000
0000
1001
0000
0000
1100
0000
1010
0000
0000
0000
1001
0000
0000
0000
,
1020
0000
0000
0100
0000
0000
0001
0000
0100
0000
0030
0000
0210
0000
0300
0000
,
2010
0000
0000
0100
0000
0000
0010
0000
0100
0000
0000
0000
0010
0000
3000
0000
,
0102
0000
0000
0010
0000
0000
0100
0000
0010
0000
0003
0000
1002
0000
0003
0000
,
1001
0000
0000
1001
0000
0000
1001
0000
0010
0000
0100
0000
0100
0000
1000
0000
;

//---------------dance-single - ----------------
#NOTES:
     dance-single:
     :
     Medium:
     6:
     0.464,0.520,0.505,0.072,0.113,296.000,56.000,8.000,0.000,0.000:
1000
0010
0100
0001
,
1000
0010
0100
0001
,
0010
0100
1000
0001
,
0010
0000
0100
0000
1000
0000
0001
0001
,
1001
0010
0100
1000
,
1001
0100
0010
0001
,
0110
0001
1000
0100
,
0110
1000
0001
0010
,
1001
1000
0001
1000
,
0110
0100
0010
0100
,
1001
0001
1000
0001
,
0110
0010
0100
0010
,
0010
0000
0000
0010
0000
0000
0010
0000
0001
0000
0000
0001
0000
0000
0001
0000
,
0100
0000
0000
0100
0000
0000
0100
0000
1000
0000
0000
1000
0000
0000
1000
0000
,
0010
0000
0000
0010
0000
0000
0010
0000
0100
0000
0000
0100
0000
0000
0100
0000
,
0001
0000
0000
0001
0000
0000
0001
0000
1000
0000
0000
1000
0000
0000
1000
0000
,
1001
0000
0000
0010
0000
0000
0010
0000
0100
0000
0000
0010
0000
0000
0010
0000
,
0001
0000
0000
0100
0000
0000
0100
0000
1000
0000
0000
0100
0000
0000
0100
0000
,
0010
0000
0000
0001
0000
0000
0001
0000
0100
0000
0000
1000
0000
0000
1000
0000
,
0010
0000
0000
0100
0000
0000
0100
0000
0100
0000
0000
0010
0000
0000
0010
0000
,
1000
0101
1000
0101
,
0010
1100
0010
1100
,
0001
1010
0001
1010
,
0100
0011
0100
0011
,
0100
1001
0010
1001
,
0100
1001
0010
1001
,
0001
0110
1000
0110
,
0001
0000
0000
0010
0000
0000
1000
0000
0010
0000
0000
0000
0100
0000
0000
0000
,
1000
1001
0010
1001
,
0001
1001
0100
1001
,
0001
1100
1000
0101
,
0001
1100
1000
0101
,
1000
1001
0010
1001
,
0001
1001
0100
1001
,
1000
0101
0001
1100
,
1000
0000
0000
0001
0000
0000
0001
0000
0001
0000
0000
0000
1000
0000
0000
0000
,
2000
0000
0000
3010
,
0002
0000
0000
0000
,
2003
0000
0000
3100
,
0002
0000
0000
0000
,
0023
0000
0000
0130
,
0200
0000
0000
0000
,
2300
0000
0000
3100
,
0002
0000
0000
0000
,
1003
1001
0000
1001
,
0010
0011
0000
0011
,
0100
0101
0000
0101
,
0010
0100
0010
0100
,
0010
0011
0000
0011
,
0010
1010
0000
1010
,
0100
1100
0000
1100
,
0100
0101
0100
0101
,
1000
0100
1000
0000
1000
0100
1000
0000
,
0001
0100
0001
0000
0001
0100
0001
0000
,
1000
0010
1000
0000
1000
0010
1000
0000
,
0001
0010
0001
0000
0000
1000
0001
0000
,
1000
0100
0001
0000
1000
0100
0001
0000
,
0001
0100
1000
0000
0001
0100
1000
0000
,
1000
0100
0001
0000
1000
0100
0001
0000
,
1001
0000
1001
0000
1001
0000
1001
1001
,
1000
0100
1000
0000
0001
0100
0001
0000
,
1000
0010
1000
0000
0001
0010
0001
0000
,
1000
0100
0001
0000
0001
0100
1000
0000
,
1000
0100
0001
0000
0001
0100
1000
0000
,
1000
0000
0000
1000
0000
0000
1000
0000
0001
0000
0000
0001
0000
0000
0001
0000
,
0010
0000
0000
0010
0000
0000
0010
0000
0100
0000
0000
0100
0000
0000
0100
0000
,
0001
0000
0000
1000
0000
0000
1000
0000
0001
0000
0000
1000
0000
0000
1000
0000
,
0001
0000
0000
0100
0000
0000
0100
0000
1000
0000
0001
0000
0001
0000
1000
0000
;

//---------------dance-single - ----------------
#NOTES:
     dance-single:
     :
     Easy:
     3:
     0.305,0.337,0.153,0.180,0.000,200.000,17.000,20.000,0.000,0.000:
1000
1000
1000
1000
,
0001
0001
0001
0001
,
1000
1000
1000
1000
,
0001
0001
0001
0001
,
1000
0001
1000
0001
,
0001
1000
0001
1000
,
1000
0001
1000
0001
,
0001
1000
0001
1000
,
0010
0100
0010
0100
,
0100
0010
0100
0010
,
0010
0100
0010
0100
,
0100
0010
0100
0010
,
0110
0000
1000
0000
,
0010
0000
0100
0000
,
0001
0000
1000
0000
,
0010
0000
0100
0000
,
0001
0000
1000
0000
,
0010
0000
0100
0000
,
0001
0000
0010
0000
,
0100
0000
1000
0000
,
1000
0001
1000
0001
,
1000
0001
1000
0001
,
0010
0100
0010
0100
,
0010
0100
0010
0100
,
1000
0001
1000
0001
,
1000
0001
1000
0001
,
0100
0010
0100
0010
,
0200
0000
0000
0000
,
1300
0001
1000
0001
,
0001
1000
0001
1000
,
0010
0100
0010
0100
,
0100
0010
0100
0010
,
0001
0001
1000
1000
,
1000
1000
0001
0001
,
0010
0010
0100
0100
,
0200
0000
0000
0000
,
2300
0000
0000
0000
,
3200
0000
0000
0000
,
0320
0000
0000
0000
,
0032
0000
0000
0000
,
0023
0000
0000
0000
,
0230
0000
0000
0000
,
2300
0000
0000
0000
,
3020
0000
0000
0000
,
0030
1000
0000
1001
,
0000
0100
0000
0110
,
0000
0001
0000
1001
,
0000
0010
0000
0110
,
0000
1001
0000
1001
,
0000
0110
0000
0110
,
0000
1001
0000
1001
,
0000
0110
0000
0110
,
1000
1000
1000
1000
,
0001
0001
0001
0001
,
0010
0010
0010
0010
,
0100
0100
0100
0100
,
1000
0010
0100
0001
,
1000
0010
0100
0001
,
0001
0010
0100
1000
,
0001
0010
0100
1000
,
2000
0010
0010
0010
,
3002
0010
0010
0010
,
2003
0001
0001
0001
,
3002
1000
1000
1000
,
2003
0000
3000
0110
,
0220
0000
0000
0330
,
0002
0000
0003
0110
,
0220
0000
0000
0000
,
0330
0000
0000
0000
;
