#TITLE:Onegai Teacher;
#SUBTITLE:- Shooting Star;
#ARTIST:Kotoko;
#TITLETRANSLIT:;
#SUBTITLETRANSLIT:;
#ARTISTTRANSLIT:;
#CREDIT:Anime Toshokan;
#BANNER:Onegai Teacher - Shooting Star.png;
#BACKGROUND:Onegai Teacher - Shooting Star bg.png;
#LYRICSPATH:;
#CDTITLE:dejiko.png;
#MUSIC:Onegai Teacher - Shooting Star.mp3;
#OFFSET:-0.509;
#SAMPLESTART:67.660;
#SAMPLELENGTH:15.400;
#SELECTABLE:YES;
#BPMS:0.000=125.000;
#STOPS:;
#BGCHANGES:43.000=Onegai Teacher - Shooting Star.avi=1.000=0=0=1,
198.250=Onegai Teacher - Shooting Star bg.png=1.000=0=0=1,
99999=-nosongbg-=1.000=0=0=0 // don't automatically add -songbackground-
;
// cache tags:
#FIRSTBEAT:8.000;
#LASTBEAT:200.000;
#SONGFILENAME:Songs/DDR Anime 5th Mix/Onegai Teacher - Shooting Star/Onegai Teacher - Shooting Star.sm;
#HASMUSIC:1;
#HASBANNER:1;
#MUSICLENGTH:102.538;
// end cache tags

//---------------dance-single - BASIC----------------
#NOTES:
     dance-single:
     BASIC:
     Easy:
     3:
     0.255,0.317,0.185,0.176,0.000,146.000,19.000,18.000,0.000,0.000:
0000
0000
0000
0000
,
0000
0000
0000
0000
,
1001
0000
0000
0000
,
0100
0000
0000
0000
,
0010
0000
0000
0000
,
0001
0000
0000
0000
,
1001
0000
1000
0000
,
0001
0000
0010
0000
,
0100
0000
1000
0000
,
0220
0000
0000
0330
,
1000
0100
1000
0100
,
0001
0010
0001
0010
,
1000
0010
0100
0001
,
0010
0100
1000
0001
,
1001
1000
0100
0001
,
1000
0010
0001
0100
,
1000
0001
0010
1000
,
0100
0010
0001
0100
,
1001
0001
0100
1000
,
0100
0010
0100
1000
,
1000
0010
0100
0100
,
0010
0001
0100
0010
,
1000
0100
1000
0010
,
0001
0100
1000
0001
,
2000
0100
0001
3100
,
0002
0100
0010
0103
,
1001
0000
1000
0100
,
0010
0000
0001
0100
,
0010
0000
0010
0100
,
0001
1000
0100
0010
,
1001
0000
0001
0010
,
1000
0000
1000
0100
,
0011
0000
1010
0000
,
1001
0000
0000
0000
0000
0010
0000
0220
,
0000
0000
0330
1001
,
1000
0100
0002
0003
,
1000
0100
0020
0030
,
1000
0100
0001
0010
,
1010
1100
2002
3003
,
0001
0100
2000
3000
,
0001
0100
0020
0030
,
1000
0010
0010
0100
,
0001
0100
1000
0100
,
2002
0000
0000
3003
,
0001
0100
0010
0010
,
2002
0000
0000
3003
,
0220
0000
0000
0330
,
1000
0010
0001
0010
,
1000
0010
0100
0001
,
1000
0000
0000
0010
0000
0000
0010
0000
,
1001
0000
0000
0000
;

//---------------dance-single - ANOTHER----------------
#NOTES:
     dance-single:
     ANOTHER:
     Medium:
     6:
     0.394,0.390,0.068,0.059,0.024,270.000,7.000,6.000,0.000,0.000:
0000
0000
0000
0000
,
0000
0000
0000
0000
,
1000
0100
0001
0100
0000
1000
0000
0100
,
0000
0001
0100
1000
0000
0001
0000
0100
,
0000
1000
0100
0001
0000
0100
0000
1000
,
0100
0001
0010
0100
1000
0010
0100
0001
,
1000
0100
1000
0001
,
0100
0001
0010
0100
,
0010
1000
0100
0010
,
0001
0000
0000
0100
0000
0000
0001
0000
0000
0000
0010
0000
0000
0100
0000
0000
,
1001
0000
1000
0000
0100
0001
0100
0000
,
1000
0000
0001
0000
0100
1000
0100
0000
,
0001
0000
0100
0000
0010
0100
1000
0000
,
1000
0000
0100
0000
0010
0100
0001
0000
,
1001
0000
0100
0000
1000
0100
0010
0100
,
1000
0000
0100
0000
0001
0100
0010
0100
,
0001
0000
1000
0100
0010
0000
0001
0100
,
1000
0100
0001
0010
1000
0010
0001
0000
,
1001
0000
0100
0000
1000
0100
0010
0000
,
0001
0000
0100
0000
0010
1000
0100
0000
,
0001
0000
0010
0000
1000
0100
0001
0000
,
1000
0000
0010
0000
0001
0100
1000
0000
,
0001
0000
0100
0000
1000
0100
1000
0010
,
0001
0000
0100
0000
0001
0100
0001
0010
,
1000
0000
0100
0000
0001
0100
0010
0000
,
1000
0100
0010
0001
0010
0100
0010
0001
,
1000
0000
0100
0000
0010
0000
0001
0100
,
1000
0000
0100
0000
0010
0000
0001
0100
,
1000
0000
0100
0000
0010
0000
0001
0100
,
1000
0000
0100
0001
0010
0000
1000
0010
,
0001
0000
0001
0010
1000
0000
1000
0100
,
0001
0000
0001
0100
1000
0000
1001
0000
,
0001
0100
0010
1000
0100
0010
0001
0100
,
0010
0000
0110
0000
0001
0100
0010
0100
,
0001
0000
0000
1000
0000
0000
0001
0000
0000
0000
0000
0000
0110
0000
0000
0000
,
1000
0100
0010
0100
1000
0100
0001
0000
,
0001
0100
0010
0100
0001
0100
1000
0000
,
1000
0010
0100
0001
0010
1000
0010
0001
,
2000
3002
2003
3002
,
0013
0100
1000
0001
0100
0010
1000
0000
,
0001
0010
0001
0100
1000
0010
1000
0000
,
0100
0001
0010
0001
0100
0010
1000
0100
,
0010
0100
1000
0001
0100
0000
1001
0000
,
1000
0100
0010
0000
0001
0100
0010
0000
,
0100
0010
0001
0100
0010
1000
0010
0100
,
0002
0000
0000
0000
0000
0000
0000
1000
,
2000
0000
0000
0000
0000
3003
0000
0000
,
1000
0100
0010
0001
0000
0010
0000
0100
,
0000
1000
0100
0001
0000
0010
0000
0100
,
1000
0000
0000
0100
0000
0000
0001
0000
0000
0100
0000
0000
1000
0000
0100
0000
,
0001
0000
0000
0000
;

//---------------dance-single - MANIAC----------------
#NOTES:
     dance-single:
     MANIAC:
     Hard:
     8:
     0.456,0.463,0.137,0.107,0.112,302.000,14.000,11.000,0.000,0.000:
0000
0000
0000
0000
,
0000
0000
0000
0000
,
0001
0100
0010
1000
0000
0010
0000
0100
,
0000
0001
0100
0010
0000
0100
0000
0001
,
0000
1000
0001
0010
0000
0100
0000
1000
,
0010
0100
0001
0010
0100
1000
0001
1000
,
1001
0001
1000
0010
,
0100
0001
1000
0100
,
0010
0000
0000
0000
0001
0000
0000
0000
1000
0000
0000
0000
0001
0000
0010
0100
,
1000
0000
0001
1000
0000
0001
1000
0000
0000
0000
0001
0000
1000
0001
0000
0000
,
1000
0000
0001
0000
1000
0100
1000
0010
,
0100
0001
0010
0100
1000
0000
1001
0000
,
1000
0000
0001
0100
1000
0000
0001
0000
,
1000
0010
0100
0001
0010
0100
1000
0001
,
0100
0010
1000
0000
1000
0100
0010
0100
,
1000
0001
0010
0000
0100
1000
0010
0100
,
0001
0100
0010
0000
1000
0100
0010
0001
,
0100
1000
0100
0001
0010
0100
1000
0000
,
1001
0000
0100
0000
0010
0100
0001
0100
,
0010
1000
0100
0001
0100
0000
1000
0100
,
0010
0100
0001
0100
0010
0100
1000
0000
,
0001
0100
0010
1000
0100
0010
0001
0000
,
1000
0100
1000
0010
1000
0100
1000
0000
,
0001
0100
0001
0010
0001
0100
0001
0000
,
1000
0100
0010
0000
0001
0100
0010
0000
,
0100
1000
0010
0100
0010
1000
0100
1000
,
1001
0000
0001
0100
0010
0100
0001
1000
,
0010
0100
0001
0100
1000
0100
0001
0000
,
0100
0010
1000
0100
0010
0001
0100
0001
,
1000
0010
1000
0100
0001
0100
1000
0000
,
0001
0010
0100
1000
0010
0100
1000
0100
,
0001
0010
0001
0010
1000
0010
0001
0000
,
2000
0000
0000
3100
0000
0000
0001
0000
0020
0000
0000
0031
0000
0000
0100
0000
,
2000
0000
0000
0000
0000
0001
0001
3001
,
1000
0000
0100
1000
0000
0100
1000
0000
0000
0000
0000
0000
1001
0000
0000
0000
,
0100
0000
0000
0010
0100
0000
0001
0000
2000
0000
0000
0000
3000
0000
0100
0000
,
1000
0000
0000
0100
0010
0000
0001
0000
0200
0000
0000
0000
0300
0000
0010
0000
,
0001
0000
0000
0010
1000
0000
0100
0000
0010
0000
0001
0000
0010
0000
0100
0000
,
1000
0000
0000
1000
0100
0000
0000
0100
0001
0000
0000
0001
0100
0000
1000
0000
,
0100
0000
0000
0010
0001
0000
0100
0000
0002
0000
0000
0000
0003
0000
0010
0000
,
1000
0000
0000
0010
0001
0000
0100
0000
2000
0000
0000
0000
3000
0000
0100
0000
,
0010
0000
0000
0100
0000
0000
1000
0000
0100
0000
0000
0001
0000
0000
0100
0000
,
0010
0000
0000
0010
0100
0000
0000
0100
0001
0000
0000
0001
1000
0000
0100
0000
,
0010
0000
0100
0000
0010
0000
1000
0100
,
0010
0001
0010
0100
1000
0010
0100
0001
,
0220
0000
0000
0000
0000
0000
0330
0100
,
2002
0000
0000
3003
,
1000
0100
0010
0001
0000
1000
0000
0001
,
0000
0100
1000
0010
0000
0001
0000
0100
,
1010
0000
0000
1100
0000
0000
0101
0000
0000
0011
0000
0000
1001
0000
1100
0000
,
0101
0000
0000
0000
;

//---------------dance-single - CHALLENGE----------------
#NOTES:
     dance-single:
     CHALLENGE:
     Challenge:
     9:
     0.542,0.536,0.497,0.020,0.210,336.000,51.000,2.000,0.000,0.000:
0000
0000
0000
0000
,
0000
0000
0000
0000
,
1000
0100
0001
0010
0000
0001
0000
0100
,
0000
1000
0010
0001
0000
0010
0000
1000
,
0000
0100
0010
0001
0000
0100
0000
1000
,
0010
0100
1000
0100
0010
0100
0001
0010
,
1001
1000
0100
0010
,
0001
0000
1000
0001
0010
0100
0001
0100
,
1000
0000
0100
0000
0010
0000
0001
0000
0100
0000
0010
0000
0000
0000
0010
1000
,
0100
0000
0010
0100
0000
0001
0100
0000
0000
0000
1000
0000
0100
1000
0000
0000
,
1001
0000
0010
0100
0001
1000
0010
0000
,
0110
0000
0010
0100
0001
0010
0100
0000
,
1010
0000
0100
0010
0001
1000
0100
0000
,
0101
0000
0010
0100
0001
1000
0010
0000
,
1100
0000
0100
0001
0010
0100
1000
0000
,
0011
0000
0010
1000
0010
0100
0001
0000
,
1001
0000
1000
0100
0010
0100
1000
0000
,
0001
0100
0000
0001
0100
0000
1000
0100
1000
0100
0000
0010
0001
0000
0000
0000
,
1001
0000
0001
0100
0010
1000
0100
0010
,
0001
0100
1000
0100
0001
0010
0100
0000
,
1001
0000
0010
0100
1000
0001
0010
0100
,
1000
0010
0100
0001
0100
1000
0010
0000
,
1001
0000
0100
0000
1000
0000
0001
1000
0000
1000
0000
0001
1000
0000
1000
0000
,
0110
0000
0010
0000
0100
0000
0010
0100
0000
0010
0000
0100
0010
0000
0010
0000
,
1100
0001
1010
0000
0101
1000
0011
0000
,
1001
0000
0100
0000
0010
0000
0000
0100
0010
0100
0000
0001
0010
0000
0010
0000
,
1010
0100
0010
0100
1000
0010
0100
0001
,
0110
1000
0010
0100
0001
0010
0100
1000
,
0011
0100
0010
0001
1010
0010
0100
0001
,
1100
1001
0101
1001
,
1000
0100
0010
0001
0010
0100
1000
0001
,
0100
0010
1000
0010
0100
0001
1000
0100
,
1010
0000
0000
1001
0000
0000
1100
0000
0101
0000
0000
1100
0000
0000
1001
0000
,
0220
0000
0000
0000
0330
1000
0100
1001
,
1000
0000
0001
1000
0000
0010
0100
0000
0000
0000
0000
0000
1001
0000
0000
0000
,
1001
0000
0000
0100
0010
0000
0100
0000
1000
0000
0000
0000
0010
0000
0000
0000
,
1001
0000
0000
0100
0010
0000
0001
0000
1000
0000
0000
0000
0100
0000
0000
0000
,
0110
0000
0000
0001
1000
0000
0100
0000
0010
0000
0001
0000
0010
0000
0100
0000
,
1000
0100
1000
0000
0001
0100
0001
0000
1000
0010
1000
0000
0001
0010
0001
0000
,
1001
0000
0000
1000
0100
0000
0010
0000
0001
0000
0000
0000
0100
0000
0000
0000
,
0110
0000
0000
0001
1000
0000
0100
0000
0010
0000
0000
0000
0100
0000
0000
0000
,
1001
0000
0000
1000
0010
0000
0000
0010
0001
0000
0000
0001
0010
0000
0000
0010
,
1000
0100
0010
0001
0010
0100
1000
0100
,
1001
0000
1000
0100
0010
0001
1001
0000
,
0100
0010
1000
0010
0100
0001
1001
0000
,
0010
0100
1000
0100
0001
0100
1001
1000
,
0001
1000
0000
0001
1000
0000
0010
1000
0000
0001
0100
0000
0001
1000
0001
1000
,
0100
0010
0001
0100
0000
0001
0000
0010
,
0000
0100
1000
0010
0000
0001
0010
0100
,
1010
0000
0000
1100
0000
0000
0101
0000
0000
0011
0000
0000
1001
0000
0110
0000
,
1001
0000
0000
0000
;

//---------------dance-single - BEGINNER----------------
#NOTES:
     dance-single:
     BEGINNER:
     Beginner:
     2:
     0.166,0.244,0.176,0.137,0.000,87.000,18.000,14.000,0.000,0.000:
0000
0000
0000
0000
,
0000
0000
0000
0000
,
1001
0000
0000
0000
,
0100
0000
0000
0000
,
0010
0000
0000
0000
,
0001
0000
0000
0000
,
1001
0000
1000
0000
,
0001
0000
0010
0000
,
0100
0000
1000
0000
,
0220
0000
0330
0000
,
1000
0000
1000
0000
,
0001
0000
0001
0000
,
1000
0000
0100
0000
,
0010
0000
1000
0000
,
1001
0000
0100
0000
,
1000
0000
0001
0000
,
1000
0000
0010
0000
,
0100
0000
0001
0000
,
1001
0000
0100
0000
,
0100
0000
0100
0000
,
1000
0000
0100
0000
,
0010
0000
0100
0000
,
1000
0000
1000
0000
,
0001
0000
1000
0000
,
1000
0000
0001
0000
,
0001
0000
0010
0000
,
1001
0000
1000
0000
,
0010
0000
0001
0000
,
0010
0000
0010
0000
,
0001
0000
0100
0000
,
1001
0000
0001
0000
,
1000
0000
1000
0000
,
0011
0000
1010
0000
,
1001
0000
0000
0000
,
0110
0000
0000
0000
,
1001
0000
0002
0003
,
1000
0000
0020
0030
,
1000
0000
0001
0000
,
1010
0000
2002
3003
,
0001
0000
2000
3000
,
0001
0000
0020
0030
,
1000
0000
0010
0000
,
0001
0000
1000
0000
,
2002
0000
0000
3003
,
0001
0000
0010
0000
,
2002
0000
3003
0000
,
0220
0000
0330
0000
,
1000
0000
0001
0000
,
1000
0000
0100
0000
,
1000
0000
0010
0000
,
1001
0000
0000
0000
;
