#TITLE:The Error Song -System Mix-;
#SUBTITLE:;
#ARTIST:DJ Synthwulf;
#TITLETRANSLIT:;
#SUBTITLETRANSLIT:;
#ARTISTTRANSLIT:;
#CREDIT:;
#BANNER:error2.png;
#BACKGROUND:error2-BG.png;
#LYRICSPATH:;
#CDTITLE:;
#MUSIC:error2.mp3;
#OFFSET:-0.020;
#SAMPLESTART:32.429;
#SAMPLELENGTH:12.000;
#SELECTABLE:YES;
#BPMS:0.000=92.500,74.000=46.240,86.000=92.500;
#STOPS:;
#BGCHANGES:;
// cache tags:
#FIRSTBEAT:0.000;
#LASTBEAT:152.000;
#SONGFILENAME:Songs/StepMix 1.0/The Error Song -System Mix-/error2.sm;
#HASMUSIC:1;
#HASBANNER:1;
#MUSICLENGTH:106.322;
// end cache tags

//---------------dance-single - E. Holniker----------------
#NOTES:
     dance-single:
     E. Holniker:
     Challenge:
     10:
     0.646,0.892,0.282,0.498,0.762,397.000,30.000,53.000,272.000,1.000:

0000
0000
0000
0000
0000
0000
0000
0000
2000
0000
0000
3020
0000
0000
0002
0030
,
2000
0003
0000
0020
3000
0000
0002
0030
0200
0000
0003
0320
0000
0000
0200
0030
,
2000
0000
0300
3020
0000
0000
0032
0000
0020
0000
0003
1030
0000
0000
M2MM
0000
,
0020
0000
0300
1030
0000
0000
MMM2
0000
2000
0000
0003
3010
0000
0000
MMM2
0000
,
0200
0000
0003
0310
0000
0000
MM2M
0000
0200
0000
0030
M31M
0000
0000
MMM2
MMM0
,
2000
0000
0003
3MM1
0000
0000
MM2M
MM0M
0200
0000
0030
M3M1
0000
0000
MMM2
MMM0
,
2000
0000
0003
31MM
0000
0000
MMM2
MMM0
0020
0000
0003
1M3M
0000
0000
M2MM
M0MM
,
0010
0000
0300
M01M
0000
0100
MMMM
1MMM
0100
0000
0000
MM11
0000
0010
MMMM
M1MM
,
1000
0000
0000
M1MM
0000
0010
MMMM
1MMM
0100
0010
0001
0010
0100
0000
1000
0000
,
0010
0000
M1MM
0000
0001
0000
1MMM
MMMM
0100
0010
0001
0001
0010
1000
0010
0100
,
0010
1000
1MMM
0010
0100
0001
M1MM
MMMM
0010
0000
1000
0100
0010
0000
0001
0000
,
0010
0000
M1MM
0000
1000
0000
MM1M
MMMM
0100
0000
0001
0000
1000
0000
0010
0000
,
1000
0000
0100
0000
1MMM
0000
1000
0000
0001
0000
0100
0000
MM01
0010
M1MM
0000
0100
0000
0000
0000
0010
0000
1000
0000
0100
0000
0000
0000
0010
0000
0000
0000
,
0001
0000
MM1M
0000
0100
0000
1MMM
MMMM
0010
0000
0100
0000
0010
0000
1000
0000
,
0100
1000
01MM
1000
0000
0100
MM1M
MMMM
0001
0000
0010
0100
1000
0000
0010
0000
,
0100
0000
MMM1
0000
1000
0000
MM1M
MMMM
0001
0000
0010
0000
0100
0000
0010
0000
,
1000
0000
1000
0000
0100
0000
0010
0000
0001
0000
0010
0000
0100
1000
0010
0000
0100
0000
0000
0000
0001
0000
0100
0000
0020
0000
0000
0000
2030
0000
0000
0000
,
3200
0320
0032
2003
3020
0230
0302
2003
,
3200
0000
0000
0000
0302
0000
0000
0000
2003
0000
0000
0000
3100
0000
0000
0000
2020
0030
0001
3010
0100
0000
0010
0000
1000
0000
0100
0000
0010
0000
0001
0000
,
0022
0030
0100
1003
0010
0000
0100
0000
0001
0000
1000
0000
0100
0000
0010
0000
2002
0003
3010
0100
0001
0000
0001
0000
0100
0000
0010
0000
1000
0000
0100
0000
,
2020
0030
0001
3010
0100
0000
1000
0000
0010
0100
0010
0100
0010
1000
0100
1000
0100
0010
0100
0001
0010
1000
0010
0100
0010
0001
0010
1000
0100
0010
0001
0010
,
1000
0010
1000
0010
1000
0010
1000
0010
4M00
0M4M
0M0M
0M0M
0M0M
0M0M
0M0M
303M
1000
0000
0000
0000
0001
0000
0100
0000
0010
0000
1000
0000
0100
0000
0000
0000
,
1100
0000
0001
0010
0100
0010
0100
1000
1010
0000
MMM1
0100
0010
0100
M1MM
MMMM
,
1100
0000
0001
0010
0100
0010
0100
0100
1010
0000
0001
0100
0010
1000
0100
0010
,
0011
0000
0100
1000
0010
0100
MMM1
0100
0110
0000
0100
1000
1100
0000
MMM1
0010
,
0011
0000
0010
0100
0100
1000
0100
1000
0011
0000
0100
1000
0010
0000
M1MM
0001
,
0101
0000
0010
1000
0100
0000
0110
0001
0011
0000
0100
1000
0010
0000
1010
0001
,
0101
0000
MM1M
0000
1000
0100
MM1M
MMMM
0001
1000
0010
0100
0100
0000
MM1M
0000
,
1010
0000
MMM1
0000
0101
0000
MM1M
MMMM
1100
0000
0100
0000
0110
0000
0001
0000
,
1001
0000
0010
0000
1010
0000
MMM1
0000
0100
0000
0100
1000
0001
0000
0010
0000
,
0100
1000
0010
1M1M
0110
0010
1000
0100
,
0010
0000
0001
0000
0010
0000
M1MM
0000
1000
0000
MM1M
1000
0010
0000
M1MM
MMMM
,
0001
0000
1000
0000
0100
0000
0010
0000
0001
0000
1MMM
0000
0010
0000
M1MM
MMMM
,
1000
0001
0010
0100
0001
0100
1000
0100
0010
0000
MMM1
0100
0010
0000
1MMM
MMMM
,
0100
0000
0010
0000
0001
0000
1MMM
0010
1000
1000
MMM1
0000
0100
0000
MM1M
MMMM
,
1000
1000
0100
0000
0010
0001
0010
0100
1000
0000
0010
0100
0001
0000
0100
0010
,
0100
0000
M11M
0000
1000
0100
MM1M
MMM1
0010
0000
0100
0000
1000
0000
0010
0000
,
1000
0000
MMM1
0000
1000
1000
MMM1
MMMM
2002
0000
0000
0000
0010
0000
0000
3003
;

//---------------dance-single - E. Holniker----------------
#NOTES:
     dance-single:
     E. Holniker:
     Hard:
     7:
     0.449,0.554,0.141,0.132,0.315,305.000,15.000,14.000,159.000,2.000:





0000
0000
0000
0000
0000
0000
0000
0000
1000
0000
0000
0010
0000
0000
0100
0000
,
0001
0000
0000
1000
0000
0000
0010
0000
0100
0000
0000
1000
0000
0000
0010
0000
,
0100
0000
0000
0001
0000
0000
0100
0000
0010
0000
0000
1000
0000
0000
M1MM
0000
,
0010
0000
0000
0100
0000
0000
1MMM
0000
0001
0000
0000
0100
0000
0000
MM1M
0000
,
1000
0000
0000
0100
0000
0000
MM1M
0000
0001
0000
0000
0010
0000
0000
M1MM
0000
,
1000
0000
0000
0010
0000
0000
MMM1
0000
1000
0000
0000
0010
0000
0000
M1MM
0000
,
1000
0000
0000
0001
0000
0000
M1MM
0000
0010
0000
1000
0000
1000
0000
MMM1
0000
,
0100
0010
0010
1MMM
0100
0100
0010
MM1M
,
0001
0001
1000
1MMM
1010
0010
0010
0010
,
0110
M1MM
0100
M1MM
0101
0001
0001
0001
,
1010
1MMM
1000
1MMM
1010
0010
0010
0010
,
0101
M1MM
0100
M1MM
1100
0100
0100
0100
,
0011
MM1M
0010
MM1M
1100
1000
1000
1000
,
1010
MM1M
0010
MM1M
0101
0100
0110
0010
,
1010
MM1M
0110
MM1M
0100
0100
1000
1000
,
0001
MMM1
0010
MM1M
0100
0100
1000
1000
,
0010
0000
0010
0000
0100
0000
0100
0000
0002
0000
0000
2000
0003
0000
0200
0000
,
3020
0300
0000
0032
0000
0000
0020
0000
0203
0030
0000
2300
0000
0000
0020
3000
,
0230
0000
0000
0320
0000
0000
0230
0000
1300
0100
1000
0100
1000
0100
1000
0100
,
0001
0100
0001
0100
0001
0100
0001
0100
0010
0100
0010
0100
0010
1000
0010
1000
,
0001
0100
0001
0100
0010
1000
0010
1000
0100
1000
0100
0010
0100
0001
0100
0010
,
0001
1000
0010
0100
0010
1000
0100
0010
0100
0000
1000
0000
0001
0000
1000
0000
,
0010
0100
0010
1000
0100
1MMM
0100
1MMM
,
0001
0100
0001
0100
0010
0100
0010
1000
,
0100
0010
0001
MM1M
0100
1000
0100
1MMM
,
0001
0100
0001
0100
0010
1000
0100
MM1M
,
0001
0010
0100
0010
0100
0010
0100
0010
,
0100
1MMM
0100
1MMM
0001
0100
0010
M1MM
,
0010
1MMM
0100
MM1M
0001
1000
0001
1000
,
0010
0000
1000
0000
0010
0000
1MMM
0000
0001
0000
0010
0100
0000
0000
0100
0010
,
0000
0000
0010
1000
0000
0000
1MMM
0010
0000
0000
0010
0001
0000
0000
0001
0010
,
0000
0000
0010
0100
0000
0000
M1MM
0010
0000
0000
MM1M
0100
0000
0000
M1MM
0001
,
0000
0000
0001
0100
0000
0000
0100
1000
0000
0000
1MMM
0010
0000
0000
MM1M
0100
,
0000
0000
0100
0001
0000
0000
0001
0100
0000
0000
M1MM
0010
0000
0000
MM1M
1000
,
0000
0000
1000
0100
0000
0000
0100
0010
0000
0000
MM1M
0100
0000
0000
M1MM
0010
,
0000
0000
MM1M
0001
0000
0000
0001
1000
0000
0000
1000
0010
0000
0000
MM1M
1000
,
0000
0000
M1MM
0010
0000
0000
MMM1
0000
0100
0000
0010
0000
1000
0000
0100
0000
,
0010
MMM1
1000
MMM1
2002
0000
0000
0000
,
3003
0000
0000
0000
;

//---------------dance-single - E. Holniker----------------
#NOTES:
     dance-single:
     E. Holniker:
     Medium:
     6:
     0.394,0.372,0.132,0.019,0.000,277.000,14.000,2.000,0.000,0.000:





0000
0000
0000
0000
1000
0010
1000
0000
,
0001
0100
0001
0000
0100
0010
0100
0000
,
0010
1000
0010
0000
0100
0001
0100
0000
,
0100
1000
0100
0000
0010
0001
0010
0010
,
0100
0100
1000
1000
0010
0100
0010
0000
,
1000
0100
1000
0000
0001
0001
1000
1000
,
0010
0010
0100
0100
0010
1000
0010
0000
,
0100
0001
0100
0000
0100
1000
1000
0100
,
0100
0010
0010
0001
0001
1000
0001
1000
,
0010
1000
0010
1000
0001
0100
0001
0100
,
0010
0100
0010
0100
1000
0100
1000
0100
,
0001
0100
0001
0100
0010
0100
0010
0100
,
1000
0100
1000
0010
0100
0001
1000
0100
,
0010
0100
0001
0100
0010
0100
1000
0100
,
0010
0100
0001
0100
0010
0001
1000
0001
,
0100
0001
0010
0001
1000
0010
0100
0010
,
0001
0010
0100
0010
1000
0100
0000
0010
,
0001
0000
0010
0100
1000
0000
0010
0100
,
1000
0000
0010
0100
0001
1000
0001
1001
,
1000
0010
0100
1000
0100
1000
0100
0010
,
0001
1000
0010
0100
1000
1000
0001
0001
,
0100
0100
0010
0010
1000
1000
0001
0001
,
0100
0100
0010
0010
0010
1000
1000
0100
,
0010
0001
0010
0100
0100
1000
0010
0100
,
0010
0001
0010
1000
0100
1000
1000
0100
,
0100
0010
0010
0001
0001
1000
0010
1000
,
0001
0100
0001
0100
0010
0010
1000
1000
,
0100
0100
0010
0010
0001
1000
0001
1000
,
0010
1000
0010
1000
0001
0100
0010
1000
,
0100
0010
0001
0010
0100
1000
0000
0010
,
0100
0001
1000
0010
1010
1010
0001
0100
,
0010
0100
0010
0001
0110
0110
0010
1000
,
0100
0010
0100
0010
0101
0101
0010
1000
,
0010
0100
0010
0001
1010
1010
0100
0001
,
1000
0100
0010
0001
0110
0110
1001
1001
,
0100
0100
0010
0010
1000
0100
0010
0000
,
0010
0001
0010
0000
0100
0000
1000
0010
,
0100
0000
0001
0000
2002
3003
0000
0000
;

//---------------dance-single - E. Holniker----------------
#NOTES:
     dance-single:
     E. Holniker:
     Easy:
     5:
     0.258,0.336,0.038,0.019,0.000,186.000,4.000,2.000,0.000,0.000:



1000
0000
1000
0000
,
0010
0000
0100
0000
,
1000
0000
1000
0010
,
0100
0001
1000
0010
,
0100
1000
0010
0100
,
0100
0010
1000
1000
,
0001
0001
0010
0100
,
1000
1000
0010
0001
,
0100
0100
1000
0100
,
1000
0000
0100
0000
1000
0100
1000
0000
,
0001
0100
0001
0000
0010
0000
0100
0000
,
1000
0000
0010
0000
0100
0010
0100
0000
,
0001
1000
0001
0000
0010
0000
1000
0000
,
0100
0000
0010
0000
1000
0100
1000
0000
,
0001
0010
0001
0000
0010
0000
0100
0000
,
1000
0000
0010
0000
1000
0100
1000
0100
,
0001
0100
0001
0100
1000
0000
0010
0000
,
0001
0100
1000
0010
,
0001
0000
0100
0000
1000
0001
1000
0001
,
1000
0010
1000
0010
0100
0100
0100
0100
,
0001
0001
0001
0001
1000
1010
0010
0110
,
0001
0001
1000
1000
1000
0001
1000
0001
,
1000
0010
1000
0000
0001
0100
0001
0010
,
0001
0000
0000
0000
1000
0100
1000
0010
,
1000
0001
1000
0000
0001
0100
0001
0010
,
0001
0000
1000
0010
,
0001
0000
0100
0000
1000
0010
1000
0010
,
0001
0100
0001
0100
1000
0000
0010
0000
,
0100
0000
1000
0000
0001
0100
0001
0100
,
0010
1000
0010
1000
1001
0000
0001
0000
,
0100
1000
0010
0000
0001
0100
0010
0000
,
1000
1000
0001
1000
,
0010
0010
0100
0100
,
0001
0001
1000
0010
,
1000
0001
0100
0010
,
1000
0100
0100
0001
,
1000
0010
0100
1000
,
0010
0000
0001
0000
0220
0330
0000
0000
;

//---------------dance-single - E. Holniker----------------
#NOTES:
     dance-single:
     E. Holniker:
     Beginner:
     1:
     0.117,0.159,0.009,0.000,0.000,86.000,1.000,0.000,0.000,0.000:

0000
0000
0000
0000
,
1000
0000
0100
0000
,
1000
0000
0010
0000
,
0001
0000
0100
0000
,
1000
0000
0010
0000
,
0100
0000
0100
0000
,
0100
0000
0010
0000
,
0010
0000
1000
0000
,
1000
0000
0001
0000
,
1000
0000
0010
0000
,
0100
0000
0010
0000
,
1000
0000
0100
0000
,
0010
0000
1000
0010
,
1000
0000
0001
0100
,
0001
0000
1000
0000
,
1000
0000
0001
0000
,
0001
0000
1000
1000
,
1000
0000
0010
0010
,
0010
0000
0100
1000
,
0010
0100
1000
1000
,
1000
0001
0010
0100
,
1000
0010
0100
1000
,
0100
0000
0000
0000
,
0000
0000
0001
0010
,
0001
0000
0000
0000
,
0000
0000
1000
0010
,
0100
0000
0001
1000
,
0010
0000
1000
1000
,
1000
0000
0100
0100
,
0100
0000
1000
0000
,
0010
0000
0001
0000
,
0100
0000
1000
0000
,
0010
0000
1000
0000
,
0100
0000
0001
0000
,
1000
0000
0010
0000
,
0100
0000
0010
0000
,
1000
0000
0100
0000
,
0001
0000
1001
0000
;
