#TITLE:GANNON Techno 600;
#SUBTITLE:600 bpm;
#ARTIST:NINTENDO;
#TITLETRANSLIT:;
#SUBTITLETRANSLIT:;
#ARTISTTRANSLIT:;
#CREDIT:DJ Banzai and JDDD;
#BANNER:Ganon-banner.PNG;
#BACKGROUND:Ganon-bg.PNG;
#LYRICSPATH:;
#CDTITLE:Gannon Techno 600-cdtitle.png;
#MUSIC:Ganon (Techno Remix).mp3;
#OFFSET:-2.427;
#SAMPLESTART:2.420;
#SAMPLELENGTH:12.000;
#SELECTABLE:YES;
#BPMS:0.000=599.995;
#STOPS:;
#BGCHANGES:0.000=Ganon-bg.PNG=1.000=0=0=1,
99999=-nosongbg-=1.000=0=0=0 // don't automatically add -songbackground-
;
// cache tags:
#FIRSTBEAT:0.000;
#LASTBEAT:896.000;
#SONGFILENAME:Songs/StepMix 2/Gannon Techno 600/Ganon.sm;
#HASMUSIC:1;
#HASBANNER:1;
#MUSICLENGTH:96.060;
// end cache tags

//---------------dance-single - JDDD----------------
#NOTES:
     dance-single:
     JDDD:
     Hard:
     13:
     0.683,1.000,0.427,0.187,0.005,400.000,41.000,18.000,321.000,0.000:
0MM0
M00M
MMM0
0000
,
0000
0000
0000
0000
,
0000
0000
0000
0M0M
,
0MM0
M0M0
0000
0000
,
0000
0000
0000
0000
,
0000
0000
0000
0M0M
,
0000
0MM0
0000
0000
,
M000
0000
0000
0000
,
M001
0000
0000
0000
,
100M
0000
0000
0000
,
M001
0000
0000
0000
,
100M
0000
0000
0000
,
M011
0000
0000
0000
,
100M
0000
0000
0000
,
M001
0000
0000
0000
,
01M1
0000
0000
0000
,
M001
0000
0000
0000
,
M100
0000
0000
0000
,
M001
0000
0000
0000
,
M110
0000
0000
0000
,
0M01
0000
0000
0000
,
010M
0000
0000
0000
,
M001
0000
0000
0000
,
10M0
0000
0000
0000
,
0110
0000
0000
0000
,
1000
0000
0000
0000
,
0M10
0000
0000
0000
,
1000
0000
0000
0000
,
0110
0000
0000
000M
,
0100
0000
0000
0000
,
0001
0000
0000
0M00
,
0100
0000
0000
0000
,
1001
0000
0000
0000
,
0100
0M00
0000
0000
,
0001
0000
0000
000M
,
0100
0000
0000
0000
,
0001
0000
1000
0M00
,
0010
0000
0000
0000
,
0100
0000
0000
0000
,
M010
0000
0000
0000
,
1100
0000
0000
0000
,
001M
0000
0000
0000
,
1001
0000
0000
0000
,
0010
0000
0M00
0000
,
1001
0000
0000
0000
,
0010
0000
0000
0000
,
0101
0000
0M0M
0000
,
1000
0000
0000
0000
,
0001
0000
0000
0000
,
1000
0000
0M01
0000
,
0010
0000
0000
0000
,
1000
0000
0000
0000
,
0010
0000
0000
0000
,
100M
0000
0000
0000
,
0100
0000
0000
0000
,
10M0
0000
0001
0000
,
0100
0000
0000
0000
,
1000
00M0
0000
0000
,
0100
0000
0000
0000
,
0001
0000
0000
0000
,
01M0
00M0
MMM0
MMM0
,
MMM1
MMM0
MMM0
MMM0
,
MMM1
MMM0
MMM0
00M0
,
10M0
0MM0
0MM0
MMM0
,
MMM1
0000
0000
0000
,
0010
0000
0000
0000
,
0001
0000
0000
0000
,
1M00
0000
0000
0000
,
0001
0000
0000
0000
,
0100
00M0
0000
0000
,
0010
0000
0000
0000
,
1000
0000
0000
0000
,
0010
0000
0000
0000
,
0100
0000
0000
0000
,
001M
0000
0000
0000
,
1000
0000
0000
0000
,
0M10
0000
0000
0000
,
0100
00M0
0000
0000
,
0001
0000
0000
0000
,
0010
0000
M000
0000
,
0001
0000
00M0
0000
,
0100
0000
M000
0000
,
0010
0000
0M00
0000
,
0001
0000
00M0
0000
,
0100
0000
M00M
0000
,
0110
0000
0000
0000
,
1MM1
0000
1MM1
0000
,
1MM1
0000
1MM1
0000
,
1MM1
0000
1MM1
0000
,
1MM1
0000
1MM1
0000
,
10MM
01MM
0000
0000
,
1MMM
0000
0100
0000
,
0010
0M00
0001
0000
,
0100
0000
0010
0001
,
100M
0000
0010
0000
,
010M
0000
0M01
0000
,
0010
0000
0100
0000
,
1000
0000
0100
1000
,
0010
0000
0001
0000
,
0100
0000
1010
000M
,
1000
0000
0010
0000
,
0100
0000
0010
1000
,
0M01
0000
0010
0000
,
0100
0000
0011
0000
,
100M
0000
0010
0000
,
1000
0000
0010
0000
,
0101
0000
010M
0000
,
0101
0000
010M
0000
,
0100
0001
0100
0010
,
1000
0100
0010
M001
,
0100
0010
0100
0001
,
0010
0100
100M
0010
,
0100
M001
0010
0100
,
1000
0001
0100
001M
,
1000
0000
0010
0000
,
10M0
0000
0001
0000
,
0100
0000
0010
0000
,
010M
0000
0001
0000
,
1000
0000
0100
M000
,
0010
0000
0100
0000
,
0010
0000
0001
0000
,
010M
0000
0001
0000
,
0010
0000
0100
0000
,
0010
0000
0001
0M00
,
0100
0000
0010
0000
,
1000
0000
010M
0000
,
0010
0000
0100
0000
,
1000
0000
0010
M000
,
0100
0000
0001
0000
,
0010
0000
00M1
0000
,
0100
0000
0010
0000
,
1000
0000
0010
0000
,
100M
0000
0010
0000
,
0100
0000
M001
0000
,
0100
0000
0001
0000
,
0010
0000
M100
0000
,
1000
0000
0010
0000
,
010M
0000
0010
0000
,
1000
0100
0010
M001
,
0010
01M0
0010
0001
,
0100
0010
1000
0100
,
M010
0100
1000
0010
,
010M
0000
0001
0000
,
0010
0000
0100
0000
,
0010
0000
0001
0000
,
0100
0000
0010
0000
,
1MMM
0000
0010
0000
,
0100
0000
MM1M
0000
,
1000
0000
M1MM
0000
,
0010
0000
M1MM
0000
,
1000
0000
0100
0000
,
MM1M
0000
0010
0000
,
01MM
0000
M1M0
0000
,
0001
0000
MMM1
0000
,
M1MM
0000
1000
0000
,
0100
0000
0010
0000
,
MMM1
0000
0010
0000
,
0100
0000
1000
0000
,
MM1M
0000
0100
MMMM
,
0001
0000
0100
0000
,
0010
0000
1MMM
0000
,
0100
0000
MM10
0000
,
010M
0000
0001
0000
,
0100
0000
10MM
0000
,
0010
0000
01MM
0000
,
MM01
0000
0100
0000
,
0010
0000
10MM
0000
,
0001
0000
01MM
0000
,
MM01
0000
0010
0000
,
0100
0000
1MMM
0000
,
M11M
0000
MM11
0000
,
M11M
0000
M11M
0000
,
M11M
0000
1MMM
0000
,
M1M1
0000
M1M1
0000
,
M1M1
0000
MMM1
0000
,
1M1M
0000
1M1M
0000
,
1M1M
0000
M1MM
0000
,
1MM1
0000
1MM1
0000
,
1MM1
0000
010M
0000
,
1M1M
0000
1MMM
0000
,
1MMM
0100
0010
0001
,
02M0
0310
1000
0100
,
M01M
010M
1000
0001
,
0100
0010
100M
0010
,
0100
0001
0010
0100
,
0010
M10M
1000
0001
,
1MM1
0000
10MM
0100
,
0010
MM01
0100
0010
,
1000
00M0
0010
0100
,
0001
0M00
0010
0000
010M
0000
M010
0000
,
0001
0000
0000
0000
0000
000M
0000
0000
0100
0000
M000
0000
0010
0000
0000
0000
,
100M
001M
0100
M002
,
0013
MM0M
0010
0100
,
1000
0010
0100
0001
,
0100
M0MM
0010
1000
,
0100
1000
0010
0100
,
0001
MMM0
0010
0001
,
0100
0010
1000
0100
,
1000
0MMM
0010
0100
,
0001
0100
0010
1000
,
0001
000M
0010
0200
,
1300
0001
1000
0100
,
0010
MM0M
0001
0100
,
0010
1000
0100
0010
,
0001
MM0M
0010
0001
,
1000
0200
0320
0230
,
1300
0000
0000
0000
,
0000
010M
100M
020M
,
032M
023M
230M
3020
,
0230
0302
2003
3001
,
2002
0MM0
0000
0000
,
0000
0MM0
0000
0000
,
0000
0MM0
0000
0000
,
0000
00M0
0000
0000
,
0000
0MM0
0000
0000
,
0000
0M00
0000
0000
,
0000
0MM0
0000
0000
,
0000
3MM3
2002
0000
,
0000
00M0
0000
0000
,
0000
0MM0
0000
0000
,
3M03
0000
0000
0000
;

//---------------dance-single - JDDD----------------
#NOTES:
     dance-single:
     JDDD:
     Challenge:
     15:
     1.000,1.000,0.167,0.021,0.000,748.000,16.000,2.000,32.000,0.000:
0000
0000
0000
0000
,
0000
0000
0000
0000
,
0000
0000
0000
0000
,
0000
0000
0000
0000
,
0000
0000
0000
0000
,
0000
0000
0000
0000
,
0000
0000
0000
0000
,
0000
0000
0000
0000
,
1000
0100
1000
0100
,
1000
0001
1000
0001
,
1000
0100
1000
0100
,
1000
0001
1000
0001
,
1000
0100
1000
0100
,
0010
0100
0010
0100
,
0010
0001
0010
0001
,
0100
0001
0100
0001
,
1000
0001
1000
0001
,
0100
0001
0100
0001
,
1000
0001
1000
0001
,
0010
0001
0010
0001
,
0010
0100
0010
0100
,
1000
0100
1000
0100
,
1000
0100
0010
0100
,
0010
0M00
0010
0000
,
0001
0100
0001
0100
,
0001
1000
0001
1000
,
0001
0010
0001
0010
,
0001
1000
0001
1000
,
0001
0010
0001
0010
,
0100
0010
0100
0010
,
0100
1000
0100
1000
,
0010
1000
0010
1000
,
0010
0100
0001
0100
,
0001
0M00
0001
0000
,
1000
0001
1000
0001
,
0100
0010
0100
0010
,
1000
0001
1000
0001
,
0100
0010
0100
0010
,
1000
0100
1000
0001
,
1000
0100
1000
0001
,
0010
0001
0100
0001
,
1000
00M0
0100
0000
,
0001
0100
0001
0100
,
0010
1000
0010
1000
,
0001
0100
0001
0100
,
0010
1000
0010
1000
,
0100
0010
0001
0100
,
0010
1000
0100
0010
,
0100
1000
0001
0100
,
0010
M000
0001
0000
,
1000
0100
1000
0100
,
0010
0001
0010
0001
,
1000
0100
1000
0100
,
0010
0001
0010
0001
,
0100
0001
0100
0001
,
1000
0010
0100
0001
,
1000
0100
0010
0100
,
1000
00M0
0100
0000
,
0001
1000
0001
1000
,
0001
0010
0001
0010
,
0100
0010
0100
0010
,
0100
1000
0100
1000
,
0100
0010
0100
0010
,
0001
0010
0001
0010
,
0100
1000
0100
1000
,
0100
0000
1MM1
0000
,
1000
0010
1000
0010
,
1000
0001
1000
0001
,
M010
M001
M010
M001
,
M010
M10M
001M
010M
,
001M
010M
100M
010M
,
10M0
00M1
10M0
00M1
,
01M0
00M1
M100
M001
,
M100
000M
0010
0000
,
0010
1000
0010
0100
,
0001
1000
0001
0100
,
0010
1000
0010
0100
,
0001
0010
0100
1000
,
0001
1000
0100
0010
,
0100
1000
0001
0100
,
0001
0100
0010
1000
,
0010
0000
0010
0000
,
1000
0001
1000
0010
,
0100
0001
1000
0010
,
0100
0001
0100
0001
,
1000
0100
0010
0001
,
0100
0010
1000
0010
,
0100
0001
0010
0100
,
1000
0010
1000
0010
,
0100
0000
0100
0000
,
0001
0010
0001
0010
,
0100
1000
0100
1000
,
0010
0100
0010
0100
,
0001
0010
0001
0010
,
0100
1000
0100
1000
,
0010
0100
0010
0100
,
0001
0010
0001
0010
,
0100
0000
0100
0000
,
1000
0100
1000
0001
,
1000
0100
1000
0001
,
0010
0001
1000
0001
,
0010
0001
0100
0001
,
0100
0010
1000
0001
,
0100
0010
1000
0001
,
1000
0010
0100
0001
,
1000
0000
0010
0000
,
1000
0100
0010
0001
,
0010
0100
1000
0001
,
1000
0100
0010
0001
,
0010
0100
1000
0001
,
1000
0100
0010
0001
,
0010
0100
1000
0001
,
1000
0100
0010
0001
,
0100
0000
0100
0000
,
0101
0000
0100
0000
,
0101
0000
0100
0000
,
1010
0000
0010
0000
,
1010
0000
0010
0000
,
1001
0000
1001
0000
,
0110
0000
0101
0000
,
0011
0000
0010
0000
,
0110
0000
0100
0000
,
1100
0000
0100
0000
,
1010
0000
0010
0000
,
1001
0000
1000
0000
,
0011
0000
0M10
0000
,
1000
0100
1000
0010
,
0100
0010
0100
0010
,
0100
0001
0010
0001
,
0100
0010
0100
0001
,
0010
0100
1000
0100
,
0010
0001
0010
0100
,
1000
0001
0100
0010
,
1000
0000
1000
0000
,
0001
0100
0010
0100
,
0010
1000
0100
0010
,
0100
1000
0001
0100
,
0010
1000
0100
0010
,
0100
1000
0010
0100
,
0010
0100
0001
0010
,
0001
0100
0010
1000
,
0100
0000
0100
0000
,
0010
0001
0010
0001
,
1000
0001
1000
0001
,
0100
0001
0100
0001
,
0100
0010
0100
0010
,
1000
0100
0010
0001
,
0010
0100
1000
0001
,
0100
0010
0100
0001
,
0010
0000
0010
0000
,
0100
1000
0100
1000
,
0010
1000
0010
1000
,
0010
0100
0001
0100
,
0010
1000
0100
0010
,
0001
0010
0100
1000
,
0001
1000
0001
0010
,
0100
1000
0010
0100
,
0001
0000
0101
0000
,
0M10
0100
0010
0100
,
0001
0100
0001
1000
,
0010
1000
0001
0100
,
0001
1000
0010
1000
,
0010
0100
0001
0100
,
0010
0000
0010
0000
,
1000
0100
1000
0100
,
0010
0100
0010
0001
,
0010
0001
0100
0001
,
0100
0010
0100
0010
,
1000
0100
1000
0100
,
0010
0001
0010
0100
,
1000
0000
0010
0000
,
0100
0010
1000
0100
,
1000
0100
1000
0100
,
0010
0001
0010
0001
,
0010
0100
0010
0100
,
0010
0001
0100
0010
,
1000
0010
0100
0001
,
1000
0000
1000
0000
,
0010
0001
0100
0010
,
1000
0010
1000
0010
,
0100
0001
0010
0100
,
1000
0010
0100
0001
,
0010
0100
1000
0010
,
0100
0010
1000
0100
,
0010
0001
1000
0100
,
0010
0000
0100
0000
,
1000
0010
1000
0010
,
0100
0001
0100
0001
,
1000
0001
1000
0001
,
0100
0001
0010
0100
,
1000
0100
0010
0001
,
0100
0001
0100
0010
,
1000
0100
0010
0001
,
0100
0000
0100
0000
,
0010
0100
1000
0100
,
0010
0001
1000
0010
,
0100
0001
0100
0010
,
1000
0010
0100
0001
,
0010
0100
0010
0001
,
0010
0100
1000
0100
,
0010
0001
1000
0010
,
1000
0100
1000
0010
,
0100
0001
0100
0010
,
1000
0100
0010
0001
,
0010
0100
1000
0001
,
0100
0010
1000
0010
,
0100
0001
0010
0001
,
0010
0001
0100
0010
,
0100
0010
0100
0001
,
0010
0100
1000
0200
,
0002
0000
0000
0000
,
0000
0000
0000
0000
,
0000
0000
0000
0000
,
0000
0000
0000
0000
,
0000
0000
0000
0000
,
0000
0000
0000
0000
,
0300
0000
0000
0000
,
0003
0000
0000
0000
,
0100
0000
0000
0000
,
0001
0000
0000
0000
,
0100
0000
0000
0000
,
0001
0000
0000
0000
,
0100
0000
0000
0000
;

//---------------dance-single - JDDD----------------
#NOTES:
     dance-single:
     JDDD:
     Medium:
     8:
     0.460,1.000,0.364,0.146,0.146,260.000,35.000,14.000,83.000,0.000:
0000
0000
0000
0000
,
0000
0000
0000
0000
,
0000
0000
0000
0000
,
0000
0000
0000
0000
,
0000
0000
0000
0000
,
0000
0000
0000
0000
,
0000
0000
0000
0000
,
0000
0000
0000
0000
,
1100
0000
0000
0000
,
00MM
0000
0000
0000
,
0011
0000
0000
0000
,
MM00
0000
0000
0000
,
1100
0000
0000
0000
,
0000
0000
0000
0000
,
0001
0000
0000
0000
,
0000
0000
0000
0000
,
1000
0000
0000
0000
,
0000
0000
0000
0000
,
0001
0000
0000
0000
,
0000
0000
0000
0000
,
1000
0000
0000
0000
,
0000
0000
0000
0000
,
0010
0000
0000
0000
,
0000
0000
0000
0000
,
1000
0000
0000
0000
,
0000
0000
0000
0000
,
0100
0000
0000
0000
,
0000
0000
0000
0000
,
1000
0000
0000
0000
,
0000
0000
0000
0000
,
0001
0000
0000
0000
,
0000
0000
0000
0000
,
1000
0000
0000
0000
,
0000
0000
0000
0000
,
0001
0000
0000
0000
,
0000
0000
0000
0000
,
0010
0000
0000
0000
,
1000
0000
0000
0000
,
0001
0000
0000
0000
,
0010
0000
0000
0000
,
1000
0000
0000
0000
,
0010
0000
0000
0000
,
0001
0000
0000
0000
,
1000
0000
0000
0000
,
0100
0000
0000
0000
,
0000
0000
0000
0000
,
0001
0000
0000
0000
,
1000
0000
0000
0000
,
0100
0000
0000
0000
,
0000
0000
0000
0000
,
0010
0000
0000
0000
,
0100
0000
0000
0000
,
1000
0000
0000
0000
,
0000
0000
0000
0000
,
0100
0000
0000
0000
,
0010
0000
0000
0000
,
1000
0000
0000
0000
,
0000
0000
0000
0000
,
0010
0000
0000
0000
,
0001
0000
0000
0000
,
0100
0000
0000
0000
,
0000
0000
0000
0000
,
0010
0000
0000
0000
,
0010
0000
0000
0000
,
1000
0000
0000
0000
,
0000
0000
0000
0000
,
0001
0000
0000
0000
,
1000
0000
0000
0000
,
0010
0000
0000
0000
,
0000
0000
0000
0000
,
0100
0000
0000
0000
,
0001
0000
0000
0000
,
1000
0000
0000
0000
,
0000
0000
0000
0000
,
0100
0000
0000
0000
,
1000
0000
0000
0000
,
0010
0000
0000
0000
,
0000
0000
0000
0000
,
0100
0000
0000
0000
,
0001
0000
0000
0000
,
1000
0000
0000
0000
,
0000
0000
0000
0000
,
0001
0000
0000
0000
,
0010
0000
0000
0000
,
0001
0000
0000
0000
,
0000
0000
0000
0000
,
0100
0000
0000
0000
,
0010
0000
0000
0000
,
1000
0000
0000
0000
,
0000
0000
0000
0000
,
0101
0000
0000
0000
,
0101
0000
0000
0000
,
1000
0000
0000
0000
,
0000
0000
0000
0000
,
0010
0000
0000
0000
,
1000
0000
0000
0000
,
1100
0000
0000
0000
,
0000
0000
0000
0000
,
0100
0000
0000
0000
,
0010
0000
0000
0000
,
0110
0000
0000
0000
,
0110
0000
0000
0000
,
1001
0000
1001
0000
,
1001
0000
1001
0000
,
1001
0000
1001
0000
,
1001
0000
1001
0000
,
0110
0000
0110
0000
,
1000
0001
1000
0001
,
1000
0001
1000
0001
,
0100
0010
0100
0010
,
0100
0010
0100
0010
,
1000
0001
0100
0010
,
1000
0010
1000
0010
,
1000
0010
1000
0010
,
0200
0000
0000
0000
,
0302
0000
0000
0000
,
0023
0000
0000
0000
,
0032
0000
0000
0000
,
0203
0000
0000
0000
,
0320
0000
0000
0000
,
0230
0000
0000
0000
,
0302
0000
0000
0000
,
0023
0000
0000
0000
,
0032
0000
0000
0000
,
0203
0000
0000
0000
,
0320
0000
0000
0000
,
0130
0000
0010
0000
,
0100
0000
0010
0000
,
0100
0000
0010
0000
,
1000
0000
0001
0000
,
1000
0000
0010
0000
,
1000
0000
0100
0000
,
1000
0000
00M0
0000
,
0100
0000
000M
0000
,
0010
0000
0M00
0000
,
1000
0000
0M00
0000
,
1000
0000
0101
0000
,
0101
0000
1100
0000
,
1000
0100
1000
0100
,
1000
0100
1000
0100
,
1000
0100
0010
0001
,
0010
0001
0010
0001
,
0010
0000
0000
0000
,
1001
0000
0000
0000
,
0100
0000
0000
0000
,
1001
0000
0000
0000
,
0010
0000
0000
0000
,
1010
0000
0000
0000
,
0010
0000
0000
0000
,
0110
0000
0000
0000
,
0010
0000
0000
0000
,
0110
0000
0000
0000
,
0100
0000
0000
0000
,
0010
0000
0000
0000
,
1000
0000
0000
0000
,
0100
0000
0000
0000
,
1100
0000
0000
0000
,
0100
0000
0000
0000
,
1000
0000
0000
0000
,
0100
0000
0000
0000
,
0101
0000
0000
0000
,
0001
0000
0000
0000
,
0100
0000
0000
0000
,
0001
0000
0000
0000
,
1100
0000
0000
0000
,
0100
0000
0000
0000
,
1000
0000
0000
0000
,
0100
0000
0000
0000
,
0011
0000
0000
0000
,
0001
0000
0000
0000
,
0010
0000
0100
0000
,
1000
0000
0100
0000
,
0010
0000
0100
0000
,
1000
0000
0100
0000
,
0010
0000
M000
0000
,
0001
0000
0100
0000
,
0010
0000
0100
0000
,
0001
0000
0100
0000
,
0010
0000
MMMM
0000
,
1001
0000
1001
0000
,
1000
0010
0100
0010
,
0100
0010
0100
0010
,
1000
0010
1000
0010
,
0100
0010
0100
0010
,
1000
0000
1010
0000
,
1010
0000
000M
0000
,
0001
0000
0010
0000
,
0100
0000
1000
0000
,
0001
0000
0100
0000
,
0010
0000
1000
0000
,
0001
0000
0010
0000
,
0100
0000
1000
0000
,
0001
0000
0100
0000
,
0001
0000
1000
0000
,
0100
0000
1000
0000
,
0010
0000
0100
0000
,
0010
0000
0100
0000
,
0001
0000
1000
0000
,
0100
0000
1000
0000
,
0010
0000
0100
0000
,
0001
0000
0010
0000
,
0100
0000
1000
0000
,
0001
0000
0100
0000
,
0010
0000
0100
0000
,
0100
0000
00M0
0M00
,
0001
0000
0M00
M000
,
0010
0000
0M00
000M
,
1000
0000
00M0
000M
,
0100
0000
M000
0M00
,
0001
0000
M000
0M00
,
2200
00MM
0000
0000
00M0
0000
000M
00M0
,
0000
0000
000M
0000
0000
00M0
0000
0000
,
000M
00M0
0000
0000
000M
0000
0000
00M0
,
0000
000M
00M0
0000
0000
0000
000M
0000
,
0000
00M0
0000
000M
0000
0000
00M0
0000
,
0000
0000
0000
000M
0000
0000
0000
0000
0000
00M0
0000
0000
0000
0000
0000
000M
0000
0000
00M0
0000
0000
0000
000M
0000
,
0000
00M0
0000
000M
0000
0000
0000
00M0
0000
0000
000M
0000
,
00M0
0000
0000
0000
0000
0000
0000
0000
000M
0000
0000
0000
0000
0000
0000
0000
0000
0000
0000
0000
00M0
0000
0000
0000
0000
0000
0000
0000
0000
0000
0000
0000
000M
0000
0000
0000
0000
0000
0000
00M0
0000
0000
0000
0000
0000
000M
0000
0000
,
0000
0000
00M0
0000
0000
0000
000M
0000
0000
0000
0000
0000
00M0
0000
0000
0000
0000
0000
000M
0000
0000
0000
00M0
0000
0000
0000
0000
0000
000M
00M0
0000
0000
,
000M
0000
0000
0000
0000
0000
0000
0000
0000
0000
0000
0000
0000
0000
0000
0000
0000
0000
00M0
0000
0000
0000
0000
0000
0000
0000
0000
0000
0000
0000
0000
0000
0000
0000
0000
0000
000M
0000
0000
0000
0000
0000
0000
0000
0000
0000
0000
0000
0000
0000
0000
0000
0000
0000
0000
0000
0000
0000
0000
0000
00M0
0000
0000
0000
0000
0000
0000
0000
0000
0000
0000
0000
000M
0000
0000
0000
0000
0000
0000
0000
0000
0000
0000
0000
0000
0000
0000
0000
0000
0000
0000
0000
0000
0000
0000
0000
0000
0000
0000
0000
0000
0000
00M0
0000
0000
0000
0000
0000
0000
0000
0000
0000
0000
0000
0000
0000
000M
0000
0000
0000
0000
0000
0000
0000
0000
0000
0000
0000
0000
0000
0000
0000
00M0
0000
0000
0000
0000
0000
0000
0000
0000
0000
0000
0000
000M
0000
0000
0000
0000
0000
0000
0000
00M0
0000
0000
0000
0000
0000
0000
0000
0000
0000
0000
0000
000M
0000
0000
0000
0000
0000
0000
0000
00M0
0000
0000
0000
0000
0000
0000
0000
000M
0000
0000
0000
0000
0000
0000
0000
00M0
0000
0000
0000
,
3300
0000
000M
0000
0000
0000
0000
0000
0000
00M0
0000
0000
0000
0000
0000
0000
0M00
0000
0000
0000
0000
0000
0000
M000
0000
0000
0000
0000
0000
0000
0000
0000
;

//---------------dance-single - JDDD----------------
#NOTES:
     dance-single:
     JDDD:
     Easy:
     5:
     0.248,0.573,0.156,0.062,0.000,146.000,15.000,6.000,12.000,0.000:
0000
0000
0000
0000
,
0000
0000
0000
0000
,
0000
0000
0000
0000
,
0000
0000
0000
0000
,
0000
0000
0000
0000
,
0000
0000
0000
0000
,
0000
0000
0000
0000
,
0000
0000
0000
0000
,
0000
0000
0000
0000
,
0000
0000
0000
0000
,
0000
0000
0000
0000
,
0000
0000
0000
0000
,
0000
0000
0000
0000
,
0000
0000
0000
0000
,
0000
0000
0000
0000
,
0000
0000
0000
0000
,
0000
0000
0000
0000
,
0000
0000
0000
0000
,
1100
0000
0000
0000
,
0000
0000
0000
0000
,
1100
0000
0000
0000
,
0000
0000
0000
0000
,
1100
0000
0000
0000
,
0000
0000
0000
0000
,
1100
0000
0000
0000
,
0000
0000
0000
0000
,
0011
0000
0000
0000
,
0000
0000
0000
0000
,
0011
0000
0000
0000
,
0000
0000
0000
0000
,
0011
0000
0000
0000
,
0000
0000
0000
0000
,
0012
0000
0000
0000
,
0000
0000
0000
0000
,
1000
0000
0000
0000
,
0000
0000
0000
0000
,
1000
0000
0000
0000
,
0000
0000
0000
0000
,
1000
0000
0000
0000
,
0000
0000
0000
0000
,
2003
0000
0000
0000
,
0000
0000
0000
0000
,
0010
0000
0000
0000
,
0000
0000
0000
0000
,
0010
0000
0000
0000
,
0000
0000
0000
0000
,
0010
0000
0000
0000
,
0000
0000
0000
0000
,
3010
0000
0000
0000
,
0000
0000
0000
0000
,
0100
0000
0000
0000
,
0000
0000
0000
0000
,
0100
0000
0000
0000
,
0000
0000
0000
0000
,
0100
0000
0000
0000
,
0000
0000
0000
0000
,
0100
0000
0000
0000
,
0000
0000
0000
0000
,
0001
0000
0000
0000
,
0000
0000
0000
0000
,
0001
0000
0000
0000
,
0000
0000
0000
0000
,
1000
0000
0000
0000
,
0000
0000
0000
0000
,
0001
0000
0000
0000
,
0000
0000
0000
0000
,
1000
0000
0000
0000
,
0000
0000
0000
0000
,
0001
0000
0000
0000
,
0000
0000
0000
0000
,
1000
0000
0000
0000
,
0000
0000
0000
0000
,
0100
0000
0000
0000
,
0000
0000
0000
0000
,
1000
0000
0000
0000
,
0000
0000
0000
0000
,
0100
0000
0000
0000
,
0000
0000
0000
0000
,
1000
0000
0000
0000
,
0000
0000
0000
0000
,
0100
0000
0000
0000
,
0000
0000
0000
0000
,
0010
0000
0000
0000
,
0000
0000
0000
0000
,
0001
0000
0000
0000
,
0000
0000
0000
0000
,
0100
0000
0000
0000
,
0000
0000
0000
0000
,
1000
0000
0000
0000
,
0000
0000
0000
0000
,
0010
0000
0000
0000
,
0000
0000
0000
0000
,
0001
0000
0000
0000
,
0000
0000
0000
0000
,
0100
0000
0000
0000
,
0000
0000
0000
0000
,
1000
0000
0000
0000
,
0000
0000
0000
0000
,
0100
0000
0000
0000
,
0100
0000
0000
0000
,
0000
0000
0000
0000
,
1000
0000
0000
0000
,
0000
0000
0000
0000
,
0001
0000
0000
0000
,
0000
0000
0000
0000
,
0100
0000
0000
0000
,
0000
0000
0000
0000
,
0010
0000
0000
0000
,
1000
0000
0000
0000
,
1000
0000
0000
0000
,
0010
0000
0000
0000
,
0010
0000
0000
0000
,
0100
0000
0000
0000
,
0100
0000
0000
0000
,
0210
0000
0000
0000
,
0000
0000
0000
0000
,
0010
0000
0000
0000
,
0000
0000
0000
0000
,
0001
0000
0000
0000
,
0000
0000
0000
0000
,
0001
0000
0000
0000
,
0000
0000
0000
0000
,
0010
0000
0000
0000
,
0000
0000
0000
0000
,
0001
0000
0000
0000
,
0000
0000
0000
0000
,
0310
0000
1000
0000
,
0010
0000
1000
0000
,
0010
0000
1000
0000
,
0010
0000
1000
0000
,
0010
0000
0000
0000
,
0110
0000
0000
0000
,
0110
0000
0000
0000
,
0000
0000
0000
0000
,
1100
0000
0000
0000
,
0000
0000
0000
0000
,
0001
0000
0000
0000
,
0000
0000
0000
0000
,
1000
0000
0000
0000
,
0000
0000
0000
0000
,
0010
0000
0000
0000
,
0000
0000
0000
0000
,
0100
0000
0000
0000
,
0000
0000
0000
0000
,
0001
0000
0000
0000
,
0000
0000
0000
0000
,
1000
0000
0000
0000
,
0000
0000
0000
0000
,
0100
0000
0000
0000
,
0000
0000
0000
0000
,
0010
0000
0000
0000
,
0000
0000
0000
0000
,
0100
0000
0000
0000
,
0000
0000
0000
0000
,
1000
0000
0000
0000
,
0000
0000
0000
0000
,
0001
0000
0000
0000
,
0000
0000
0000
0000
,
0100
0000
0000
0000
,
0000
0000
0000
0000
,
0010
0000
0000
0000
,
0000
0000
0000
0000
,
0100
0000
0000
0000
,
0000
0000
0000
0000
,
0100
0000
0000
0000
,
0000
0000
0000
0000
,
0100
0000
0000
0000
,
0000
0000
0000
0000
,
0100
0000
0000
0000
,
0000
0000
0000
0000
,
1000
0000
0000
0000
,
0100
0000
0000
0000
,
1000
0000
0000
0000
,
0100
0000
0000
0000
,
1000
0000
0000
0000
,
0010
0000
0000
0000
,
1000
0000
0000
0000
,
1100
0000
0000
0000
,
0000
0000
0000
0000
,
1100
0000
0000
0000
,
0000
0000
0000
0000
,
1100
0000
0000
0000
,
0000
0000
0000
0000
,
1000
0000
0000
0000
,
0000
0000
0000
0000
,
0100
0000
0000
0000
,
1000
0000
0100
0000
,
1000
0000
0100
0000
,
1000
0000
0100
0000
,
1000
0000
0100
0000
,
1000
0000
0100
0000
,
1000
0000
0100
0000
,
1000
0000
0100
0000
,
1000
0000
0100
0000
,
0010
0000
0100
0000
,
0010
0000
0100
0000
,
0010
0000
0100
0000
,
0010
0000
0100
0000
,
0010
0000
0100
0000
,
0010
0000
0100
0000
,
0010
0000
0100
0000
,
0010
0000
0100
0000
,
1000
0000
0100
0000
,
1000
0000
0100
0000
,
1000
0000
0100
0000
,
1000
0000
0100
0000
,
0010
0000
0100
0000
,
0010
0000
0100
0000
,
0020
0000
0230
0000
,
M020
0000
0000
0000
,
003M
0000
0000
0000
,
M000
0000
0000
0000
,
000M
0000
0000
0000
,
M000
0000
0000
0000
,
000M
0000
0000
0000
,
M000
0000
0000
0000
,
000M
0000
0000
0000
,
M000
0000
0000
0000
,
000M
0000
0000
0000
,
M000
0000
0000
0000
,
030M
0000
0000
0000
;

//---------------dance-single - JDDD----------------
#NOTES:
     dance-single:
     JDDD:
     Beginner:
     3:
     0.164,0.458,0.010,0.010,0.000,108.000,1.000,1.000,32.000,0.000:
0000
0000
0000
0000
,
0000
0000
0000
0000
,
0000
0000
0000
0000
,
0000
0000
0000
0000
,
0000
0000
0000
0000
,
0000
0000
0000
0000
,
0000
0000
0000
0000
,
0000
0000
0000
0000
,
0000
0000
0000
0000
,
0000
0000
0000
0000
,
0000
0000
0000
0000
,
0000
0000
0000
0000
,
0000
0000
0000
0000
,
0000
0000
0000
0000
,
0000
0000
0000
0000
,
0000
0000
0000
0000
,
0000
0000
0000
0000
,
0000
0000
0000
0000
,
1000
0000
0000
0000
,
0000
0000
0000
0000
,
1000
0000
0000
0000
,
0000
0000
0000
0000
,
1000
0000
0000
0000
,
0000
0000
0000
0000
,
1000
0000
0000
0000
,
0000
0000
0000
0000
,
1000
0000
0000
0000
,
0000
0000
0000
0000
,
1000
0000
0000
0000
,
0000
0000
0000
0000
,
1000
0000
0000
0000
,
0000
0000
0000
0000
,
1000
0000
0000
0000
,
0000
0000
0000
0000
,
0001
0000
0000
0000
,
0000
0000
0000
0000
,
0001
0000
0000
0000
,
0000
0000
0000
0000
,
0001
0000
0000
0000
,
0000
0000
0000
0000
,
0001
0000
0000
0000
,
0000
0000
0000
0000
,
0001
0000
0000
0000
,
0000
0000
0000
0000
,
0001
0000
0000
0000
,
0000
0000
0000
0000
,
0001
0000
0000
0000
,
0000
0000
0000
0000
,
0001
0000
0000
0000
,
0000
0000
0000
0000
,
1000
0000
0000
0000
,
0000
0000
0000
0000
,
1000
0000
0000
0000
,
0000
0000
0000
0000
,
1000
0000
0000
0000
,
0000
0000
0000
0000
,
1000
0000
0000
0000
,
0000
0000
0000
0000
,
0001
0000
0000
0000
,
0000
0000
0000
0000
,
0001
0000
0000
0000
,
0000
0000
0000
0000
,
0001
0000
0000
0000
,
0000
0000
0000
0000
,
0001
0000
0000
0000
,
0000
0000
0000
0000
,
0100
0000
0000
0000
,
0000
0000
0000
0000
,
0100
0000
0000
0000
,
0000
0000
0000
0000
,
0100
0000
0000
0000
,
0000
0000
0000
0000
,
0100
0000
0000
0000
,
0000
0000
0000
0000
,
0100
0000
0000
0000
,
0000
0000
0000
0000
,
0100
0000
0000
0000
,
0000
0000
0000
0000
,
0100
0000
0000
0000
,
0000
0000
0000
0000
,
0100
0000
0000
0000
,
0000
0000
0000
0000
,
0010
0000
0000
0000
,
0000
0000
0000
0000
,
0010
0000
0000
0000
,
0000
0000
0000
0000
,
0010
0000
0000
0000
,
0000
0000
0000
0000
,
0010
0000
0000
0000
,
0000
0000
0000
0000
,
0010
0000
0000
0000
,
0000
0000
0000
0000
,
0010
0000
0000
0000
,
0000
0000
0000
0000
,
0010
0000
0000
0000
,
0000
0000
0000
0000
,
0010
0000
0000
0000
,
0000
0000
0000
0000
,
0100
0000
0000
0000
,
0000
0000
0000
0000
,
0100
0000
0000
0000
,
0000
0000
0000
0000
,
0100
0000
0000
0000
,
0000
0000
0000
0000
,
0100
0000
0000
0000
,
0000
0000
0000
0000
,
0010
0000
0000
0000
,
0000
0000
0000
0000
,
0010
0000
0000
0000
,
0000
0000
0000
0000
,
0010
0000
0000
0000
,
0000
0000
0000
0000
,
0010
0000
0000
0000
,
0000
0000
0000
0000
,
2000
0000
0000
0000
,
0000
0000
0000
0000
,
0000
0000
0000
0000
,
0000
0000
0000
0000
,
0000
0000
0000
0000
,
0000
0000
0000
0000
,
0000
0000
0000
0000
,
0000
0000
0000
0000
,
0000
0000
0000
0000
,
0000
0000
0000
0000
,
0000
0000
0000
0000
,
0000
0000
0000
0000
,
3000
0000
0000
0000
,
0000
0000
0000
0000
,
0010
0000
0000
0000
,
0000
0000
0000
0000
,
0010
0000
0000
0000
,
0000
0000
0000
0000
,
0010
0000
0000
0000
,
0000
0000
0000
0000
,
0000
0000
0000
0000
,
0000
0000
0000
0000
,
0100
0000
0000
0000
,
0000
0000
0000
0000
,
0100
0000
0000
0000
,
0000
0000
0000
0000
,
0100
0000
0000
0000
,
0000
0000
0000
0000
,
0000
0000
0000
0000
,
0000
0000
0000
0000
,
0001
0000
0000
0000
,
0000
0000
0000
0000
,
0001
0000
0000
0000
,
0000
0000
0000
0000
,
0001
0000
0000
0000
,
0000
0000
0000
0000
,
0000
0000
0000
0000
,
0000
0000
0000
0000
,
1000
0000
0000
0000
,
0000
0000
0000
0000
,
1000
0000
0000
0000
,
0000
0000
0000
0000
,
1000
0000
0000
0000
,
0000
0000
0000
0000
,
0010
0000
0000
0000
,
0000
0000
0000
0000
,
0010
0000
0000
0000
,
0000
0000
0000
0000
,
0010
0000
0000
0000
,
0000
0000
0000
0000
,
0010
0000
0000
0000
,
0000
0000
0000
0000
,
0100
0000
0000
0000
,
0000
0000
0000
0000
,
0100
0000
0000
0000
,
0000
0000
0000
0000
,
0100
0000
0000
0000
,
0000
0000
0000
0000
,
0100
0000
0000
0000
,
0001
0000
0000
0000
,
0000
0000
0000
0000
,
0001
0000
0000
0000
,
0000
0000
0000
0000
,
1000
0000
0000
0000
,
0000
0000
0000
0000
,
1000
0000
0000
0000
,
1000
0000
1000
0000
,
1000
0000
0000
0000
,
0001
0000
0001
0000
,
0001
0000
0000
0000
,
1000
0000
1000
0000
,
1000
0000
0000
0000
,
0001
0000
0000
0000
,
0001
0000
0000
0000
,
0001
0000
0000
0000
,
0001
0000
0000
0000
,
0001
0000
0000
0000
,
0001
0000
0000
0000
,
0001
0000
0000
0000
,
0001
0000
0000
0000
,
1000
0000
0000
0000
,
1000
0000
0000
0000
,
1000
0000
0000
0000
,
1000
0000
0000
0000
,
1000
0000
0000
0000
,
1000
0000
0000
0000
,
1000
0000
0000
0000
,
1000
0000
0000
0000
,
0010
0000
0000
0000
,
0010
0000
0000
0000
,
0010
0000
0000
0000
,
0010
0000
0000
0000
,
0010
0000
0000
0000
,
0010
0000
0000
0000
,
0010
0000
0000
0000
,
0010
0000
0000
0000
,
1001
0000
0000
0000
00M0
0M00
MMMM
0M00
,
00M0
0000
0000
0000
,
0000
0000
0000
0000
0000
0000
00M0
0M00
,
MMMM
0M00
00M0
0000
0000
0000
0000
0000
,
0000
0000
0000
0000
,
0000
0000
0000
0000
0000
0000
00M0
0M00
,
MMMM
0M00
00M0
0000
0000
0000
0000
0000
,
0000
0000
0000
0000
0000
0000
00M0
0M00
,
MMMM
0M00
00M0
0000
0000
0000
0000
0000
,
0000
0000
0000
0000
,
1000
0000
0000
0000
;

//---------------dance-double - ----------------
#NOTES:
     dance-double:
     :
     Easy:
     5:
     0.296,0.446,0.000,0.104,0.000,189.000,0.000,10.000,0.000,0.000:
00000000
00000000
00000000
00000000
,
00000000
00000000
00000000
00000000
,
00000000
00000000
00000000
00000000
,
00000000
00000000
00000000
00000000
,
00000000
00000000
00000000
00000000
,
00000000
00000000
00000000
00000000
,
00000000
00000000
00000000
00000000
,
00000000
00000000
00000000
00000000
,
00000000
00000000
00000000
00000000
,
00000000
00000000
00000000
00000000
,
00000000
00000000
00000000
00000000
,
00000000
00000000
00000000
00000000
,
00000000
00000000
00000000
00000000
,
00000000
00000000
00000000
00000000
,
00000000
00000000
00000000
00000000
,
00000000
00000000
00000000
00000000
,
00000000
00000000
00000000
00000000
,
00010000
00000000
00000000
00000000
,
00001000
00000000
00000000
00000000
,
00010000
00000000
00000000
00000000
,
00001000
00000000
00000000
00000000
,
00010000
00000000
00000000
00000000
,
00001000
00000000
00000000
00000000
,
00010000
00000000
00000000
00000000
,
00001000
00000000
00000000
00000000
,
01000000
00000000
00000000
00000000
,
00001000
00000000
00000000
00000000
,
01000000
00000000
00000000
00000000
,
00001000
00000000
00000000
00000000
,
01000000
00000000
00000000
00000000
,
00001000
00000000
00000000
00000000
,
01000000
00000000
00000000
00000000
,
00001000
00000000
00000000
00000000
,
01000000
00000000
00000000
00000000
,
00001000
00000000
00000000
00000000
,
01000000
00000000
00000000
00000000
,
00001000
00000000
00000000
00000000
,
01000000
00000000
00000000
00000000
,
00100000
00000000
00000000
00000000
,
01000000
00000000
00000000
00000000
,
00100000
00000000
00000000
00000000
,
01000000
00000000
00000000
00000000
,
00100000
00000000
00000000
00000000
,
01000000
00000000
00000000
00000000
,
00100000
00000000
00000000
00000000
,
01000000
00000000
00000000
00000000
,
00100000
00000000
00000000
00000000
,
01000000
00000000
00000000
00000000
,
00100000
00000000
00000000
00000000
,
01000000
00000000
00000000
00000000
,
00100000
00000000
00000000
00000000
,
01000000
00000000
00000000
00000000
,
00100000
00000000
00000000
00000000
,
10000000
00000000
00000000
00000000
,
00100000
00000000
00000000
00000000
,
10000000
00000000
00000000
00000000
,
00100000
00000000
00000000
00000000
,
10000000
00000000
00000000
00000000
,
00100000
00000000
00000000
00000000
,
10000000
00000000
00000000
00000000
,
00100000
00000000
00000000
00000000
,
10000000
00000000
00000000
00000000
,
00100000
00000000
00000000
00000000
,
10000000
00000000
00000000
00000000
,
00100000
00000000
00000000
00000000
,
10000000
00000000
00000000
00000000
,
01000000
00000000
00000000
00000000
,
10000000
00000000
00000000
00000000
,
01000000
00000000
00000000
00000000
,
10000000
00000000
00000000
00000000
,
01000000
00000000
00000000
00000000
,
10000000
00000000
00000000
00000000
,
01000000
00000000
00000000
00000000
,
10000000
00000000
00000000
00000000
,
01000000
00000000
00000000
00000000
,
10000000
00000000
00000000
00000000
,
01000000
00000000
00000000
00000000
,
10000000
00000000
00000000
00000000
,
01000000
00000000
00000000
00000000
,
10000000
00000000
00000000
00000000
,
01000000
00000000
00000000
00000000
,
00100000
00000000
00000000
00000000
,
00010000
00000000
00000000
00000000
,
00100000
00000000
00000000
00000000
,
00010000
00000000
00000000
00000000
,
00100000
00000000
00000000
00000000
,
00010000
00000000
00000000
00000000
,
00100000
00000000
00000000
00000000
,
00010000
00000000
00000000
00000000
,
00100000
00000000
00000000
00000000
,
00001000
00000000
00000000
00000000
,
00010000
00000000
00000000
00000000
,
00001000
00000000
00000000
00000000
,
00010000
00000000
00000000
00000000
,
00001000
00000000
00000000
00000000
,
00010000
00000000
00000000
00000000
,
00001000
00000000
00000000
00000000
,
00010000
00000000
00000000
00000000
,
00001000
00000000
00000000
00000000
,
00010000
00000000
00000000
00000000
,
00000100
00000000
00000000
00000000
,
00010000
00000000
00000000
00000000
,
00000100
00000000
00000000
00000000
,
00010000
00000000
00000000
00000000
,
00000100
00000000
00000000
00000000
,
00010000
00000000
00000000
00000000
,
00000100
00000000
00000000
00000000
,
00010000
00000000
00000000
00000000
,
00000100
00000000
00000000
00000000
,
00010000
00000000
00000000
00000000
,
00000100
00000000
00000000
00000000
,
00010000
00000000
00000000
00000000
,
00000100
00000000
00000000
00000000
,
00000010
00000000
00000000
00000000
,
00000200
00000000
00000000
00000000
,
00000000
00000000
00000000
00000000
,
00000320
00000000
00000000
00000000
,
00000000
00000000
00000000
00000000
,
00002030
00000000
00000000
00000000
,
00000000
00000000
00000000
00000000
,
00023000
00000000
00000000
00000000
,
00000000
00000000
00000000
00000000
,
00230000
00000000
00000000
00000000
,
00000000
00000000
00000000
00000000
,
00320000
00000000
00000000
00000000
,
00000000
00000000
00000000
00000000
,
00032000
00000000
00000000
00000000
,
00003010
00000000
00000000
00000000
,
00000100
00000000
00000000
00000000
,
00000010
00000000
00000000
00000000
,
00000100
00000000
00000000
00000000
,
00000010
00000000
00000000
00000000
,
00000100
00000000
00000000
00000000
,
00000010
00000000
00000000
00000000
,
00000001
00000000
00000000
00000000
,
00001000
00000000
00000000
00000000
,
00000001
00000000
00000000
00000000
,
00001000
00000000
00000000
00000000
,
00000001
00000000
00000000
00000000
,
00001000
00000000
00000000
00000000
,
00000001
00000000
00000000
00000000
,
00001000
00000000
00000000
00000000
,
00000001
00000000
00000000
00000000
,
00001000
00000000
00000000
00000000
,
00000001
00000000
00000000
00000000
,
00001000
00000000
00000000
00000000
,
00000001
00000000
00000000
00000000
,
00001000
00000000
00000000
00000000
,
00000001
00000000
00000000
00000000
,
00001000
00000000
00000000
00000000
,
00000001
00000000
00000000
00000000
,
00001000
00000000
00000000
00000000
,
00000001
00000000
00000000
00000000
,
00001000
00000000
00000000
00000000
,
00000001
00000000
00000000
00000000
,
00001000
00000000
00000000
00000000
,
00000100
00000000
00000000
00000000
,
00010000
00000000
00000000
00000000
,
00000100
00000000
00000000
00000000
,
00010000
00000000
00000000
00000000
,
00000100
00000000
00000000
00000000
,
00010000
00000000
00000000
00000000
,
00000100
00000000
00000000
00000000
,
00010000
00000000
00000000
00000000
,
00000100
00000000
00000000
00000000
,
00010000
00000000
00000000
00000000
,
00000010
00000000
00000000
00000000
,
00010000
00000000
00000000
00000000
,
00000100
00000000
00000000
00000000
,
00010000
00000000
00000000
00000000
,
00000010
00000000
00000000
00000000
,
00010000
00000000
00000000
00000000
,
00000100
00000000
00000000
00000000
,
00010000
00000000
00000000
00000000
,
00001000
00000000
00000000
00000000
,
00010000
00000000
00000000
00000000
,
00001000
00000000
00000000
00000000
,
00100000
00000000
00000000
00000000
,
00002000
00000000
00000000
00000000
,
01003000
00000000
00000000
00000000
,
00001000
00000000
00000000
00000000
,
00100000
00000000
00000000
00000000
,
00001000
00000000
00000000
00000000
,
01000000
00000000
00000000
00000000
,
00001000
00000000
00000000
00000000
,
00100000
00000000
00000000
00000000
,
00001000
00000000
00000000
00000000
,
01000000
00000000
00000000
00000000
,
00001000
00000000
00000000
00000000
,
00100000
00000000
00000000
00000000
,
00001000
00000000
00000000
00000000
,
01000000
00000000
00000000
00000000
,
00001000
00000000
00000000
00000000
,
00100000
00000000
00000000
00000000
,
00001000
00000000
00000000
00000000
,
01000000
00000000
00000000
00000000
,
00001000
00000000
00000000
00000000
,
00100000
00000000
00000000
00000000
,
00001000
00000000
00000000
00000000
,
01000000
00000000
00000000
00000000
,
00010000
00000000
00000000
00000000
,
00100000
00000000
00000000
00000000
,
01000000
00000000
00000000
00000000
,
00100000
00000000
00000000
00000000
,
01000000
00000000
00000000
00000000
,
00100000
00000000
00000000
00000000
,
01000000
00000000
00000000
00000000
,
10000000
00000000
00000000
00000000
,
00100000
00000000
00000000
00000000
,
01000000
00000000
00002000
00000000
,
00020000
00000000
00000000
00000000
,
00000000
00000000
00000000
00000000
,
00000000
00000000
00000000
00000000
,
00000000
00000000
00000000
00000000
,
00033000
00000000
00000000
00000000
;

//---------------dance-double - JDDD----------------
#NOTES:
     dance-double:
     JDDD:
     Medium:
     8:
     0.296,0.554,0.000,0.083,0.000,191.000,0.000,8.000,0.000,0.000:
00000000
00000000
00000000
00000000
,
00000000
00000000
00000000
00000000
,
00000000
00000000
00000000
00000000
,
00000000
00000000
00000000
00000000
,
00000000
00000000
00000000
00000000
,
00000000
00000000
00000000
00000000
,
00000000
00000000
00000000
00000000
,
00000000
00000000
00000000
00000000
,
00000000
00000000
00000000
00000000
,
00000000
00000000
00000000
00000000
,
00000000
00000000
00000000
00000000
,
00000000
00000000
00000000
00000000
,
00000000
00000000
00000000
00000000
,
00000000
00000000
00000000
00000000
,
00000000
00000000
00000000
00000000
,
00000000
00000000
00000000
00000000
,
00000000
00000000
00000000
00000000
,
10000000
00000000
00000000
00000000
,
01000000
00000000
00000000
00000000
,
10000000
00000000
00000000
00000000
,
01000000
00000000
00000000
00000000
,
00100000
00000000
00000000
00000000
,
00010000
00000000
00000000
00000000
,
00100000
00000000
00000000
00000000
,
00010000
00000000
00000000
00000000
,
10000000
00000000
00000000
00000000
,
01000000
00000000
00000000
00000000
,
10000000
00000000
00000000
00000000
,
01000000
00000000
00000000
00000000
,
00100000
00000000
00000000
00000000
,
00010000
00000000
00000000
00000000
,
00100000
00000000
00000000
00000000
,
00010000
00000000
00000000
00000000
,
01000000
00000000
00000000
00000000
,
00100000
00000000
00000000
00000000
,
01000000
00000000
00000000
00000000
,
00100000
00000000
00000000
00000000
,
10000000
00000000
00000000
00000000
,
00010000
00000000
00000000
00000000
,
10000000
00000000
00000000
00000000
,
00010000
00000000
00000000
00000000
,
01000000
00000000
00000000
00000000
,
00100000
00000000
00000000
00000000
,
01000000
00000000
00000000
00000000
,
00100000
00000000
00000000
00000000
,
10000000
00000000
00000000
00000000
,
00010000
00000000
00000000
00000000
,
10000000
00000000
00000000
00000000
,
00010000
00000000
00000000
00000000
,
01000000
00000000
00000000
00000000
,
00001000
00000000
00000000
00000000
,
01000000
00000000
00000000
00000000
,
00001000
00000000
00000000
00000000
,
01000000
00000000
00000000
00000000
,
00001000
00000000
00000000
00000000
,
01000000
00000000
00000000
00000000
,
00001000
00000000
00000000
00000000
,
00010000
00000000
00000000
00000000
,
00000100
00000000
00000000
00000000
,
00010000
00000000
00000000
00000000
,
00000100
00000000
00000000
00000000
,
00010000
00000000
00000000
00000000
,
00000100
00000000
00000000
00000000
,
00010000
00000000
00000000
00000000
,
00000100
00000000
00000000
00000000
,
00001000
00000000
00000000
00000000
,
00000001
00000000
00000000
00000000
,
00001000
00000000
00000000
00000000
,
00000001
00000000
00000000
00000000
,
00001000
00000000
00000000
00000000
,
00000001
00000000
00000000
00000000
,
00001000
00000000
00000000
00000000
,
00000001
00000000
00000000
00000000
,
00000010
00000000
00000000
00000000
,
00000100
00000000
00000000
00000000
,
00000010
00000000
00000000
00000000
,
00000100
00000000
00000000
00000000
,
00000010
00000000
00000000
00000000
,
00000100
00000000
00000000
00000000
,
00000010
00000000
00000000
00000000
,
00000100
00000000
00000000
00000000
,
00001000
00000000
00000000
00000000
,
00000001
00000000
00000000
00000000
,
00001000
00000000
00000000
00000000
,
00000001
00000000
00000000
00000000
,
00000100
00000000
00000000
00000000
,
00000001
00000000
00000000
00000000
,
00001000
00000000
00000000
00000000
,
00000001
00000000
00000000
00000000
,
00001000
00000000
00000000
00000000
,
00000100
00000000
00000000
00000000
,
00001000
00000000
00000000
00000000
,
00000001
00000000
00000000
00000000
,
00001000
00000000
00000000
00000000
,
00000001
00000000
00000000
00000000
,
00001000
00000000
00000000
00000000
,
00000010
00000000
00000000
00000000
,
00001000
00000000
00000000
00000000
,
00000001
00000000
00000000
00000000
,
00000010
00000000
00000000
00000000
,
00000001
00000000
00000000
00000000
,
00001000
00000000
00000000
00000000
,
00000001
00000000
00000000
00000000
,
00001000
00000000
00000000
00000000
,
00000100
00000000
00000000
00000000
,
00001000
00000000
00000000
00000000
,
00000001
00000000
00000000
00000000
,
00001000
00000000
00000000
00000000
,
00000001
00000000
00000000
00000000
,
00001000
00000000
00000000
00000000
,
00000001
00000000
00000000
00000000
,
00001000
00000000
00000000
00000000
,
00010000
00000000
00000000
00000000
,
10000000
00000000
00000000
00000000
,
02000000
00000000
00000000
00000000
,
00000000
00000000
00000000
00000000
,
03200000
00000000
00000000
00000000
,
00000000
00000000
00000000
00000000
,
00320000
00000000
00000000
00000000
,
00000000
00000000
00000000
00000000
,
00032000
00000000
00000000
00000000
,
00000000
00000000
00000000
00000000
,
00003200
00000000
00000000
00000000
,
00000000
00000000
00000000
00000000
,
00000320
00000000
00000000
00000000
,
00000000
00000000
00000000
00000000
,
00000030
00000000
00000000
00000000
,
00000100
00000000
00000000
00000000
,
00000010
00000000
00000000
00000000
,
00000100
00000000
00000000
00000000
,
00000010
00000000
00000000
00000000
,
00000100
00000000
00000000
00000000
,
00000010
00000000
00000000
00000000
,
00000100
00000000
00000000
00000000
,
00000010
00000000
00000000
00000000
,
00000100
00000000
00000000
00000000
,
00000001
00000000
00000000
00000000
,
00001000
00000000
00000000
00000000
,
00000001
00000000
00000000
00000000
,
00001000
00000000
00000000
00000000
,
00001000
00000000
00000000
00000000
,
00001000
00000000
00000000
00000000
,
00001000
00000000
00000000
00000000
,
00001000
00000000
00000000
00000000
,
00010000
00000000
00000000
00000000
,
00010000
00000000
00000000
00000000
,
00010000
00000000
00000000
00000000
,
00010000
00000000
00000000
00000000
,
00010000
00000000
00000000
00000000
,
00010000
00000000
00000000
00000000
,
00010000
00000000
00000000
00000000
,
00010000
00000000
00001000
00000000
,
00100000
00000000
00000000
00000000
,
01000000
00000000
00000000
00000000
,
00100000
00000000
00000000
00000000
,
01000000
00000000
00000000
00000000
,
00100000
00000000
00000000
00000000
,
01000000
00000000
00000000
00000000
,
00100000
00000000
00000000
00000000
,
01000000
00000000
00000000
00000000
,
10000000
00000000
00000000
00000000
,
01000000
00000000
00000000
00000000
,
10000000
00000000
00000000
00000000
,
01000000
00000000
00000000
00000000
,
00100000
00000000
00000000
00000000
,
01000000
00000000
00000000
00000000
,
10000000
00000000
00000000
00000000
,
01000000
00000000
00000000
00000000
,
00100000
00000000
00000000
00000000
,
01000000
00000000
00000000
00000000
,
10000000
00000000
00000000
00000000
,
00010000
00000000
00000000
00000000
,
01000000
00000000
00000000
00000000
,
00010000
00000000
00000000
00000000
,
01000000
00000000
00000000
00000000
,
00010000
00000000
00000000
00000000
,
01000000
00000000
00000000
00000000
,
00100000
00000000
00000000
00000000
,
01000000
00000000
00000000
00000000
,
00010000
00000000
00000000
00000000
,
01000000
00000000
00000000
00000000
,
00010000
00000000
00000000
00000000
,
01000000
00000000
00000000
00000000
,
00100000
00000000
00000000
00000000
,
10000000
00000000
00000000
00000000
,
00100000
00000000
00000000
00000000
,
01000000
00000000
00000000
00000000
,
00100000
00000000
00000000
00000000
,
01000000
00000000
00000000
00000000
,
00100000
00000000
00000000
00000000
,
10000000
00000000
00000000
00000000
,
01000000
00000000
00000000
00000000
,
10000000
00000000
00000000
00000000
,
00100000
00000000
00000000
00000000
,
01000000
00000000
00000000
00000000
,
00010000
00000000
00000000
00000000
,
10000000
00000000
00000000
00000000
,
00010000
00000000
00000000
00000000
,
10000000
00000000
00000000
00000000
,
00010000
00000000
00000000
00000000
,
01000000
00000000
00000000
00000000
,
00010000
00000000
00000000
00000000
,
01000000
00000000
00000000
00000000
,
00010000
00000000
00000000
00000000
,
01000000
00000000
00000000
00000000
,
00100000
00000000
00000000
00000000
,
01000000
00000000
00000000
00000000
,
00100000
00000000
01000000
00000000
,
00100000
00000000
01000000
00000000
,
00100000
00000000
02000000
00000000
,
00200000
00000000
00000000
00000000
,
00000000
00000000
00000000
00000000
,
00000000
00000000
00000000
00000000
,
03300000
00000000
00000000
00000000
;

//---------------dance-double - JDDD----------------
#NOTES:
     dance-double:
     JDDD:
     Hard:
     11:
     0.663,1.000,0.760,0.083,0.000,365.000,73.000,8.000,0.000,0.000:
00000000
00000000
00000000
00000000
,
00000000
00000000
00000000
00000000
,
00000000
00000000
00000000
00000000
,
00000000
00000000
00000000
00000000
,
00000000
00000000
00000000
00000000
,
00000000
00000000
00000000
00000000
,
00000000
00000000
00000000
00000000
,
00000000
00000000
00000000
00000000
,
10000000
00000000
00010000
00000000
,
00100000
00000000
01000000
00000000
,
10000000
00000000
00000000
01000000
,
00000000
00000000
00000000
00000000
,
01000000
00000000
00100000
00000000
,
01000000
00000000
00100000
00000000
,
10000000
00000000
00000000
01000000
,
00000000
00000000
00000000
00100000
,
00010000
00000000
01000000
00000000
,
00100000
00000000
10000000
00000000
,
01000000
00000000
00000000
00100000
,
00000000
00000000
00000000
01000000
,
10000000
00000000
00010000
00000000
,
01000000
00000000
00100000
00000000
,
10000000
00000000
00000000
10000000
,
00000000
00000000
00000000
01000000
,
00100000
00000000
00010000
00000000
,
10000000
00000000
00100000
00000000
,
01000000
00000000
00000000
01000000
,
00000000
00000000
00000000
01000000
,
00001000
00000000
00010000
00000000
,
00001000
00000000
00010000
00000000
,
00001000
00000000
00010000
00000000
,
00000100
00000000
00001000
00000000
,
00000100
00000000
00001000
00000000
,
00000100
00000000
00001000
00000000
,
00000100
00000000
00000010
00000000
,
00000100
00000000
00000010
00000000
,
00000001
00000000
00000010
00000000
,
00000001
00000000
00000010
00000000
,
00000001
00000000
00000100
00000000
,
00000001
00000000
00000100
00000000
,
00000001
00000000
00000100
00000000
,
00000010
00000000
00000100
00000000
,
00000010
00000000
00000100
00000000
,
00000010
00000000
00001000
00000000
,
00000010
00000000
00001000
00000000
,
00000100
00000000
00001000
00000000
,
00000010
00000000
00000100
00000000
,
00000010
00000000
00001000
00000000
,
00000100
00000000
00000010
00000000
,
00000100
00000000
00001000
00000000
,
00000010
00000000
00000100
00000000
,
00000010
00000000
00001000
00000000
,
00000001
00000000
00000010
00000000
,
00000100
00000000
00001000
00000000
,
00000100
00000000
00010000
00000000
,
00001000
00000000
01000000
00000000
,
00010000
00000000
10000000
00000000
,
00100000
00000000
10000000
00000000
,
01000000
00000000
10000000
00000000
,
01000000
00000000
00100000
00000000
,
01000000
00000000
10000000
00000000
,
00100000
00000000
01000000
00000000
,
00001000
00000000
01000000
00000000
,
00010000
00000000
01000000
00000000
,
00010000
00000000
00100000
00000000
,
00001000
00000000
00010000
00000000
,
00000100
00000000
00001000
00000000
,
00000010
00000000
00001000
00000000
,
00000001
00000000
00000100
00000000
,
00000010
00000000
00001000
00000000
,
00001010
00000000
00000000
00000000
,
00000101
00000000
00000000
00000000
,
00000101
00000000
00000000
00000000
,
00001010
00000000
00000000
00000000
,
00001010
00000000
00000000
00000000
,
00010010
00000000
00000000
00000000
,
00010010
00000000
00000000
00000000
,
00001010
00000000
00000000
00000000
,
00000101
00000000
00000000
00000000
,
00001010
00000000
00000000
00000000
,
00001100
00000000
00000000
00000000
,
00001100
00000000
00000000
00000000
,
00001010
00000000
00000000
00000000
,
00001100
00000000
00000000
00000000
,
00010100
00000000
00000000
00000000
,
00010100
00000000
00000000
00000000
,
00010100
00000000
00000000
00000000
,
00011000
00000000
00000000
00000000
,
00011000
00000000
00000000
00000000
,
00011000
00000000
00000000
00000000
,
01001000
00000000
00000000
00000000
,
01000000
00100000
01000000
00100000
,
01000000
00000000
00000000
00000000
,
00100000
00000000
00000000
00000000
,
10000000
00000000
00000000
00000000
,
01000000
00000000
00000000
00000000
,
11000000
00000000
00000000
00000000
,
01000000
00000000
00000000
00000000
,
00100000
00000000
00000000
00000000
,
01000000
00000000
00000000
00000000
,
00100000
00000000
00000000
00000000
,
00010000
00000000
00000000
00000000
,
00110000
00000000
00110000
00000000
,
00110000
00000000
00110000
00000000
,
00110000
00000000
11000000
00000000
,
11000000
00000000
11000000
00000000
,
11000000
00000000
10010000
00000000
,
10010000
00000000
10010000
00000000
,
10000000
01000000
10000000
01000000
,
00100000
01000000
00100000
00010000
,
00100000
00010000
00100000
01000000
,
00100000
00010000
00100000
00010000
,
00100000
01000000
00100000
01000000
,
10000000
01000000
10000000
00100000
,
20000000
00000000
00000000
00000000
,
00000000
00000000
00000000
00000000
,
30020000
00000000
00000000
00000000
,
00000000
00000000
00000000
00000000
,
00032000
00000000
00000000
00000000
,
00000000
00000000
00000000
00000000
,
00003002
00000000
00000000
00000000
,
00000000
00000000
00000000
00000000
,
00000203
00000000
00000000
00000000
,
00000000
00000000
00000000
00000000
,
00002300
00000000
00000000
00000000
,
00000000
00000000
00000000
00000000
,
00013000
00000000
00100000
00000000
,
01000000
00000000
10000000
00000000
,
11000000
00000000
00110000
00000000
,
00110000
00000000
00110000
00000000
,
10010000
00000000
10010000
00000000
,
10010000
00000000
10010000
00000000
,
11000000
00000000
11000000
00000000
,
11000000
00000000
11000000
00000000
,
11000000
00000000
10010000
00000000
,
10010000
00000000
11000000
00000000
,
11000000
00000000
01000000
00000000
,
01000000
00000000
01000000
00000000
,
10000000
01000000
00100000
00010000
,
01000000
00100000
10000000
01000000
,
00100000
00010000
01000000
00100000
,
10000000
01000000
00100000
00010000
,
10000000
00000000
00010000
00000000
,
00000000
00000000
00010000
00000000
,
00000000
00000000
00001000
00000000
,
00000000
00000000
00001000
00000000
,
00000000
00000000
00000100
00000000
,
00000000
00000000
00000100
00000000
,
00000000
00000000
00000100
00000000
,
00000000
00000000
00000100
00000000
,
00000000
00000000
00000010
00000000
,
00000000
00000000
00000010
00000000
,
00000000
00000000
00000001
00000000
,
00000000
00000000
00000001
00000000
,
00000000
00000000
00000010
00000000
,
00000000
00000000
00000010
00000000
,
00000000
00000000
00000010
00000000
,
00000000
00000000
00000010
00000000
,
00000000
00000000
00000100
00000000
,
00000000
00000000
00000100
00000000
,
00000000
00000000
00001000
00000000
,
00000000
00000000
00001000
00000000
,
00000000
00000000
00010000
00000000
,
00000000
00000000
00010000
00000000
,
00000000
00000000
00100000
00000000
,
00000000
00000000
00100000
00000000
,
00000000
00000000
01000000
00000000
,
00000000
00000000
01000000
00000000
,
00000000
00000000
01000000
00000000
,
00000000
00000000
01000000
00000000
,
10000000
00000000
11000000
00000000
,
11000000
00000000
01100000
00000000
,
01100000
00000000
00110000
00000000
,
00110000
00000000
01100000
00000000
,
01100000
00000000
11000000
00000000
,
11000000
00000000
01100000
00000000
,
11000000
00000000
01100000
00000000
,
11000000
00000000
00010000
00000000
,
01000000
00000000
00010000
00000000
,
01000000
00000000
00100000
00000000
,
10000000
01000000
00100000
01000000
,
10000000
00010000
01000000
00100000
,
01000000
00010000
10000000
00100000
,
01000000
00010000
10000000
00100000
,
10000000
00010000
00100000
01000000
,
10000000
00010000
01000000
00010000
,
01010000
00000000
00000000
00000000
,
11000000
00000000
00000000
00000000
,
10010000
00000000
00000000
00000000
,
01010000
00000000
00000000
00000000
,
00010000
00000000
00100000
00000000
,
00010000
00000000
00100000
00000000
,
00001000
00000000
00100000
00000000
,
00001000
00000000
00100000
00000000
,
00001000
00000000
00010000
00000000
,
00000100
00000000
00010000
00000000
,
00000100
00000000
00010000
00000000
,
00000100
00000000
00001000
00000000
,
00001010
00000000
00001000
00000000
,
00000100
00000000
00000010
00000000
,
00000011
00000000
00000010
00000000
,
00000100
00000000
00001000
00000000
,
00001001
00000000
00000001
00000000
,
00000100
00000000
00000010
00000000
,
00001000
00000001
00001000
00000010
,
00000100
00000001
00000010
00000100
,
00001000
00000001
00000100
00000001
,
00000010
00000100
00001000
00000010
,
00001000
00000001
00000010
00000100
,
00001000
00000010
00001000
00000100
,
00002200
00000000
00000000
00000000
,
00000000
00000000
00000000
00000000
,
00000000
00000000
00000000
00000000
,
00003300
00000000
00000000
00000000
;

//---------------dance-double - JDDD----------------
#NOTES:
     dance-double:
     JDDD:
     Challenge:
     12:
     1.000,1.000,0.271,0.198,0.000,644.000,26.000,19.000,0.000,0.000:
00000000
00000000
00000000
00000000
,
00000000
00000000
00000000
00000000
,
00000000
00000000
00000000
00000000
,
00000000
00000000
00000000
00000000
,
00000000
00000000
00000000
00000000
,
00000000
00000000
00000000
00000000
,
00000000
00000000
00000000
00000000
,
00000000
00000000
00000000
00000000
,
00010000
00001000
00010000
00001000
,
00010000
00001000
00010000
00001000
,
00010000
00001000
00010000
00001000
,
00010000
00001000
00010000
00000000
,
00000100
00001000
00000100
00001000
,
00000100
00001000
00000100
00001000
,
00000100
00000010
00000100
00000010
,
00000100
00000010
00000100
00000000
,
00000010
00000001
00000010
00000001
,
00000010
00000001
00000010
00000001
,
00000100
00000001
00000100
00000001
,
00000100
00000001
00000100
00000000
,
00000100
00000010
00000100
00000010
,
00000100
00000010
00000100
00000010
,
00001000
00000010
00001000
00000010
,
00001000
00000010
00001000
00000000
,
00001000
00010000
00001000
00010000
,
00001000
00010000
00001000
00010000
,
00001000
00100000
00001000
00100000
,
00001000
00100000
00001000
00000000
,
00010000
00100000
00010000
00100000
,
00010000
00100000
00010000
00100000
,
00010000
00100000
00010000
00100000
,
00010000
00100000
00010000
00000000
,
00100000
01000000
10000000
01000000
,
00100000
01000000
10000000
01000000
,
00100000
00010000
01000000
00100000
,
01000000
00010000
00100000
00000000
,
00100000
00010000
00100000
00010000
,
00100000
00010000
00100000
00010000
,
00100000
00001000
00100000
00001000
,
00100000
00001000
00100000
00000000
,
00010000
00001000
00010000
00001000
,
00010000
00001000
00010000
00001000
,
00010000
00000100
00010000
00000100
,
00010000
00000100
00010000
00000000
,
00001000
00000100
00001000
00000100
,
00001000
00000100
00001000
00000100
,
00000010
00000001
00000010
00000001
,
00000010
00000001
00000010
00000000
,
00000010
00000100
00000010
00000100
,
00000010
00000001
00000010
00000001
,
00000010
00000100
00000010
00000100
,
00001000
00000100
00001000
00000000
,
00010000
00001000
00010000
00001000
,
00010000
00001000
00010000
00001000
,
00010000
00001000
00010000
00001000
,
00010000
00001000
00010000
00000000
,
00100000
01000000
10000000
01000000
,
00100000
00010000
01000000
00010000
,
10000000
00100000
10000000
01000000
,
10000000
01000000
00100000
00000000
,
00100000
01000000
00100000
01000000
,
10000000
00010000
01000000
00100000
,
01000000
00100000
01000000
10000000
,
01000000
00100000
10000000
00000000
,
00010000
00100000
01000000
00100000
,
01000000
00100000
01000000
10000000
,
01000000
00100000
01000000
00100000
,
01000000
00100000
00010000
00000000
,
00010000
00100000
00010000
00100000
,
01000000
00100000
00010000
01000000
,
00100000
01000000
00100000
01000000
,
00100000
01000000
00100000
00000000
,
10000000
01000000
10000000
01000000
,
10000000
01000000
10000000
01000000
,
00100000
01000000
00100000
01000000
,
00010000
01000000
00000000
00000000
,
01000000
00100000
01000000
00100000
,
01000000
00100000
01000000
00100000
,
00010000
00100000
00010000
00100000
,
00010000
00100000
00010000
00000000
,
00010000
00001000
00010000
00001000
,
00010000
00001000
00010000
00000000
,
00001000
00000100
00001000
00000100
,
00001000
00000100
00001000
00000000
,
00000100
00000010
00000100
00000010
,
00000100
00000010
00000100
00000010
,
00000001
00000010
00000001
00000010
,
00000001
00000010
00000001
00000000
,
00000001
00000100
00000001
00000100
,
00000001
00000100
00000001
00000100
,
00000001
00000100
00000001
00000100
,
00000001
00000100
00000001
00000000
,
00001000
00000010
00001000
00000010
,
00001000
00000100
00001000
00000100
,
00001000
00000010
00001000
00000000
,
00000010
00000100
00000010
00000100
,
00000010
00001000
00000010
00001000
,
00000010
00001000
00000100
00001000
,
00000100
00001000
00000100
00000000
,
00010000
00001000
00010000
00001000
,
00010000
00001000
00010000
00001000
,
00010000
00001000
00010000
00000000
,
00010000
01000000
00010000
01000000
,
00010000
01000000
00010000
01000000
,
00100000
01000000
00100000
01000000
,
00100000
01000000
00100000
00000000
,
10000000
00100000
10000000
00100000
,
10000000
00100000
10000000
00100000
,
01000000
00100000
01000000
00100000
,
10000000
01000000
00100000
00000000
,
00100000
00010000
00100000
00010000
,
00100000
00010000
00100000
01000000
,
00100000
01000000
00100000
01000000
,
10000000
00000000
11000000
00000000
,
22000000
00000000
00000000
00000000
,
00000000
00000000
00000000
00000000
,
00000000
00000000
00000000
00000000
,
00000000
00000000
00000000
00000000
,
00000000
00000000
00000000
00000000
,
00000000
00000000
00000000
00000000
,
00000000
00000000
00000000
00000000
,
00000000
00000000
00000000
00000000
,
00000000
00000000
00000000
00000000
,
33000000
00000000
00000000
00000000
,
00000000
00000000
00000000
00000000
,
00000000
00000000
00000000
00000000
,
00000001
00000000
00000100
00000000
,
00000001
00000000
00000100
00000000
,
00000001
00000100
00000001
00000100
,
00000010
00001000
00000010
00000000
,
00001000
00000000
00000100
00000000
,
00001000
00000000
00000100
00000000
,
00000010
00000001
00000100
00000010
,
00001000
00000010
00001000
00000000
,
00000100
00001000
00000100
00001000
,
00000100
00001000
00000100
00000000
,
00000100
00010000
00000100
00010000
,
00000100
00010000
00000100
00000000
,
00010000
00000100
00010000
00000100
,
00010000
00000100
00010000
00000000
,
00001000
00010000
00001000
00010000
,
00001000
00010000
00001000
00000000
,
00010000
00001000
00010000
00001000
,
00010000
00001000
00010000
00000000
,
00001000
00100000
00001000
00100000
,
00001000
00100000
00001000
00000000
,
00100000
00010000
00100000
00010000
,
00100000
00010000
00100000
00000000
,
00010000
00100000
00010000
00100000
,
00010000
00100000
00010000
00000000
,
00100000
01000000
00100000
01000000
,
00100000
01000000
00100000
00000000
,
01000000
00100000
01000000
00100000
,
01000000
00100000
01000000
00000000
,
10000000
01000000
10000000
01000000
,
10000000
01000000
10000000
00000000
,
01000000
10000000
01000000
10000000
,
01000000
10000000
01000000
00000000
,
00010000
01000000
00010000
01000000
,
00010000
00000000
00100000
10000000
,
00100000
10000000
00100000
00000000
,
01000000
00010000
00100000
01000000
,
20000000
30010000
01000000
00000000
,
00100000
10000000
00010000
00100000
,
01000000
10000000
00010000
01000000
,
00010000
01000000
00100000
10000000
,
00100000
01000000
00010000
10000000
,
01000000
10000000
00100000
01000000
,
00010000
00100000
00010000
01000000
,
00100000
10000000
00010000
00100000
,
01000000
00000000
11000000
00000000
,
11000000
00000000
11000000
00000000
,
11000000
00000000
00110000
00000000
,
00110000
00000000
00110000
00000000
,
00110000
00000000
00110000
00000000
,
00110000
00000000
00000000
00000000
,
00011000
00000000
00011000
00000000
,
00011000
00000000
00000000
00000000
,
00001100
00000000
00001100
00000000
,
00001100
00000000
00001100
00000000
,
00000110
00000000
00000110
00000000
,
00000110
00000000
00000110
00000000
,
00000010
00000001
00000010
00000001
,
00000010
00000001
00000010
00000000
,
00001000
00000100
00001000
00000100
,
00001000
00000100
00001000
00000000
,
00000010
00001000
00000100
00001000
,
00000010
00001000
00000010
00001000
,
00000010
00001000
00000010
00000000
,
00000100
00000001
00000100
00000001
,
00000100
00000001
00000100
00000001
,
00000100
00000001
00000100
00000001
,
00000100
00000001
00000100
00000000
,
00001000
00000010
00001000
00000010
,
00001000
00000010
00001000
00000000
,
00000000
00000000
00000000
00000000
,
00011000
00000000
00011000
00000000
,
00010100
00000000
00001000
00000000
,
00000100
00000000
00000010
00000000
,
00000001
00000000
00000100
00000000
,
00000010
00000000
00001000
00000000
,
00000100
00000000
00001000
00000000
,
00000001
00000000
00000200
00000000
,
00000320
00000000
00002030
00000000
,
00003200
00000000
00000302
00000000
,
00000203
00000000
00002300
00000000
,
00003020
00000000
00000230
00000000
,
00000302
00000000
00000203
00000000
,
00002300
00000000
00003200
00000000
,
00000302
00000000
00000023
00000000
,
00000200
00000000
00000000
00000000
,
00000000
00000000
00000000
00000000
,
00000000
00000000
00000000
00000000
,
00000000
00000000
00000000
00000000
,
00000000
00000000
00000000
00000000
,
00000000
00000000
00000000
00000030
00000300
00000000
00000000
00000000
;

//---------------dance-solo - JDDD----------------
#NOTES:
     dance-solo:
     JDDD:
     Hard:
     11:
     0.382,1.000,0.198,0.115,0.000,227.000,19.000,11.000,466.000,0.000:
00M000
000000
000000
000000
,
M00000
000000
000000
000000
,
0000M0
000000
000000
000000
,
00M000
000000
000000
000000
,
000000
000000
000000
000000
,
00000M
000000
000000
000000
,
000000
000000
000000
000000
,
00M000
000000
000000
000000
,
000000
000000
000000
000000
,
000M00
000000
000000
000000
,
000000
000000
000000
000000
,
M00000
000000
000000
000000
,
100000
000000
000000
000000
,
101M00
000000
000000
000000
,
100000
000000
000000
000000
,
00100M
000000
000000
000000
,
000100
000000
000000
000000
,
0M0001
000000
000000
000000
,
001000
000000
000000
000000
,
0M0100
000000
000000
000000
,
001000
000000
000000
000000
,
M00100
000000
000000
000000
,
100000
000000
000000
000000
,
0001M0
000000
000000
000000
,
001000
000000
000000
000000
,
0M0001
000000
000000
000000
,
001000
000000
000000
000000
,
00010M
000000
000000
000000
,
100000
000000
000000
000000
,
0M0001
000000
000000
000000
,
000100
000000
000000
000000
,
0010M0
000000
000000
000000
,
000100
000000
000000
000000
,
M01000
000000
000000
000000
,
100000
000000
000000
000000
,
01000M
000000
000000
000000
,
001000
000000
000000
000000
,
0M0100
000000
000000
000000
,
000010
000000
000000
000000
,
0M0001
000000
000000
000000
,
100000
000000
000000
000000
,
00010M
000000
000000
000000
,
001000
000000
000000
000000
,
M00001
000000
000000
000000
,
000100
000000
000000
000000
,
0M0001
000000
000000
000000
,
001000
000000
000000
000000
,
M00001
000000
000000
000000
,
001000
000000
000000
000000
,
0001M0
000000
000000
000000
,
100000
000000
000000
000000
,
00100M
000000
000000
000000
,
100000
000000
000000
000000
,
0M0010
000000
000000
000000
,
100000
000000
000000
000000
,
M0100M
000000
000000
000000
,
100000
000000
000000
000000
,
M00100
000000
000000
000000
,
001000
000000
000000
000000
,
M00001
000000
000000
000000
,
000100
000000
000000
000000
,
00M001
000000
000000
000000
,
001000
000000
000000
000000
,
00010M
000000
000000
000000
,
100000
000000
000000
000000
,
0M0001
000000
000000
000000
,
001000
000000
000000
000000
,
000M01
000000
000000
000000
,
000100
000000
000000
000000
,
00M001
000000
000000
000000
,
001000
000000
000000
000000
,
0M0100
000000
000000
000000
,
010000
000000
000000
000000
,
001M00
000000
000000
000000
,
000100
000000
000000
000000
,
M00010
000000
000000
000000
,
000001
000000
000000
000000
,
00M010
000000
000000
000000
,
001000
000000
000000
000000
,
00010M
000000
000000
000000
,
100000
000000
000000
000000
,
00100M
000000
000000
000000
,
100000
000000
000000
000000
,
0M0100
000000
000000
000000
,
001000
000000
000000
000000
,
0010M1
000000
000000
000000
,
000100
000000
000000
000000
,
M01000
000000
000000
000000
,
000100
000000
000000
000000
,
11000M
000000
000000
000000
,
001000
000000
000000
000000
,
1000M0
000000
000000
000000
,
000100
000000
000000
000000
,
M01000
000000
000000
000000
,
000001
000000
000000
000000
,
M010M0
000000
000000
000000
,
000001
000000
000000
000000
,
00M10M
000000
000000
000000
,
000001
000000
000000
000000
,
0010M0
000000
000000
000000
,
000100
000000
000000
000000
,
10M000
000000
000000
000000
,
000001
000000
000000
000000
,
M010M0
000000
000000
000000
,
000001
000000
000000
000000
,
0M0100
000000
000000
000000
,
001000
000000
000000
000000
,
10000M
001000
100000
001000
,
00010M
001000
000100
001000
,
M00100
000001
000100
000001
,
M01000
000001
001000
000001
,
00100M
000100
001000
000100
,
10000M
000100
100000
000100
,
10000M
001000
100000
010000
,
2MMMMM
0MMMMM
0MMMMM
0MMMMM
,
0MMMMM
0MMMMM
0MMMMM
00MMMM
,
32MMMM
00MMMM
M0MMMM
M0MMMM
,
M0MMMM
M0MMMM
M0MMMM
M00MMM
,
M32MMM
M00MMM
MM0MMM
MM0MMM
,
MM0MMM
MM0MMM
MM0MMM
MM00MM
,
MM32MM
MM00MM
MMM0MM
MMM0MM
,
MMM0MM
MMM0MM
MMM0MM
MMM00M
,
MMM32M
MMM00M
MMMM0M
MMMM0M
,
MMMM0M
MMMM0M
MMMM0M
MMMM00
,
MMMM32
MMMM00
MMMMM0
MMMMM0
,
MMMMM0
MMMMM0
MMMMM0
MMMMM0
,
1MMMM3
000000
000000
000000
,
101000
000000
000000
000000
,
100100
000000
000000
000000
,
100000
000000
000000
000000
,
001000
000000
000000
000000
,
000100
000000
000000
000000
,
001000
000000
000000
000000
,
100000
000000
000000
000000
,
000100
000000
000000
000000
,
001000
000000
000000
000000
,
000100
000000
000000
000000
,
100000
000000
000000
000000
,
001000
000000
000000
000000
,
000100
000000
000000
000000
,
001000
000000
000000
000000
,
000100
000000
000000
000000
,
000001
000000
000000
000000
,
001000
000000
000000
000000
,
000001
000000
000000
000000
,
001000
000000
000000
000000
,
000100
000000
000000
000000
,
100000
000000
000000
000000
,
000100
000000
000000
000000
,
100000
000000
000000
000000
,
000100
000000
000000
000000
,
001000
000000
000000
000000
,
000100
000000
000000
000000
,
010000
000000
000000
000000
,
000100
000000
000000
000000
,
001000
000000
000000
000000
,
000100
000000
000000
000000
,
100000
000000
000000
000000
,
000001
000000
000000
000000
,
000100
000000
000000
000000
,
001000
000000
000000
000000
,
000100
000000
000000
000000
,
000001
000000
000000
000000
,
001000
000000
000000
000000
,
000001
000000
000000
000000
,
001000
000000
000000
000000
,
000100
000000
000000
000000
,
100000
000000
000000
000000
,
000001
000000
000000
000000
,
000100
000000
000000
000000
,
000001
000000
000000
000000
,
001100
000000
000000
000000
,
000101
000000
000000
000000
,
001001
000000
000000
000000
,
001100
000000
000000
000000
,
100000
000000
000000
000000
,
000100
000000
000000
000000
,
001000
000000
000000
000000
,
000001
000000
000000
000000
,
100000
000000
000000
000000
,
001000
000000
000000
000000
,
100000
000000
000000
000000
,
000100
000000
000000
000000
,
001000
000000
000000
000000
,
000100
000000
000000
000000
,
001000
000000
000000
000000
,
000100
000000
000000
000000
,
010000
000000
000000
000000
,
000100
000000
000000
000000
,
010000
000000
000000
000000
,
010010
000000
000000
000000
,
001100
000000
000000
000000
,
010010
000000
000000
000000
,
001100
000000
000000
000000
,
010010
000000
000000
000000
,
001100
000000
000000
000000
,
010010
000000
000000
000000
,
001100
000000
000000
000000
,
100000
000000
001000
000000
,
000100
000000
001000
000000
,
000100
000000
000001
000000
,
001000
000000
000100
000000
,
001000
000000
000001
000000
,
100000
000000
000100
000000
,
001000
000000
000100
000000
,
100000
000000
001000
000000
,
100000
000000
010000
000000
,
200000
300000
001000
000000
,
000100
000000
000001
000000
,
001000
000000
000100
000000
,
02MM2M
M00M0M
M0M00M
M0MM00
,
00MM0M
M00M0M
M0M00M
M0MM00
,
00MM0M
M00M0M
M0M00M
M0MM00
,
00MM0M
M00M0M
M0M00M
M0MM00
,
00MM0M
M00M0M
M0M00M
M0MM00
,
00MM0M
M00M0M
M0M00M
M0MM00
,
00MM0M
M00M0M
M3M03M
M2MM20
,
00MM0M
M00M0M
M0M00M
M0MM00
,
00MM0M
M00M0M
M0M00M
M0MM00
,
00MM0M
M00M0M
M0M00M
M0MM00
,
00MM0M
M00M0M
M0M00M
M0MM00
,
00MM0M
M00M0M
M0M00M
M0MM00
,
M0M00M
M00M0M
00MM0M
M00M0M
,
M0M00M
M0MM00
M0M00M
M00M0M
,
03MM3M
000000
000000
000000
;

//---------------dance-solo - JDDD----------------
#NOTES:
     dance-solo:
     JDDD:
     Medium:
     6:
     0.278,0.802,0.281,0.281,0.000,133.000,27.000,27.000,12.000,0.000:
000000
000000
000000
000000
,
000000
000000
000000
000000
,
000000
000000
000000
000000
,
000000
000000
000000
000000
,
000000
000000
000000
000000
,
000000
000000
000000
000000
,
000000
000000
000000
000000
,
000000
000000
000000
000000
,
000000
000000
000000
000000
,
000000
000000
000000
000000
,
000000
000000
000000
000000
,
000000
000000
000000
000000
,
000000
000000
000000
000000
,
000000
000000
000000
000000
,
000000
000000
000000
000000
,
000000
000000
000000
000000
,
000000
000000
000000
000000
,
000000
000000
000000
000000
,
100001
000000
000000
000000
,
000000
000000
000000
000000
,
100001
000000
000000
000000
,
000000
000000
000000
000000
,
100001
000000
000000
000000
,
000000
000000
000000
000000
,
100001
000000
000000
000000
,
000000
000000
000000
000000
,
001100
000000
000000
000000
,
000000
000000
000000
000000
,
001100
000000
000000
000000
,
000000
000000
000000
000000
,
001100
000000
000000
000000
,
000000
000000
000000
000000
,
001200
000000
000000
000000
,
000000
000000
000000
000000
,
010000
000000
000000
000000
,
000000
000000
000000
000000
,
010000
000000
000000
000000
,
000000
000000
000000
000000
,
010000
000000
000000
000000
,
000000
000000
000000
000000
,
200300
000000
000000
000000
,
000000
000000
000000
000000
,
001000
000000
000000
000000
,
000000
000000
000000
000000
,
001000
000000
000000
000000
,
000000
000000
000000
000000
,
001000
000000
000000
000000
,
000000
000000
000000
000000
,
301000
000000
000000
000000
,
000000
000000
000000
000000
,
100000
000000
000000
000000
,
000000
000000
000000
000000
,
100000
000000
000000
000000
,
000000
000000
000000
000000
,
100000
000000
000000
000000
,
000000
000000
000000
000000
,
100000
000000
000000
000000
,
000000
000000
000000
000000
,
000100
000000
000000
000000
,
000000
000000
000000
000000
,
000100
000000
000000
000000
,
000000
000000
000000
000000
,
100000
000000
000000
000000
,
000000
000000
000000
000000
,
000100
000000
000000
000000
,
000000
000000
000000
000000
,
100000
000000
000000
000000
,
000000
000000
000000
000000
,
000100
000000
000000
000000
,
000000
000000
000000
000000
,
100000
000000
000000
000000
,
000000
000000
000000
000000
,
000001
000000
000000
000000
,
000000
000000
000000
000000
,
001000
000000
000000
000000
,
000000
000000
000000
000000
,
000001
000000
000000
000000
,
000000
000000
000000
000000
,
001000
000000
000000
000000
,
000000
000000
000000
000000
,
000001
000000
000000
000000
,
000000
000000
000000
000000
,
001000
000000
000000
000000
,
000000
000000
000000
000000
,
000100
000000
000000
000000
,
000000
000000
000000
000000
,
000001
000000
000000
000000
,
000000
000000
000000
000000
,
001000
000000
000000
000000
,
000000
000000
000000
000000
,
000001
000000
000000
000000
,
000000
000000
000000
000000
,
001000
000000
000000
000000
,
000000
000000
000000
000000
,
000001
000000
000000
000000
,
000000
000000
000000
000000
,
100000
000000
000000
000000
,
000000
000000
000000
000000
,
001100
000000
000000
000000
,
000000
000000
000000
000000
,
000100
000000
000000
000000
,
000000
000000
000000
000000
,
100000
000000
000000
000000
,
000000
000000
000000
000000
,
000100
000000
000000
000000
,
000000
000000
000000
000000
,
010000
000000
000000
000000
,
000000
000000
000000
000000
,
100000
000000
000000
000000
,
000000
000000
000000
000000
,
021000
000000
000000
000000
,
001000
000000
000000
000000
,
001000
000000
000000
000000
,
000000
000000
000000
000000
,
001000
000000
000000
000000
,
000000
000000
000000
000000
,
000000
000000
000000
000000
,
000000
000000
000000
000000
,
000000
000000
000000
000000
,
000000
000000
000000
000000
,
000000
000000
000000
000000
,
000000
000000
000000
000000
,
000000
000000
000000
000000
,
000000
000000
000000
000000
,
000000
000000
000000
000000
,
000000
000000
000000
000000
,
030000
000000
100000
000000
,
001000
000000
100000
000000
,
001000
000000
100000
000000
,
001000
000000
100000
000000
,
001000
000000
000000
000000
,
101000
000000
000000
000000
,
101000
000000
000000
000000
,
000000
000000
000000
000000
,
101000
000000
000000
000000
,
000000
000000
000000
000000
,
001100
000000
000000
000000
,
000000
000000
000000
000000
,
001100
000000
000000
000000
,
000000
000000
000000
000000
,
001100
000000
000000
000000
,
000000
000000
000000
000000
,
001100
000000
000000
000000
,
000000
000000
000000
000000
,
001100
000000
000000
000000
,
000000
000000
000000
000000
,
100001
000000
000000
000000
,
000000
000000
000000
000000
,
100000
000000
000000
000000
,
000000
000000
000000
000000
,
100001
000000
000000
000000
,
000000
000000
000000
000000
,
100001
000000
000000
000000
,
000000
000000
000000
000000
,
100001
000000
000000
000000
,
000000
000000
000000
000000
,
001100
000000
000000
000000
,
000000
000000
000000
000000
,
001100
000000
000000
000000
,
000000
000000
000000
000000
,
001100
000000
000000
000000
,
000000
000000
000000
000000
,
001100
000000
000000
000000
,
000000
000000
000000
000000
,
001100
000000
000000
000000
,
000000
000000
000000
000000
,
001000
000000
000000
000000
,
000000
000000
000000
000000
,
000100
000000
000000
000000
,
000000
000000
000000
000000
,
100000
000000
000000
000000
,
000000
000000
000000
000000
,
100000
000000
000000
000000
,
000000
000000
000000
000000
,
100000
000000
000000
000000
,
000000
000000
000000
000000
,
100000
000000
000000
000000
,
000000
000000
000000
000000
,
100000
000000
000000
000000
,
000000
000000
000000
000000
,
001000
000000
000000
000000
,
000000
000000
000000
000000
,
000100
000000
000000
000000
,
000000
000000
000000
000000
,
100000
000000
000000
000000
,
001000
000000
000000
000000
,
200000
300000
000000
000000
000000
000000
000000
000000
000000
000000
000000
000000
000000
000000
000000
000000
000000
000000
000000
000000
000000
000000
000000
000000
000000
000000
000000
000000
000000
000000
000000
000000
001000
000000
000000
000000
000000
000000
000000
000000
000000
000000
000000
000000
000000
000000
000000
000000
000000
000000
000000
000000
000000
000000
000000
000000
000000
000000
000000
000000
000000
000000
000000
000000
,
200000
300000
000000
000000
000000
000000
000000
000000
000000
000000
000000
000000
000000
000000
000000
000000
000000
000000
000000
000000
000000
000000
000000
000000
000000
000000
000000
000000
000000
000000
000000
000000
001000
000000
000000
000000
000000
000000
000000
000000
000000
000000
000000
000000
000000
000000
000000
000000
000000
000000
000000
000000
000000
000000
000000
000000
000000
000000
000000
000000
000000
000000
000000
000000
,
200000
300000
000000
000000
000000
000000
000000
000000
000000
000000
000000
000000
000000
000000
000000
000000
000000
000000
000000
000000
000000
000000
000000
000000
000000
000000
000000
000000
000000
000000
000000
000000
001000
000000
000000
000000
000000
000000
000000
000000
000000
000000
000000
000000
000000
000000
000000
000000
000000
000000
000000
000000
000000
000000
000000
000000
000000
000000
000000
000000
000000
000000
000000
000000
,
200000
300000
000000
000000
000000
000000
000000
000000
000000
000000
000000
000000
000000
000000
000000
000000
000000
000000
000000
000000
000000
000000
000000
000000
000000
000000
000000
000000
000000
000000
000000
000000
001000
000000
000000
000000
000000
000000
000000
000000
000000
000000
000000
000000
000000
000000
000000
000000
000000
000000
000000
000000
000000
000000
000000
000000
000000
000000
000000
000000
000000
000000
000000
000000
,
200000
300000
000000
000000
000000
000000
000000
000000
000000
000000
000000
000000
000000
000000
000000
000000
000000
000000
000000
000000
000000
000000
000000
000000
000000
000000
000000
000000
000000
000000
000000
000000
001000
000000
000000
000000
000000
000000
000000
000000
000000
000000
000000
000000
000000
000000
000000
000000
000000
000000
000000
000000
000000
000000
000000
000000
000000
000000
000000
000000
000000
000000
000000
000000
,
200000
300000
000000
000000
000000
000000
000000
000000
000000
000000
000000
000000
000000
000000
000000
000000
000000
000000
000000
000000
000000
000000
000000
000000
000000
000000
000000
000000
000000
000000
000000
000000
001000
000000
000000
000000
000000
000000
000000
000000
000000
000000
000000
000000
000000
000000
000000
000000
000000
000000
000000
000000
000000
000000
000000
000000
000000
000000
000000
000000
000000
000000
000000
000000
,
200000
300000
000000
000000
000000
000000
000000
000000
000000
000000
000000
000000
000000
000000
000000
000000
000000
000000
000000
000000
000000
000000
000000
000000
000000
000000
000000
000000
000000
000000
000000
000000
001000
000000
000000
000000
000000
000000
000000
000000
000000
000000
000000
000000
000000
000000
000000
000000
000000
000000
000000
000000
000000
000000
000000
000000
000000
000000
000000
000000
000000
000000
000000
000000
,
200000
300000
000000
000000
000000
000000
000000
000000
000000
000000
000000
000000
000000
000000
000000
000000
000000
000000
000000
000000
000000
000000
000000
000000
000000
000000
000000
000000
000000
000000
000000
000000
001000
000000
000000
000000
000000
000000
000000
000000
000000
000000
000000
000000
000000
000000
000000
000000
000000
000000
000000
000000
000000
000000
000000
000000
000000
000000
000000
000000
000000
000000
000000
000000
,
200000
300000
000000
000000
000000
000000
000000
000000
000000
000000
000000
000000
000000
000000
000000
000000
000000
000000
000000
000000
000000
000000
000000
000000
000000
000000
000000
000000
000000
000000
000000
000000
001000
000000
000000
000000
000000
000000
000000
000000
000000
000000
000000
000000
000000
000000
000000
000000
000000
000000
000000
000000
000000
000000
000000
000000
000000
000000
000000
000000
000000
000000
000000
000000
,
200000
300000
000000
000000
000000
000000
000000
000000
000000
000000
000000
000000
000000
000000
000000
000000
000000
000000
000000
000000
000000
000000
000000
000000
000000
000000
000000
000000
000000
000000
000000
000000
001000
000000
000000
000000
000000
000000
000000
000000
000000
000000
000000
000000
000000
000000
000000
000000
000000
000000
000000
000000
000000
000000
000000
000000
000000
000000
000000
000000
000000
000000
000000
000000
,
200000
300000
000000
000000
000000
000000
000000
000000
000000
000000
000000
000000
000000
000000
000000
000000
000000
000000
000000
000000
000000
000000
000000
000000
000000
000000
000000
000000
000000
000000
000000
000000
001000
000000
000000
000000
000000
000000
000000
000000
000000
000000
000000
000000
000000
000000
000000
000000
000000
000000
000000
000000
000000
000000
000000
000000
000000
000000
000000
000000
000000
000000
000000
000000
,
200000
300000
000000
000000
000000
000000
000000
000000
000000
000000
000000
000000
000000
000000
000000
000000
000000
000000
000000
000000
000000
000000
000000
000000
000000
000000
000000
000000
000000
000000
000000
000000
001000
000000
000000
000000
000000
000000
000000
000000
000000
000000
000000
000000
000000
000000
000000
000000
000000
000000
000000
000000
000000
000000
000000
000000
000000
000000
000000
000000
000000
000000
000000
000000
,
000000
000000
000001
000000
,
000200
000300
000000
000000
000000
000000
000000
000000
000000
000000
000000
000000
000000
000000
000000
000000
000000
000000
000000
000000
000000
000000
000000
000000
000000
000000
000000
000000
000000
000000
000000
000000
000001
000000
000000
000000
000000
000000
000000
000000
000000
000000
000000
000000
000000
000000
000000
000000
000000
000000
000000
000000
000000
000000
000000
000000
000000
000000
000000
000000
000000
000000
000000
000000
,
000200
000300
000000
000000
000000
000000
000000
000000
000000
000000
000000
000000
000000
000000
000000
000000
000000
000000
000000
000000
000000
000000
000000
000000
000000
000000
000000
000000
000000
000000
000000
000000
000001
000000
000000
000000
000000
000000
000000
000000
000000
000000
000000
000000
000000
000000
000000
000000
000000
000000
000000
000000
000000
000000
000000
000000
000000
000000
000000
000000
000000
000000
000000
000000
,
000200
000300
000000
000000
000000
000000
000000
000000
000000
000000
000000
000000
000000
000000
000000
000000
000000
000000
000000
000000
000000
000000
000000
000000
000000
000000
000000
000000
000000
000000
000000
000000
000001
000000
000000
000000
000000
000000
000000
000000
000000
000000
000000
000000
000000
000000
000000
000000
000000
000000
000000
000000
000000
000000
000000
000000
000000
000000
000000
000000
000000
000000
000000
000000
,
000200
000300
000000
000000
000000
000000
000000
000000
000000
000000
000000
000000
000000
000000
000000
000000
000000
000000
000000
000000
000000
000000
000000
000000
000000
000000
000000
000000
000000
000000
000000
000000
000001
000000
000000
000000
000000
000000
000000
000000
000000
000000
000000
000000
000000
000000
000000
000000
000000
000000
000000
000000
000000
000000
000000
000000
000000
000000
000000
000000
000000
000000
000000
000000
,
000200
000300
000000
000000
000000
000000
000000
000000
000000
000000
000000
000000
000000
000000
000000
000000
000000
000000
000000
000000
000000
000000
000000
000000
000000
000000
000000
000000
000000
000000
000000
000000
000001
000000
000000
000000
000000
000000
000000
000000
000000
000000
000000
000000
000000
000000
000000
000000
000000
000000
000000
000000
000000
000000
000000
000000
000000
000000
000000
000000
000000
000000
000000
000000
,
000200
000300
000000
000000
000000
000000
000000
000000
000000
000000
000000
000000
000000
000000
000000
000000
000000
000000
000000
000000
000000
000000
000000
000000
000000
000000
000000
000000
000000
000000
000000
000000
000001
000000
000000
000000
000000
000000
000000
000000
000000
000000
000000
000000
000000
000000
000000
000000
000000
000000
000000
000000
000000
000000
000000
000000
000000
000000
000000
000000
000000
000000
000000
000000
,
000200
000300
000000
000000
000000
000000
000000
000000
000000
000000
000000
000000
000000
000000
000000
000000
000000
000000
000000
000000
000000
000000
000000
000000
000000
000000
000000
000000
000000
000000
000000
000000
000001
000000
000000
000000
000000
000000
000000
000000
000000
000000
000000
000000
000000
000000
000000
000000
000000
000000
000000
000000
000000
000000
000000
000000
000000
000000
000000
000000
000000
000000
000000
000000
,
000200
000300
000000
000000
000000
000000
000000
000000
000000
000000
000000
000000
000000
000000
000000
000000
000000
000000
000000
000000
000000
000000
000000
000000
000000
000000
000000
000000
000000
000000
000000
000000
000001
000000
000000
000000
000000
000000
000000
000000
000000
000000
000000
000000
000000
000000
000000
000000
000000
000000
000000
000000
000000
000000
000000
000000
000000
000000
000000
000000
000000
000000
000000
000000
,
000200
000300
000000
000000
000000
000000
000000
000000
000000
000000
000000
000000
000000
000000
000000
000000
000000
000000
000000
000000
000000
000000
000000
000000
000000
000000
000000
000000
000000
000000
000000
000000
000001
000000
000000
000000
000000
000000
000000
000000
000000
000000
000000
000000
000000
000000
000000
000000
000000
000000
000000
000000
000000
000000
000000
000000
000000
000000
000000
000000
000000
000000
000000
000000
,
002000
000000
023000
000000
,
M02000
000000
000000
000000
,
003M00
000000
000000
000000
,
M00000
000000
000000
000000
,
000M00
000000
000000
000000
,
M00000
000000
000000
000000
,
000M00
000000
000000
000000
,
M00000
000000
000000
000000
,
000M00
000000
000000
000000
,
M00000
000000
000000
000000
,
000M00
000000
000000
000000
,
M00000
000000
000000
000000
,
030M00
000000
000000
000000
;

//---------------dance-solo - JDDD----------------
#NOTES:
     dance-solo:
     JDDD:
     Easy:
     3:
     0.164,0.458,0.010,0.010,0.000,108.000,1.000,1.000,107.000,0.000:
0MM000
M00M00
M00M00
M00000
M00000
M0MM00
M00M00
0MM000
,
000000
0MM000
M00M00
M00M00
MMMM00
M00M00
M00M00
M00M00
,
000000
000000
M00M00
MM0M00
M00M00
M0MM00
M00M00
000000
,
0MM000
M00M00
M00M00
M00M00
M00M00
0MM000
000000
000000
,
M00M00
MM0M00
M00M00
M0MM00
M00M00
000000
000000
000000
,
000000
000000
000000
000000
,
000000
000000
000000
000000
,
000000
000000
000000
000000
,
000000
000000
000000
000000
,
000000
000000
000000
000000
,
000000
000000
000000
000000
,
000000
000000
000000
000000
,
000000
000000
000000
000000
,
000000
000000
000000
000000
,
000000
000000
000000
000000
,
000000
000000
000000
000000
,
000000
000000
000000
000000
,
000000
000000
000000
000000
,
100000
000000
000000
000000
,
000000
000000
000000
000000
,
100000
000000
000000
000000
,
000000
000000
000000
000000
,
100000
000000
000000
000000
,
000000
000000
000000
000000
,
100000
000000
000000
000000
,
000000
000000
000000
000000
,
100000
000000
000000
000000
,
000000
000000
000000
000000
,
100000
000000
000000
000000
,
000000
000000
000000
000000
,
100000
000000
000000
000000
,
000000
000000
000000
000000
,
100000
000000
000000
000000
,
000000
000000
000000
000000
,
000100
000000
000000
000000
,
000000
000000
000000
000000
,
000100
000000
000000
000000
,
000000
000000
000000
000000
,
000100
000000
000000
000000
,
000000
000000
000000
000000
,
000100
000000
000000
000000
,
000000
000000
000000
000000
,
000100
000000
000000
000000
,
000000
000000
000000
000000
,
000100
000000
000000
000000
,
000000
000000
000000
000000
,
000100
000000
000000
000000
,
000000
000000
000000
000000
,
000100
000000
000000
000000
,
000000
000000
000000
000000
,
100000
000000
000000
000000
,
000000
000000
000000
000000
,
100000
000000
000000
000000
,
000000
000000
000000
000000
,
100000
000000
000000
000000
,
000000
000000
000000
000000
,
100000
000000
000000
000000
,
000000
000000
000000
000000
,
000100
000000
000000
000000
,
000000
000000
000000
000000
,
000100
000000
000000
000000
,
000000
000000
000000
000000
,
000100
000000
000000
000000
,
000000
000000
000000
000000
,
000100
000000
000000
000000
,
000000
000000
000000
000000
,
010000
000000
000000
000000
,
000000
000000
000000
000000
,
010000
000000
000000
000000
,
000000
000000
000000
000000
,
010000
000000
000000
000000
,
000000
000000
000000
000000
,
010000
000000
000000
000000
,
000000
000000
000000
000000
,
010000
000000
000000
000000
,
000000
000000
000000
000000
,
010000
000000
000000
000000
,
000000
000000
000000
000000
,
010000
000000
000000
000000
,
000000
000000
000000
000000
,
010000
000000
000000
000000
,
000000
000000
000000
000000
,
001000
000000
000000
000000
,
000000
000000
000000
000000
,
001000
000000
000000
000000
,
000000
000000
000000
000000
,
001000
000000
000000
000000
,
000000
000000
000000
000000
,
001000
000000
000000
000000
,
000000
000000
000000
000000
,
001000
000000
000000
000000
,
000000
000000
000000
000000
,
001000
000000
000000
000000
,
000000
000000
000000
000000
,
001000
000000
000000
000000
,
000000
000000
000000
000000
,
001000
000000
000000
000000
,
000000
000000
000000
000000
,
010000
000000
000000
000000
,
000000
000000
000000
000000
,
010000
000000
000000
000000
,
000000
000000
000000
000000
,
010000
000000
000000
000000
,
000000
000000
000000
000000
,
010000
000000
000000
000000
,
000000
000000
000000
000000
,
001000
000000
000000
000000
,
000000
000000
000000
000000
,
001000
000000
000000
000000
,
000000
000000
000000
000000
,
001000
000000
000000
000000
,
000000
000000
000000
000000
,
001000
000000
000000
000000
,
000000
000000
000000
000000
,
200000
000000
000000
000000
,
000000
000000
000000
000000
,
000000
000000
000000
000000
,
000000
000000
000000
000000
,
000000
000000
000000
000000
,
000000
000000
000000
000000
,
000000
000000
000000
000000
,
000000
000000
000000
000000
,
000000
000000
000000
000000
,
000000
000000
000000
000000
,
000000
000000
000000
000000
,
000000
000000
000000
000000
,
300000
000000
000000
000000
,
000000
000000
000000
000000
,
001000
000000
000000
000000
,
000000
000000
000000
000000
,
001000
000000
000000
000000
,
000000
000000
000000
000000
,
001000
000000
000000
000000
,
000000
000000
000000
000000
,
000000
000000
000000
000000
,
000000
000000
000000
000000
,
010000
000000
000000
000000
,
000000
000000
000000
000000
,
010000
000000
000000
000000
,
000000
000000
000000
000000
,
010000
000000
000000
000000
,
000000
000000
000000
000000
,
000000
000000
000000
000000
,
000000
000000
000000
000000
,
000100
000000
000000
000000
,
000000
000000
000000
000000
,
000100
000000
000000
000000
,
000000
000000
000000
000000
,
000100
000000
000000
000000
,
000000
000000
000000
000000
,
000000
000000
000000
000000
,
000000
000000
000000
000000
,
100000
000000
000000
000000
,
000000
000000
000000
000000
,
100000
000000
000000
000000
,
000000
000000
000000
000000
,
100000
000000
000000
000000
,
000000
000000
000000
000000
,
001000
000000
000000
000000
,
000000
000000
000000
000000
,
001000
000000
000000
000000
,
000000
000000
000000
000000
,
001000
000000
000000
000000
,
000000
000000
000000
000000
,
001000
000000
000000
000000
,
000000
000000
000000
000000
,
010000
000000
000000
000000
,
000000
000000
000000
000000
,
010000
000000
000000
000000
,
000000
000000
000000
000000
,
010000
000000
000000
000000
,
000000
000000
000000
000000
,
010000
000000
000000
000000
,
000100
000000
000000
000000
,
000000
000000
000000
000000
,
000100
000000
000000
000000
,
000000
000000
000000
000000
,
100000
000000
000000
000000
,
000000
000000
000000
000000
,
100000
000000
000000
000000
,
100000
000000
100000
000000
,
100000
000000
000000
000000
,
000100
000000
000100
000000
,
000100
000000
000000
000000
,
100000
000000
100000
000000
,
100000
000000
000000
000000
,
000100
000000
000000
000000
,
000100
000000
000000
000000
,
000100
000000
000000
000000
,
000100
000000
000000
000000
,
000100
000000
000000
000000
,
000100
000000
000000
000000
,
000100
000000
000000
000000
,
000100
000000
000000
000000
,
100000
000000
000000
000000
,
100000
000000
000000
000000
,
100000
000000
000000
000000
,
100000
000000
000000
000000
,
100000
000000
000000
000000
,
100000
000000
000000
000000
,
100000
000000
000000
000000
,
100000
000000
000000
000000
,
001000
000000
000000
000000
,
001000
000000
000000
000000
,
001000
000000
000000
000000
,
001000
000000
000000
000000
,
001000
000000
000000
000000
,
001000
000000
000000
000000
,
001000
000000
000000
000000
,
001000
000000
000000
000000
,
100100
000000
000000
000000
00M000
0M0000
MMMMMM
0M0000
,
00M000
000000
000000
000000
,
000000
000000
000000
000000
000000
000000
00M000
0M0000
,
MMMMMM
0M0000
00M000
000000
000000
000000
000000
000000
,
000000
000000
000000
000000
,
000000
000000
000000
000000
000000
000000
00M000
0M0000
,
MMMMMM
0M0000
00M000
000000
000000
000000
000000
000000
,
000000
000000
000000
000000
000000
000000
00M000
0M0000
,
MMMMMM
0M0000
00M000
000000
000000
000000
000000
000000
,
000000
000000
000000
000000
,
100000
000000
000000
000000
;
