#TITLE:Mind Reflection;
#SUBTITLE:;
#ARTIST:M.T;
#TITLETRANSLIT:;
#SUBTITLETRANSLIT:;
#ARTISTTRANSLIT:;
#CREDIT:Magna Trick;
#BANNER:MindReflection-BN.png;
#BACKGROUND:MindReflection-BG.png;
#LYRICSPATH:;
#CDTITLE:Magna Trick title!.png;
#MUSIC:Mind Reflection.mp3;
#OFFSET:-0.260;
#SAMPLESTART:36.016;
#SAMPLELENGTH:11.980;
#SELECTABLE:YES;
#BPMS:0.000=114.010;
#STOPS:;
#BGCHANGES:;
// cache tags:
#FIRSTBEAT:0.000;
#LASTBEAT:266.750;
#SONGFILENAME:Songs/StepMix 1.0/Mind Reflection/Mind Reflection.sm;
#HASMUSIC:1;
#HASBANNER:1;
#MUSICLENGTH:143.132;
// end cache tags

//---------------dance-single - ----------------
#NOTES:
     dance-single:
     :
     Hard:
     10:
     0.694,0.745,0.224,0.405,0.391,605.000,32.000,58.000,0.000,0.000:
0001
0001
1000
0100
1000
0001
0100
0100
,
0010
1000
0100
1000
0001
0001
0100
0010
,
1000
0100
1000
1000
0010
0100
0001
1000
,
0100
0100
1000
0001
0100
0001
0010
0010
,
0100
1000
0001
0100
0010
0010
1000
0100
,
1000
0000
0001
0000
0100
0000
0100
0000
0010
0000
1000
0000
0100
0000
1000
0100
,
0010
0010
0001
1000
0010
0100
0001
0001
,
2000
0000
3100
0000
0020
0000
0031
0000
0020
0030
0010
0000
0200
0000
1300
0000
,
0001
0000
0200
0000
0320
0030
0010
0000
1000
0000
0100
0000
1000
0000
0001
0000
,
0010
0000
0010
0000
0100
0000
1000
0000
0001
0000
0100
0000
0020
0030
0010
0000
,
2000
0000
3001
0000
0020
0000
0130
0000
2000
3000
2000
0000
3002
0000
0100
0003
,
0010
0000
1000
0000
0002
0003
0002
0000
0023
0000
0100
0030
0010
0000
0001
0010
,
0100
0100
1000
0100
0010
0001
0100
0100
,
0010
0000
1000
0000
0002
0000
0013
0000
0200
0300
0100
0000
0020
0000
0032
0000
,
0103
0010
1000
1000
0010
0100
0001
1000
,
0200
0300
0100
0000
0020
0000
0031
0000
0020
0000
2030
0000
3010
0000
0010
0000
,
0001
0100
1000
0100
0001
0001
1000
0100
,
1000
0000
0002
0000
0023
0030
0010
0100
1000
0010
0100
0001
1000
0100
0020
0000
,
0031
0001
1000
0010
0100
0001
1000
1000
,
0100
0010
0001
0010
1000
1000
0010
0001
,
0100
0010
1000
1000
0001
0100
0010
1000
,
0100
0100
0010
0001
0010
1000
0010
0010
,
0001
0100
0010
0100
0001
0001
1000
0100
,
1000
0000
0001
0000
0010
0000
0010
0000
0100
0000
1000
0000
0010
0100
0001
0100
,
0020
0030
0010
0000
1000
0000
0100
0000
1000
0000
0001
0000
0100
0000
0100
0000
,
0010
1000
0001
0010
0100
0100
0010
0001
,
0100
0000
0010
0000
1000
0000
0000
1000
0001
0000
0001
0000
0010
0000
0200
0000
,
1300
1000
0001
0100
0010
1000
0001
0001
,
0010
0100
0010
0001
0100
0100
0010
1000
,
0001
0000
1000
0000
0100
0000
0000
0100
0010
0000
0010
0000
0001
0000
2000
0000
,
3001
0001
0100
0010
1000
0100
1001
0000
,
0110
0000
0010
0000
1000
0001
1000
0000
0110
0000
0100
0000
1001
0000
1000
0000
,
0011
0000
1000
0000
0001
1000
0100
0000
1001
0000
0001
1000
0100
0000
0110
0000
,
0010
0002
1000
1000
0100
1000
1003
0002
,
0000
0010
0203
0000
1300
0100
0010
0001
1000
0000
0100
0000
1000
0000
0001
0000
,
1001
0000
0100
0000
0020
0000
0030
1000
0100
0010
0001
1000
0010
0100
0000
0200
,
0000
0000
0301
0000
1000
0000
0100
0000
1001
0000
0010
0000
0100
0001
0100
0010
,
0100
0001
0100
0010
0100
0001
0001
0010
0100
0100
1000
0000
1001
0000
0100
0000
,
0001
0000
1001
0000
1000
0100
0010
0001
0010
0100
1000
0010
0100
0001
1000
0010
,
1000
0001
0010
0100
0020
0000
0000
0000
0031
1000
0010
1000
0001
0010
0100
0010
,
0001
1000
0020
0000
0000
0000
0000
0000
0130
0001
1000
0100
1000
0001
0010
0200
,
1000
0000
0000
0000
1300
0000
0001
0010
0100
0010
0010
0001
1000
1000
0100
0000
,
0110
0010
0001
1000
0100
0010
0001
1000
0100
0010
0001
1000
0100
0010
0001
1000
,
0100
0010
0001
1000
0200
0000
0300
0000
0000
0010
0100
0001
1000
0010
0100
0001
,
1000
0010
0100
0001
1000
0010
0100
0001
1000
0010
0100
0001
2000
0000
3000
0000
,
0000
0001
0100
0010
1000
0100
0010
0001
0100
0010
1000
0100
0010
0001
0100
0010
,
1000
0100
0010
0001
0100
0020
0000
0000
1030
0010
0001
1000
0100
0001
1000
0010
,
0001
1000
0100
0001
1000
0010
0001
1000
0100
0001
1000
0010
0001
1000
0100
0001
,
2000
0000
0000
3100
0000
0000
0100
0000
0010
0100
0010
0000
0001
0000
0000
0110
,
0000
0000
0011
0000
1000
0100
1000
0000
0101
0000
0000
0110
0000
0000
1010
0000
,
1000
0001
1000
0000
1100
0000
0000
0110
0000
0000
0011
0000
0001
1000
0001
0000
,
1001
0000
0000
0110
0000
0000
1010
0000
1000
0001
1000
0000
1001
0000
0000
0110
,
0000
0000
0011
0000
0001
1000
0001
0000
1001
0000
0000
1010
0000
0000
0101
0000
,
1000
0001
1000
0000
1100
0000
0000
0101
0000
0000
0012
0000
0000
0000
0000
0000
,
1003
1000
0100
1000
0001
0100
0010
0010
,
1000
0100
1000
0001
0010
0010
0100
1000
,
0001
0100
0010
0010
1000
0001
1000
0100
,
0010
0010
0001
0010
0100
1000
0010
0010
,
0100
0001
1000
0100
1000
1000
0001
0100
,
0010
0000
0100
0000
0001
0000
0001
0000
0010
0000
0100
0000
0010
0000
0001
1000
,
0020
0030
0010
0000
0100
0000
0001
0000
1000
0000
0100
0000
0010
0000
0010
0000
,
0002
0000
1003
0000
0200
0000
1300
0000
0002
0003
0001
0000
0020
0000
0130
0000
,
1000
0000
0200
0000
0320
0030
0010
0000
0001
0000
1000
0000
0010
0000
0001
0000
,
1000
0100
0010
1000
0002
0000
0013
0100
,
1000
0001
0010
1000
0001
0010
0100
0001
,
2000
0000
0000
0000
3200
0000
0320
0000
0032
0000
0000
0000
0003
0000
0200
0320
,
2030
0100
3010
0001
1000
0020
0000
0000
0000
0000
0000
0030
0000
0000
0000
0000
;

//---------------dance-single - ----------------
#NOTES:
     dance-single:
     :
     Challenge:
     11:
     0.848,0.745,0.643,1.000,0.391,607.000,92.000,151.000,0.000,2.000:
1001
1000
0002
0013
0002
1003
0110
0010
,
0200
0301
0020
0031
1001
1000
0020
0130
,
0002
0013
1001
0001
0200
0310
2000
3001
,
1001
0010
0002
1003
0020
1030
0110
0001
,
0020
0031
2000
3010
0101
0100
0002
0013
,
0002
0000
1003
0000
0110
0000
0010
0000
0200
0000
0301
0000
0020
0000
0031
0010
,
1100
0100
2000
3001
0200
0310
1001
1000
,
0002
0000
0013
0000
0200
0000
1300
0000
0210
0300
0100
0000
0020
0000
0031
0000
,
2000
0000
3020
0000
0231
0300
0100
0000
0002
0000
0013
0000
0002
0000
1003
0000
,
1100
0000
0100
0000
0020
0000
0031
0000
2000
0000
3010
0000
0210
0300
0100
0000
,
0002
0000
1003
0000
0200
0000
0310
0000
1002
0003
0002
0000
2003
0000
3010
0000
,
0200
0000
0310
0000
2001
3000
2000
0000
3200
0000
0310
0000
0200
0000
1300
0100
,
0011
0010
0002
0013
0200
1300
1010
0010
,
0200
0000
0301
0000
2000
0000
3100
0000
0120
0030
0010
0000
0200
0000
2300
0000
,
3020
0130
1001
0001
0200
0310
2000
3001
,
0120
0030
0010
0000
0200
0000
1300
0000
0200
0000
0302
0000
1013
0000
0100
0000
,
2000
3010
0002
0013
1001
1000
0002
0013
,
0002
0000
0203
0300
2001
3000
0100
0010
0001
0100
0010
1000
0001
0010
0200
0300
,
1001
1000
0002
0103
0020
1030
0101
0001
,
0020
0130
2000
3100
1100
0001
0200
1300
,
0020
0130
1001
0001
2000
3010
0200
0301
,
0110
0010
0200
1300
0200
0301
1001
0100
,
2000
3010
0200
0310
1001
1000
0002
0013
,
0002
0000
1003
0000
1001
0000
0100
0000
0010
0000
0001
0000
0100
0010
1000
0010
,
0201
0300
0100
0000
0002
0000
0013
0000
0002
0000
1003
0000
0110
0000
0010
0000
,
0200
0301
2000
3100
0011
0010
0200
1300
,
0020
0000
0130
0000
2001
0000
0000
3001
1000
0000
2000
0000
3200
0000
0320
0030
,
1001
0001
2000
3010
0200
0301
1001
1000
,
0200
0310
0200
1300
0110
0010
0200
0301
,
2000
0000
3001
0000
0210
0000
0000
0310
0100
0000
0200
0000
2300
0000
3002
0003
,
1001
1000
0020
0130
0002
0013
1001
0000
,
0110
0000
0100
0000
0001
1000
0011
0000
0110
0000
0010
0000
1001
0000
0001
0000
,
1100
0000
0011
0000
1000
0001
0010
0000
1001
0000
1000
0001
0010
0000
0110
0000
,
0100
2000
0001
0001
0010
0001
3001
2000
,
0000
0100
3020
0000
0031
0010
0100
1000
0001
0000
0010
0000
1001
0000
0010
0000
,
0101
0000
1010
0000
0200
0000
0300
0001
0010
0100
1000
0001
0100
0010
0000
0020
,
0000
0000
1030
0000
1001
0000
0010
0000
0101
0000
0100
0000
0010
1000
0010
0100
,
0010
1000
0010
0100
0010
1000
1000
0100
0010
0010
0001
0000
1001
0000
0010
0000
,
1000
0000
1001
0000
0001
0010
0100
1000
0100
0010
0001
0100
0010
1000
0001
0100
,
0001
1000
0100
0010
0200
0000
0000
0000
1300
0001
0100
0001
1000
0100
0010
0100
,
1000
0001
0200
0000
0000
0000
0000
0000
0310
1000
0001
0010
0001
1000
0100
0020
,
0001
0000
0000
0000
0031
0000
1000
0100
0010
0100
0100
1000
0001
0001
0010
0000
,
0110
1000
1000
0001
0001
0010
0010
0100
0100
1000
1000
0100
0100
0010
0010
0001
,
0001
0010
0010
0100
0200
0000
0000
0300
0000
1000
1000
0010
0010
0100
0100
0001
,
0001
0100
0100
0010
0010
1000
1000
0100
0100
0010
0010
0001
0002
0000
0000
0003
,
0000
1000
1000
0100
0100
0010
0010
0001
0001
0100
0100
0010
0010
1000
1000
0001
,
0001
0010
0010
0100
0100
2000
0000
3000
0001
0100
1000
0001
0010
1000
0001
0100
,
1000
0001
0010
1000
0001
0100
1000
0001
0010
1000
0001
0100
1000
0001
0010
1000
,
0002
0000
0003
0110
0000
0000
0110
0000
1000
0001
1000
0000
0100
0000
0000
0110
,
0000
0000
1100
0000
0001
0010
0001
0000
1010
0000
0000
0110
0000
0000
0101
0000
,
0001
1000
0001
0000
0011
0000
0000
0110
0000
0000
1100
0000
1000
0001
1000
0000
,
1001
0000
0000
0110
0000
0000
0101
0000
0001
1000
0001
0000
1001
0000
0000
0110
,
0000
0000
1100
0000
1000
0001
1000
0000
1001
0000
0000
0101
0000
0000
1010
0000
,
0001
1000
0001
0000
0011
0000
0000
1010
0000
0000
2100
0000
0001
0000
0000
3000
,
1001
0001
0020
0031
2000
3010
0110
0100
,
0002
0013
0002
1003
1100
0100
0020
0031
,
2000
3010
0110
0100
0002
1003
0002
0013
,
1100
0100
2000
3100
0020
0031
0110
0100
,
0020
1030
0002
0013
1001
0001
2000
3010
,
0200
0000
0310
0000
1010
0000
1000
0000
0200
0000
0310
0000
0200
0000
1300
0001
,
0110
0100
0020
1030
0002
0013
1100
0100
,
2000
0000
3001
0000
0020
0000
0031
0000
2001
3000
1000
0000
0200
0000
0310
0000
,
0002
0000
0023
0030
1200
0300
0100
0000
2000
0000
3001
0000
0200
0000
1300
0000
,
0001
0010
0200
0301
2000
0000
3100
0010
,
0002
1003
0200
0301
1000
0100
0020
1030
,
0002
0000
0000
0000
0023
0000
0230
0000
2300
0000
0000
0000
3001
0000
0020
0230
,
0302
0010
0103
1000
0001
0200
0000
0000
0000
0000
0000
0300
0000
0000
0000
0000
;

//---------------dance-single - ----------------
#NOTES:
     dance-single:
     :
     Medium:
     7:
     0.509,0.466,0.126,0.454,0.042,427.000,18.000,65.000,0.000,0.000:
0001
0010
0100
1000
0001
0200
0300
0010
,
1000
0100
1000
0002
0003
0001
0010
0100
,
0010
0002
0003
0001
0100
0010
0100
0002
,
0003
1000
0100
1000
0001
0200
0300
0100
,
0010
1000
0001
0020
0030
0010
0100
1000
,
0001
0200
0300
0100
0010
1000
0001
2000
,
3000
0100
0010
0001
0010
0200
0300
0100
,
1000
0001
0100
0010
2000
0000
3002
0000
,
0000
1003
0100
1000
0001
0100
0010
2000
,
3000
0001
0010
0100
0010
0002
0003
0001
,
0100
0010
1000
0002
0003
0001
1000
0010
,
0100
0000
0001
0000
1000
0000
0001
0000
0200
0000
0000
0000
0000
0000
0310
1000
,
0001
1000
0010
0100
0001
2000
3000
1000
,
0100
0010
0001
0020
0030
0100
1000
0001
,
0100
0020
0030
0010
1000
0100
1000
0002
,
0003
0001
0010
0100
0010
0002
0003
0001
,
1000
0010
0100
2000
3000
1000
0100
0001
,
1000
0200
0300
0100
0010
0001
0010
0200
,
0300
0100
1000
0010
0100
0002
0003
0001
,
1000
0100
1000
0002
0003
0001
0010
0100
,
0010
0002
0003
0001
1000
0010
0100
0002
,
0003
0001
0100
1000
0100
0002
0003
0001
,
0010
1000
0010
0002
0003
1000
0010
0100
,
0001
2000
3000
1000
0100
0010
0002
0023
,
0230
0000
0000
0000
0000
0000
0000
1000
,
1300
0001
0100
0020
0030
0010
1000
0001
,
1000
0100
0020
0000
0032
0000
2003
0000
,
3020
0000
0000
0000
0000
0100
0130
0001
,
1000
0100
0010
0002
0003
0001
0010
0100
,
1000
0020
0030
0010
1000
0001
0100
0002
,
0000
0000
0000
0000
0000
0003
1001
0000
,
0001
1000
0000
1000
0001
0000
0001
0010
,
0000
0010
0100
0000
0100
1000
0000
1000
,
0001
0000
0001
0100
0000
0100
0010
0000
,
0010
1000
0000
1000
0001
0000
0001
0010
,
0000
0010
0100
0000
0100
1000
0000
1000
,
0001
0000
0001
0100
0000
0100
0010
1000
,
0010
1000
0010
0100
0001
0000
0001
1000
,
0000
1000
0100
0010
0001
0010
0100
1000
,
0010
0100
0002
0000
1003
0100
1000
0001
,
0100
0000
0020
0000
0000
0000
0030
0000
1000
0000
0100
0000
1000
0100
0010
0002
,
0000
0000
0000
0003
2000
0000
0000
0000
3200
0000
0320
0000
0030
0000
0000
0000
,
1001
0010
0001
1000
0010
0001
1000
0010
,
0001
1000
0010
0000
0100
0100
0001
0010
,
1000
0001
0010
1000
0001
0010
1000
0000
,
0100
0100
0001
1000
0100
0001
1000
0100
,
0001
1000
0100
0002
0013
1000
0100
0001
,
0010
1000
0100
0001
0010
1000
0100
0001
,
1000
0000
0000
0100
0000
0000
0010
0000
1001
0000
1001
0000
0100
0000
0000
0001
,
0000
0000
0100
0000
1010
0000
1010
0000
0100
0000
0000
0001
0000
0000
0010
0000
,
1100
0000
1100
0000
0010
0000
0000
0001
0000
0000
0100
0000
1010
0000
1010
0000
,
0100
0000
0000
0001
0000
0000
0100
0000
1001
0000
1001
0000
0010
0000
0000
0100
,
0000
0000
0010
0000
1100
0000
1100
0000
0010
0000
0000
0001
0000
0000
1000
0000
,
1001
0000
1001
0000
0002
0000
0000
0203
0000
0000
0320
0000
0000
0000
0000
0000
,
1030
0010
0100
0001
1000
0200
0300
0100
,
1000
0001
0100
0020
0030
0010
1000
0100
,
1000
0002
0003
0001
0010
0100
0010
0002
,
0003
0001
1000
0010
0100
2000
3000
1000
,
0100
0001
0010
2000
3000
1000
0010
0001
,
0100
0002
0003
1000
0010
0100
0001
2000
,
3000
0100
1000
0001
0010
0200
0300
0100
,
0010
0001
0100
0010
0000
1000
0001
0010
,
0100
0010
1001
0100
0100
0010
0010
1000
,
1000
0001
0001
0010
0110
0000
0100
1000
,
0001
0100
0010
0010
1000
1000
0001
0001
,
0020
0000
0000
0000
0230
0000
2300
0000
3002
0000
0000
0000
0000
0000
0103
0010
,
2000
0000
0000
0000
0000
0000
0000
0000
0000
0000
0000
3000
0000
0000
0000
0000
;

//---------------dance-single - ----------------
#NOTES:
     dance-single:
     :
     Easy:
     4:
     0.360,0.396,0.168,0.154,0.000,315.000,24.000,22.000,0.000,0.000:
0001
1000
0001
0000
0000
0000
1000
0001
,
1000
0000
0000
0000
0100
0010
0100
0000
,
0000
0000
0010
0001
0010
0000
0000
0000
,
0001
0100
0001
0000
0000
0000
0100
0010
,
0100
0000
0000
0000
0010
1000
0010
0000
,
0000
0000
1000
0001
1000
0000
0000
0000
,
0002
0000
0000
0000
,
2003
3200
0320
0032
,
0000
0100
0103
0010
0100
0000
0000
0000
,
1000
0100
1000
0000
0000
0000
0001
0100
,
0001
0000
0000
0000
1000
0001
1000
0000
,
0000
0000
0100
0010
0002
0000
0000
0000
,
1003
0010
0100
0001
,
1000
0100
0010
0001
,
1000
0010
0100
0001
,
1000
0100
1000
0001
,
0100
0010
1000
0001
,
0010
0100
1000
0001
,
0100
0010
1000
0001
,
0010
0100
0010
0001
,
0100
0010
1000
0001
,
1000
0100
0010
0001
,
0010
0000
0100
0000
1000
0000
0001
0100
,
0010
1000
0100
0000
1000
0000
0001
0001
,
0001
0000
1000
0100
1000
0001
0100
0000
,
0010
1000
0100
1000
0001
0000
0010
0100
,
0010
0001
1000
0000
0010
0000
0100
0000
,
1001
0001
0010
1100
,
1000
0010
0101
0001
,
1000
1001
1000
0100
,
0011
0100
1000
1001
,
0011
0000
0000
1100
0000
0000
0101
0000
,
0000
0011
0000
0000
1100
0000
0000
1010
,
0000
0000
0101
0000
0000
0011
0000
0000
,
1100
0000
0000
1001
0000
0000
0101
0000
,
0000
0110
0000
0000
1010
0000
0000
1001
,
0000
0000
0011
0000
0000
0110
0001
1000
,
1100
0010
0001
1000
0000
0000
2000
0000
,
0000
0000
3100
0010
0001
0010
0100
1000
,
0001
0100
0020
0000
0130
0001
0100
0001
,
1000
0100
1000
0000
0001
0100
0010
2000
,
0000
0000
3200
0000
1300
0002
0000
0000
,
1003
0100
0010
0001
1000
0100
0010
0001
,
1000
0100
0010
0000
0001
0010
0100
1000
,
0001
0010
0100
1000
0001
0010
0100
0000
,
1000
0100
0010
0001
1000
0100
0010
0001
,
1000
0100
0010
0001
0001
0010
0100
1000
,
0001
0010
0100
1000
0001
0010
0100
1000
,
0001
0000
1000
0000
0100
0100
1000
0000
,
0001
0100
0010
1000
,
0001
0001
0010
0000
0100
0000
1000
0000
,
0001
0000
0100
0000
0010
0010
1000
0000
,
0100
0000
0010
0010
0001
0000
1000
0000
,
0010
0010
0100
0000
0001
0000
1000
0000
,
0100
0010
0001
0010
0100
0010
0000
0001
,
0010
0100
0010
0001
0000
0001
0010
0100
,
0010
0001
0000
0001
0010
0100
0010
0001
,
0000
0001
0010
0100
0010
0001
0000
0001
,
0010
0100
0010
0001
0000
0001
0010
0100
,
0010
0001
0000
0001
0010
0100
0010
0001
,
2000
0000
0000
0000
,
3200
0320
0032
0203
,
0000
0010
0310
0000
0100
0000
0001
0000
,
1000
0100
0010
0001
,
0010
0100
1000
0001
,
0100
0000
0000
0000
0020
0000
2030
0000
3002
0000
0000
0000
2003
0000
0000
3000
,
0220
0000
0000
0000
0000
0000
0000
0000
0000
0000
0000
0330
0000
0000
0000
0000
;

//---------------dance-single - ----------------
#NOTES:
     dance-single:
     :
     Beginner:
     2:
     0.174,0.233,0.007,0.014,0.000,171.000,1.000,2.000,0.000,0.000:
0001
0000
0000
1000
,
0000
0000
0100
0000
,
0000
0010
0000
0000
,
0001
0000
0000
0100
,
0000
0000
0010
0000
,
0000
1000
0000
0000
,
0001
0000
0000
0010
,
0100
1000
0001
0100
,
0100
0010
0000
0000
,
1000
0000
0000
0100
,
0000
0000
0010
0000
,
0000
0001
1000
0100
,
1000
0001
0001
0010
,
0000
0000
0100
0000
,
0000
1000
0000
0000
,
0001
1000
0010
0100
,
0000
0000
0001
0000
,
0000
1000
0100
0010
,
0001
0000
0000
0010
,
0000
0000
0100
0000
,
0000
1000
0000
0000
,
0001
0000
0000
0010
,
0000
0000
0100
0000
,
0000
1000
0000
0001
,
1000
0000
0000
0010
,
0000
0000
1000
0000
,
0000
0100
0010
0001
,
0010
0000
0000
0100
,
0000
0000
1000
0000
,
0000
0001
0100
0010
,
1000
0000
0000
0100
,
0010
0000
0000
0001
0000
0000
0010
0000
,
0000
0100
0000
0000
1000
0000
0000
0001
,
0000
0000
0100
0000
0000
0010
0000
0000
,
1000
0000
0000
0001
0000
0000
0010
0000
,
0000
0100
0000
0000
1000
0000
0000
0001
,
0000
0000
0100
0000
0000
0010
0000
0000
,
1000
0000
0001
0001
,
0000
0010
0000
0000
0100
0000
0000
1000
,
0000
0000
0001
0000
0000
0100
0000
0000
,
0010
0000
0000
1000
0000
0000
0001
0000
,
0000
0010
0000
0000
0100
0000
0000
1000
,
0001
1000
0100
0010
,
0001
1000
0010
1000
,
0100
0010
0001
0010
,
0100
1000
0001
0100
,
0010
1000
0001
0010
,
0100
0010
0001
0100
,
0010
0000
1000
0000
0001
0001
0000
0000
,
1000
0000
0001
0001
0000
0000
1000
0000
,
0001
0001
0000
0000
1000
0000
0001
0001
,
0000
0000
1000
0000
0001
0001
0000
0000
,
1000
0000
0001
0001
0000
0000
1000
0000
,
0001
0001
0000
0000
1000
0000
0001
0000
,
0010
0000
0000
1000
,
0000
0000
0010
0000
,
0000
0001
0000
0000
,
0100
0000
0000
0010
,
0000
0000
1000
0000
,
0000
0001
0000
0010
,
0001
1000
0010
0100
,
0001
0001
1000
0100
,
0100
0010
0001
0001
,
0010
0100
0100
1000
,
0010
0010
0100
0001
,
0001
1000
0001
1000
,
2002
0000
0000
0000
0000
0000
0000
0000
0000
0000
0000
3003
0000
0000
0000
0000
;

//---------------dance-double - ----------------
#NOTES:
     dance-double:
     :
     Beginner:
     3:
     0.174,0.233,0.007,0.014,0.000,171.000,1.000,2.000,0.000,0.000:
00010000
00000000
00000000
10000000
,
00000000
00000000
01000000
00000000
,
00000000
00100000
00000000
00000000
,
00010000
00000000
00000000
00000010
,
00000000
00000000
00000100
00000000
,
00000000
00000001
00000000
00000000
,
00001000
00000000
00000000
00000100
,
00000010
00000001
00001000
00000010
,
00000010
00000100
00000000
00000000
,
00000001
00000000
00000000
01000000
,
00000000
00000000
00100000
00000000
,
00000000
00010000
10000000
01000000
,
10000000
00010000
00010000
00100000
,
00000000
00000000
01000000
00000000
,
00000000
00010000
00000000
00000000
,
00001000
00000001
00000100
00000010
,
00000000
00000000
00001000
00000000
,
00000000
00000001
00000010
00000100
,
00001000
00000000
00000000
00100000
,
00000000
00000000
01000000
00000000
,
00000000
10000000
00000000
00000000
,
00010000
00000000
00000000
00000100
,
00000000
00000000
00000010
00000000
,
00000000
00000001
00000000
00001000
,
00000001
00000000
00000000
00010000
,
00000000
00000000
10000000
00000000
,
00000000
01000000
00100000
00010000
,
00100000
00000000
00000000
01000000
,
00000000
00000000
00010000
00000000
,
00000000
00001000
00000010
00000100
,
00000001
00000000
00000000
00000010
,
00000100
00000000
00000000
00001000
00000000
00000000
00000100
00000000
,
00000000
00000010
00000000
00000000
00000001
00000000
00000000
00001000
,
00000000
00000000
00000010
00000000
00000000
00000100
00000000
00000000
,
00000001
00000000
00000000
00001000
00000000
00000000
00000100
00000000
,
00000000
00000010
00000000
00000000
00000001
00000000
00000000
00001000
,
00000000
00000000
00000010
00000000
00000000
00000100
00000000
00000000
,
00000001
00000000
00001000
00010000
,
00000000
00100000
00000000
00000000
01000000
00000000
00000000
10000000
,
00000000
00000000
00010000
00000000
00000000
01000000
00000000
00000000
,
00100000
00000000
00000000
10000000
00000000
00000000
00010000
00000000
,
00000000
00100000
00000000
00000000
01000000
00000000
00000000
10000000
,
00010000
00001000
00000010
00000100
,
00000001
00001000
00000100
00000010
,
00000001
00000100
00000010
00001000
,
00000100
00001000
00010000
01000000
,
00100000
10000000
00010000
00100000
,
01000000
00100000
00010000
01000000
,
00100000
00000000
10000000
00000000
00010000
00010000
00000000
00000000
,
00010000
00000000
00001000
00010000
00000000
00000000
10000000
00000000
,
00010000
00010000
00000000
00000000
00010000
00000000
00001000
00010000
,
00000000
00000000
10000000
00000000
00010000
00010000
00000000
00000000
,
00010000
00000000
00001000
00010000
00000000
00000000
10000000
00000000
,
00010000
00010000
00000000
00000000
00001000
00000000
00010000
00000000
,
00001000
00000000
00000000
00001000
,
00000000
00000000
00100000
00000000
,
00000000
00010000
00000000
00000000
,
01000000
00000000
00000000
00100000
,
00000000
00000000
10000000
00000000
,
00000000
00010000
00000000
00000100
,
00001000
00000001
00000100
00000010
,
00001000
00001000
00000001
00000010
,
00000010
00000100
00001000
00001000
,
00000100
00001000
00001000
00010000
,
00100000
00100000
01000000
00010000
,
00010000
10000000
00010000
10000000
,
20020000
00000000
00000000
00000000
00000000
00000000
00000000
00000000
00000000
00000000
00000000
30030000
00000000
00000000
00000000
00000000
;

//---------------dance-double - ----------------
#NOTES:
     dance-double:
     :
     Easy:
     5:
     0.361,0.396,0.175,0.154,0.000,315.000,25.000,22.000,0.000,0.000:
00001000
00000001
00001000
00000000
00000000
00000000
00000001
00001000
,
00000001
00000000
00000000
00000000
00000010
00000100
00000010
00000000
,
00000000
00000000
00000100
00001000
00000100
00000000
00000000
00000000
,
00001000
00000010
00001000
00000000
00000000
00000000
00000010
00000100
,
00001000
00000000
00000000
00000000
00010000
00100000
00010000
00000000
,
00000000
00000000
00100000
01000000
00100000
00000000
00000000
00000000
,
02000000
00000000
00000000
00000000
,
03200000
20300000
30020000
02030000
,
00000000
10000000
13000000
00010000
00001000
00000000
00000000
00000000
,
00000001
00000010
00000001
00000000
00000000
00000000
00001000
00000010
,
00001000
00000000
00000000
00000000
00000001
00001000
00000001
00000000
,
00000000
00000000
00000010
00000100
00002000
00000000
00000000
00000000
,
00003001
00000100
00000010
00001000
,
00010000
01000000
00100000
10000000
,
00100000
01000000
00010000
00001000
,
00000100
00000010
00000001
00001000
,
01000000
00100000
10000000
00010000
,
00100000
01000000
10000000
00010000
,
00001000
00010000
00100000
00010000
,
00001000
00000100
00000010
00000001
,
00001000
00010000
10000000
00010000
,
10000000
01000000
00100000
00010000
,
00100000
00000000
01000000
00000000
10000000
00000000
00010000
00000010
,
00000100
00000001
00000010
00000000
00000001
00000000
00001000
00001000
,
00001000
00000000
00000001
00000010
00000001
00001000
00000010
00000000
,
00000100
00000001
00000010
00000001
00001000
00000000
00100000
01000000
,
00100000
10000000
00010000
00000000
00001000
00000000
00011000
00000000
,
10010000
00010000
00100000
11000000
,
10000000
00100000
00011000
00001000
,
00000001
00001001
00000001
00000010
,
00001100
00000010
00000001
00001001
,
00001100
00000000
00000000
00000011
00000000
00000000
00001010
00000000
,
00000000
00011000
00000000
00000000
10010000
00000000
00000000
01100000
,
00000000
00000000
01010000
00000000
00000000
00110000
00000000
00000000
,
11000000
00000000
00000000
00110000
00000000
00000000
00010010
00000000
,
00000000
00000110
00000000
00000000
00000101
00000000
00000000
00001001
,
00000000
00000000
00001100
00000000
00000000
00000110
00001000
00000001
,
00000011
00000100
00001000
00001000
00000000
00000000
00020000
00000000
,
00000000
00000000
00030000
10000000
00100000
10000000
00010000
01000000
,
00100000
00010000
20000000
00000000
30010000
00100000
00010000
00100000
,
01000000
00010000
01000000
00000000
00010000
01000000
00100000
20000000
,
00000000
00000000
32000000
00000000
03100000
00002000
00000000
00000000
,
00003001
00000010
00000100
00001000
00010000
00100000
01000000
10000000
,
01000000
00100000
00010000
00001000
00000100
00000010
00000001
00000010
,
00000100
00001000
00010000
00100000
01000000
10000000
01000000
00000000
,
10000000
01000000
00100000
00010000
10000000
01000000
00100000
00010000
,
10000000
01000000
00100000
00010000
00001000
00000100
00000010
00000001
,
00001000
00000100
00000010
00000001
00001000
00000100
00000010
00000001
,
00001000
00000000
00010000
00000000
01000000
01000000
00100000
00000000
,
00010000
00001000
00100000
10000000
,
00010000
00010000
00100000
00000000
00001000
00000000
00100000
00000000
,
00001000
00000000
01000000
00000000
00100000
00100000
00001000
00000000
,
01000000
00000000
00100000
00100000
00001000
00000000
00010000
00000000
,
00100000
00100000
01000000
00000000
00010000
00000000
00001000
00000000
,
01000000
00100000
00010000
00000100
00000010
00000100
00000000
00001000
,
00000100
00000010
00001000
00010000
00000000
00010000
00100000
01000000
,
00100000
00001000
00000000
00001000
00000100
00000010
00000100
00001000
,
00000000
00001000
00000100
00000010
00001000
00010000
00000000
00010000
,
00100000
01000000
00100000
00001000
00000000
00001000
00000100
00000010
,
00000100
00001000
00000000
00001000
00000100
00000010
00001000
00010000
,
20000000
00000000
00000000
00000000
,
32000000
03200000
00320000
00032000
,
00000000
00100000
00103000
00000000
01000000
00000000
00010000
00000000
,
10000000
01000000
00100000
00010000
,
00000100
00000010
00000001
00001000
,
00000010
00000000
00000000
00000000
00000200
00000000
00000302
00000000
00002003
00000000
00000000
00000000
00023000
00000000
00000000
00030000
,
02200000
00000000
00000000
00000000
00000000
00000000
00000000
00000000
00000000
00000000
00000000
03300000
00000000
00000000
00000000
00000000
;

//---------------dance-double - ----------------
#NOTES:
     dance-double:
     :
     Medium:
     8:
     0.509,0.466,0.126,0.454,0.042,427.000,18.000,65.000,0.000,0.000:
00010000
00100000
01000000
10000000
00010000
00002000
00003000
00000100
,
00000001
00000010
00000001
00002000
00003000
00001000
00000100
00000010
,
00000100
00002000
00003000
00001000
00000010
00000100
00000010
00002000
,
00003000
00000001
00000010
00000001
00001000
00000020
00000030
00010000
,
10000000
01000000
00100000
20000000
30000000
10000000
00010000
01000000
,
00100000
00020000
00030000
00010000
10000000
01000000
00100000
20000000
,
30000000
01000000
00100000
00010000
00000100
00000020
00000030
00000010
,
00000001
00001000
00000010
00000100
00000002
00000000
00002003
00000000
,
00000000
00003001
00000010
00000001
00001000
00000010
00000100
00000002
,
00000003
00001000
00000100
00000010
00000100
00002000
00003000
00001000
,
00000010
00000100
00000001
00002000
00003000
00010000
10000000
00100000
,
01000000
00000000
00010000
00000000
10000000
00000000
00010000
00000000
02000000
00000000
00000000
00000000
00000000
00000000
03100000
00010000
,
00001000
00000001
00000100
00000010
00001000
00000002
00000003
00000001
,
00000010
00000100
00001000
00000200
00000300
00000010
00000001
00001000
,
00000010
00000200
00000300
00000100
00000001
00000010
00000001
00002000
,
00003000
00010000
00100000
01000000
00100000
00020000
00030000
00010000
,
00001000
00100000
01000000
20000000
30000000
10000000
01000000
00010000
,
00001000
00000020
00000030
00000010
00000100
00001000
00000100
00000020
,
00000030
00001000
00010000
00100000
01000000
20000000
30000000
00010000
,
10000000
01000000
10000000
00020000
00030000
00001000
00000100
00000010
,
00000100
00002000
00003000
00001000
00000001
00000100
00000010
00002000
,
00003000
00001000
00010000
01000000
00010000
00200000
00300000
00100000
,
10000000
01000000
10000000
00200000
00300000
01000000
10000000
00010000
,
00100000
02000000
03000000
01000000
00010000
10000000
00020000
00230000
,
02300000
00000000
00000000
00000000
00000000
00000000
00000000
10000000
,
13000000
00010000
01000000
00200000
00300000
00100000
10000000
00010000
,
10000000
01000000
00200000
00000000
00320000
00000000
00032000
00000000
,
00003200
00000000
00000000
00000000
00000000
00000010
00000310
00000001
,
00001000
00100000
01000000
00020000
00030000
00001000
00000100
00000010
,
00000001
00000200
00000300
00000100
00000001
00001000
00000010
00002000
,
00000000
00000000
00000000
00000000
00000000
00003000
00011000
00000000
,
00010000
00001000
00000000
00001000
00010000
00000000
00010000
00100000
,
00000000
00100000
01000000
00000000
01000000
10000000
00000000
10000000
,
00010000
00000000
00010000
00001000
00000000
00001000
00100000
00000000
,
00100000
00010000
00000000
00010000
00001000
00000000
00001000
00100000
,
00000000
00100000
00010000
00000000
00001000
00000001
00000000
00000001
,
00001000
00000000
00001000
00000010
00000000
00000010
00000100
00000001
,
00000100
00000001
00000100
00000010
00001000
00000000
00001000
00010000
,
00000000
00010000
01000000
00100000
00010000
00100000
01000000
10000000
,
00100000
01000000
00020000
00000000
00030001
00000010
00000001
00001000
,
00000010
00000000
00000200
00000000
00000000
00000000
00000300
00000000
00000001
00000000
00000010
00000000
00000001
00000010
00000100
00002000
,
00000000
00000000
00000000
00003000
00020000
00000000
00000000
00000000
02030000
00000000
03200000
00000000
00300000
00000000
00000000
00000000
,
10010000
00100000
00001000
00000001
00000100
00001000
00010000
01000000
,
10000000
00010000
01000000
00000000
00010000
00010000
00100000
10000000
,
01000000
00100000
00010000
00001000
00000100
00000010
00000001
00000000
,
00000010
00000010
00001000
00000001
00000010
00001000
01000000
00010000
,
00100000
01000000
00010000
00200000
10300000
01000000
00010000
00100000
,
10000000
00010000
00001000
00000100
00000001
00000010
00001000
00000100
,
00000010
00000000
00000000
00001000
00000000
00000000
00010000
00000000
10010000
00000000
10010000
00000000
00001000
00000000
00000000
00010000
,
00000000
00000000
00001000
00000000
00011000
00000000
00011000
00000000
00000010
00000000
00000000
00001000
00000000
00000000
00000100
00000000
,
00000011
00000000
00000011
00000000
00001000
00000000
00000000
00010000
00000000
00000000
01000000
00000000
10100000
00000000
10100000
00000000
,
01000000
00000000
00000000
00010000
00000000
00000000
00001000
00000000
00001001
00000000
00001001
00000000
00000100
00000000
00000000
00000010
,
00000000
00000000
00000100
00000000
00000011
00000000
00000011
00000000
00001000
00000000
00000000
00010000
00000000
00000000
10000000
00000000
,
10010000
00000000
10010000
00000000
00020000
00000000
00000000
02030000
00000000
00000000
03002000
00000000
00000000
00000000
00000000
00000000
,
00013000
01000000
00100000
10000000
00010000
00200000
00300000
00100000
,
00010000
10000000
00100000
02000000
03000000
01000000
10000000
01000000
,
00010000
00002000
00003000
00001000
00000100
00000010
00000100
00002000
,
00003000
00001000
00000001
00000100
00000010
00002000
00003000
01000000
,
00010000
00100000
10000000
02000000
03000000
01000000
10000000
00100000
,
00010000
00200000
00300000
00001000
00000010
00000100
00000001
00002000
,
00003000
00000100
00001000
00000001
00000010
00000200
00000300
00010000
,
10000000
00100000
00010000
10000000
00000000
01000000
00100000
10000000
,
00010000
10000000
01100000
00010000
00010000
10000000
10000000
01000000
,
01000000
00100000
00100000
00010000
00011000
00000000
00001000
00000001
,
00001000
00000010
00000100
00000100
00000001
00000001
00001000
00001000
,
00000200
00000000
00000000
00000000
00000320
00000000
00000032
00000000
00002003
00000000
00000000
00000000
00000000
00000000
00003010
00000100
,
00020000
00000000
00000000
00000000
00000000
00000000
00000000
00000000
00000000
00000000
00000000
00030000
00000000
00000000
00000000
00000000
;

//---------------dance-double - ----------------
#NOTES:
     dance-double:
     :
     Hard:
     11:
     0.693,0.745,0.224,0.405,0.391,604.000,32.000,58.000,0.000,0.000:
00001000
00001000
00000001
00000010
00000001
00001000
00000010
00000010
,
00000100
00000001
00000010
00000001
00001000
00010000
01000000
00100000
,
10000000
01000000
10000000
10000000
00100000
01000000
00001000
00000001
,
00000010
00000010
00000001
00001000
00000010
00001000
00000100
00000100
,
00000010
00000001
00001000
01000000
00100000
00100000
10000000
01000000
,
10000000
00000000
00010000
00000000
01000000
00000000
10000000
00000000
00010000
00000000
00100000
00000000
10000000
00000000
00100000
10000000
,
00010000
00000100
00001000
00000001
00000100
00000010
00001000
00001000
,
00000002
00000000
00000013
00000000
00000200
00000000
00001300
00000000
00000200
00000300
00000100
00000000
00000020
00000000
00000031
00000000
,
00001000
00000000
00000020
00000000
00000230
00000300
00000100
00000000
00010000
00000000
00100000
00000000
00010000
00000000
10000000
00000000
,
01000000
00000000
01000000
00000000
00100000
00000000
00010000
00000000
10000000
00000000
00100000
00000000
02000000
03000000
01000000
00000000
,
00020000
00000000
10030000
00000000
02000000
00000000
03100000
00000000
00002000
00003000
00002000
00000000
00003002
00000000
00000100
00000003
,
00000010
00000000
00001000
00000000
00002000
00003000
00002000
00000000
00003200
00000000
00000010
00000300
00000100
00000000
00001000
00000100
,
00000010
00000010
00000001
00001000
00100000
00010000
01000000
01000000
,
00100000
00000000
00010000
00000000
00002000
00000000
00003100
00000000
00000020
00000030
00000010
00000000
00000200
00000000
00002300
00000000
,
00003010
00010000
10000000
10000000
00100000
01000000
00001000
00000001
,
00000020
00000030
00000010
00000000
00000200
00000000
00001300
00000000
00200000
00000000
20300000
00000000
30100000
00000000
00100000
00000000
,
00010000
01000000
10000000
01000000
00001000
00001000
00000001
00000010
,
00000001
00000000
00002000
00000000
00003200
00000300
00000100
00000010
00000001
00000100
00000010
00010000
10000000
01000000
00200000
00000000
,
00301000
00001000
00000001
00000100
00000010
00001000
00000001
00000001
,
00000010
00000100
00001000
00100000
10000000
10000000
00100000
00010000
,
01000000
00100000
00010000
00010000
00001000
00000010
00000100
00000001
,
00000010
00000010
00000100
00001000
00000100
00010000
00100000
00100000
,
00010000
01000000
00100000
01000000
00001000
00001000
00000001
00000010
,
00000001
00000000
00001000
00000000
00000100
00000000
00000100
00000000
00010000
00000000
01000000
00000000
10000000
00010000
00100000
00010000
,
20000000
30000000
10000000
00000000
01000000
00000000
00010000
00000000
01000000
00000000
00100000
00000000
00010000
00000000
00010000
00000000
,
10000000
01000000
00100000
00100000
01000000
01000000
00100000
00001000
,
00000010
00000000
00000100
00000000
00000001
00000000
00000000
00000001
00001000
00000000
00001000
00000000
00000100
00000000
00000020
00000000
,
00000031
00000001
00001000
01000000
00100000
10000000
00010000
00010000
,
00100000
01000000
00100000
00001000
00000010
00000010
00000100
00000001
,
00001000
00000000
00000001
00000000
00000010
00000000
00000000
00000010
00000100
00000000
00000100
00000000
00001000
00000000
00200000
00000000
,
00310000
00010000
01000000
00100000
10000000
01000000
00011000
00000000
,
00010010
00000000
00000001
00000000
00000100
00000010
00001000
00000000
00101000
00000000
00000100
00000000
00010100
00000000
00010000
00000000
,
00011000
00000000
00000010
00000000
00010000
00000100
00010000
00000000
00101000
00000000
00000010
00001000
00000010
00000000
01001000
00000000
,
00000100
00000020
00000100
00000100
00010000
00000100
00000130
00000020
,
00000000
00000100
00000032
00000000
00010003
00001000
00000010
00000010
00001000
00000000
00010000
00000000
10000000
00000000
00010000
00000000
,
00011000
00000000
00000100
00000000
00002000
00000000
00003000
00010000
00001000
00000100
00000010
00001000
00010000
00100000
00000000
00200000
,
00000000
00000000
00300000
00000000
00100000
00000000
00010000
00000000
00110000
00000000
00100000
00000000
01000000
00010000
01000000
00100000
,
01000000
00010000
01000000
00100000
01000000
00010000
00001000
00000100
00000010
00000010
00000001
00000000
00001001
00000000
00001000
00000000
,
00010000
00000000
10010000
00000000
10000000
01000000
00100000
00001000
00000100
00000010
00000001
00000100
00000010
00001000
00010000
00100000
,
01000000
10000000
00100000
01000000
00200000
00000000
00000000
00000000
00301000
00000001
00000100
00000001
00001000
00000100
00000010
00000100
,
00001000
00010000
00200000
00000000
00000000
00000000
00000000
00000000
01300000
00100000
01000000
00010000
01000000
00100000
10000000
02000000
,
10000000
00000000
00000000
00000000
03000001
00000000
00001000
00000100
00000010
00000100
00000100
00001000
00010000
00010000
00100000
00000000
,
01100000
00100000
00010000
10000000
01000000
00100000
00001000
00000001
00000010
00000100
00001000
00000001
00000010
00000100
00001000
00010000
,
00100000
01000000
10000000
01000000
00200000
00000000
00000000
00300000
00000000
00010000
00000010
00001000
00000001
00000100
00000010
00001000
,
00000001
00100000
01000000
00010000
10000000
00100000
01000000
00010000
00001000
00000010
00000100
00001000
00020000
00000000
00030000
00000000
,
00000000
00001000
00000010
00000100
00000001
00000010
00000100
00001000
01000000
00100000
10000000
01000000
00100000
00001000
00000010
00000100
,
00000001
00000010
00000100
00001000
01000000
00200000
00000000
00000000
10300000
00100000
00010000
10000000
01000000
00001000
00000001
00000100
,
00001000
00000001
00000010
00001000
00010000
01000000
10000000
00010000
00100000
10000000
00010000
01000000
10000000
00010000
00001000
00010000
,
00200000
00000000
00000000
01300000
00000000
00000000
00010000
00000000
00001000
00000001
00001000
00000000
00000010
00000000
00000000
00001001
,
00000000
00000000
00001010
00000000
00001000
00000001
00001000
00000000
00000011
00000000
00000000
00011000
00000000
00000000
10100000
00000000
,
10000000
00010000
10000000
00000000
11000000
00000000
00000000
01100000
00000000
00000000
00110000
00000000
00100000
00001000
00100000
00000000
,
00010100
00000000
00000000
00010010
00000000
00000000
00000110
00000000
00000001
00000100
00000001
00000000
00000101
00000000
00000000
00011000
,
00000000
00000000
00110000
00000000
00010000
10000000
00010000
00000000
10010000
00000000
00000000
10100000
00000000
00000000
01010000
00000000
,
10000000
00010000
10000000
00000000
11000000
00000000
00000000
01010000
00000000
00000000
00022000
00000000
00000000
00000000
00000000
00033000
,
00010000
00001000
01000000
00100000
10000000
01000000
00100000
00100000
,
00001000
00000010
00000001
00001000
00000100
00000100
00000010
00000001
,
00001000
01000000
00100000
00100000
10000000
00010000
10000000
01000000
,
00100000
00100000
00001000
00000100
00000010
00000001
00000100
00000100
,
00000010
00001000
00000001
00000010
00000001
00000001
00001000
01000000
,
00100000
00000000
01000000
00000000
00010000
00000000
00010000
00000000
00100000
00000000
01000000
00000000
00100000
00000000
00010000
10000000
,
00200000
00300000
00100000
00000000
01000000
00000000
00001000
00000000
00000001
00000000
00000010
00000000
00000100
00000000
00000100
00000000
,
00002000
00000000
00003001
00000000
00000020
00000000
00000031
00000000
00002000
00003000
00001000
00000000
00000200
00000000
00000310
00000000
,
00000001
00000000
00000020
00000000
00000230
00000300
00000100
00000000
00001000
00000000
00010000
00000000
00100000
00000000
00010000
00000000
,
00000100
00010000
00100000
00001000
00020000
00000000
00130000
01000000
,
00001000
00010000
00100000
01000000
00001000
00010000
00100000
00001000
,
00020000
00000000
00000000
00000000
02030000
00000000
03002000
00000000
00023000
00000000
00000000
00000000
00030000
00000000
00002000
00023000
,
00130000
00001000
00100000
00010000
00001000
00200000
00000000
00000000
00000000
00000000
00000000
00300000
00000000
00000000
00000000
00000000
;

//---------------dance-double - ----------------
#NOTES:
     dance-double:
     :
     Challenge:
     13:
     0.829,0.745,0.629,1.000,0.391,596.000,90.000,145.000,0.000,2.000:
00110000
00010000
00000020
00000031
00000020
00000130
00001010
00100000
,
00000002
00000103
00002000
00103000
00001001
00010000
00002000
00013000
,
00000020
00010030
00001000
00100000
00010002
00000103
00020000
01030000
,
01001000
00000100
00000020
00010030
00002000
00103000
00010100
00001000
,
00002000
00013000
02000000
03001000
00001100
00001000
00000020
00000031
,
00000020
00000000
00000130
00000000
00011000
00000000
00010000
00000000
00002000
00000000
00003100
00000000
00002000
00000000
00103000
00010000
,
00000100
00010000
00002000
00003010
00000002
00000103
00101000
00010000
,
00000020
00000000
00001030
00000000
00000002
00000000
00001003
00000000
00001002
00000003
00001000
00000000
00002000
00000000
00003100
00000000
,
00020000
00000000
00032000
00000000
00003102
00000003
00001000
00000000
00000020
00000000
00010030
00000000
00000020
00000000
00000030
00000000
,
00001001
00000000
00000100
00000000
00002000
00000000
00003010
00000000
00020000
00000000
00031000
00000000
00000102
00000003
00010000
00000000
,
00000020
00000000
00010030
00000000
00000002
00000000
00000103
00000000
00001020
00000030
00002000
00000000
02003000
00000000
03010000
00000000
,
00000010
00000000
00000100
00000000
00011000
00000000
00010000
00000000
00002000
00000000
00013000
00000000
00002000
00000000
00103000
00010000
,
00001100
00001000
00000020
00001030
00002000
00013000
00011000
00001000
,
00000200
00000000
00010300
00000000
00000200
00000000
00000301
00000000
00002001
00003000
00000010
00000000
00000002
00000000
00010003
00000000
,
00002000
00003000
00011000
00000100
00000002
00001003
00020000
00031000
,
00002010
00003000
00010000
00000000
00000002
00000000
00001003
00000000
00000002
00000000
00000023
00000000
00011030
00000000
00000100
00000000
,
00020000
00031000
00000020
00000130
00010010
00100000
00002000
00013000
,
00000020
00000000
00002030
00003000
00010100
00000000
00100000
00001000
01000000
00001000
00010000
01000000
00100000
00100000
00002000
00003000
,
00011000
00100000
00010000
00100000
00002000
00003000
00001100
00000001
,
00002000
00013000
02000000
03001000
01010000
00001000
00002000
00013000
,
00002000
00013000
00101000
00001000
00020000
00031000
00000200
00010300
,
00101000
00010000
00000200
00001300
00000002
00001003
00001100
00000010
,
00002000
00013000
00000200
00010300
00000110
00010000
00000020
00000130
,
00000020
00000000
00000031
00000000
00001001
00000000
00001000
00000000
00010000
00000000
00010000
00000000
00001000
00001000
00010000
00010000
,
00001002
00000003
00000100
00000000
00000020
00000000
00000130
00000000
00000020
00000000
00000130
00000000
00000010
00000000
00001000
00000000
,
00000002
00001003
00000020
00000130
00010100
00000010
00000002
00000103
,
00002000
00000000
00003000
00000000
00020001
00000000
00030000
00001000
00100000
00000000
00020000
00000000
00030200
00000000
00002300
00003000
,
00001100
00000010
00002000
00003000
00020000
00130000
00010100
00001000
,
00020000
00030001
00020000
00130000
00110000
00001000
00020000
00030100
,
00002000
00000000
00103000
00000000
00020010
00000000
00000000
00030100
00010000
00000000
00020000
00000000
00032000
00000000
00203000
00300000
,
00011000
00000100
00000200
00010300
00002000
01003000
00011000
00000000
,
00001100
00000000
00001000
00000000
00010000
00000100
00011000
00000000
00001100
00000000
00000001
00000000
00001010
00000000
00100000
00000000
,
00010010
00000000
00010100
00000000
00001000
00001000
00010000
00000000
00101000
00000000
00100000
00001000
00000100
00000000
00000011
00000000
,
00000100
00000002
00000010
00001000
00001000
00000100
00000013
00000002
,
00000000
00001000
00000203
00000000
00000300
00000010
00000010
00001000
00100000
00000000
01000000
00000000
01010000
00000000
01000000
00000000
,
00011000
00000000
00000110
00000000
00002000
00000000
00003000
00000010
00000001
00000010
00001000
00100000
01000000
00100000
00000000
00020000
,
00000000
00000000
00130000
00000000
01010000
00000000
00001000
00000000
00100100
00000000
00000100
00000000
01000000
00100000
10000000
01000000
,
00001000
01000000
00001000
00000100
00010000
00001000
00000001
00000100
00010000
00001000
00000100
00000000
00010100
00000000
00000100
00000000
,
00010000
00000000
00101000
00000000
00001000
00000100
00000010
00010000
00000100
00010000
00001000
00000001
00001000
00100000
01000000
00010000
,
00001000
00000010
00000100
00001000
00000002
00000000
00000000
00000000
01000003
00010000
00001000
00010000
00000001
00000100
00001000
00010000
,
00001000
00001000
00000002
00000000
00000000
00000000
00000000
00000000
00000103
00001000
00010000
00000100
00000010
00001000
00000010
00002000
,
00010000
00000000
00000000
00000000
00013000
00000000
00001000
00010000
00000010
00100000
00001000
00001000
00010000
00001000
00000001
00000000
,
00101000
00000100
00000001
00000010
00000100
00001000
00000001
00000010
00000001
00000010
00010000
00000010
00000100
00010000
00000001
00000010
,
00000001
00000100
00000001
00000010
00002000
00000000
00000000
00003000
00000000
00001000
00000010
00100000
00010000
00001000
00000100
00001000
,
00001000
00010000
00010000
00001000
01000000
00001000
00000100
00001000
00010000
00001000
00100000
00010000
00020000
00000000
00000000
00000000
,
00030000
10000000
01000000
00100000
00010000
00001000
00010000
00100000
00001000
00100000
00001000
00010000
00001000
00100000
00010000
00001000
,
00000100
00010000
01000000
00010000
00001000
02000000
00000000
03000000
01000000
00001000
01000000
00001000
01000000
00000100
00001000
01000000
,
00001000
00000100
00100000
00001000
00010000
00001000
00100000
00001000
00010000
00100000
00010000
00000100
00001000
00010000
00100000
00010000
,
00002000
00000000
00003000
00000101
00000000
00000000
00011000
00000000
00001000
00000010
00001000
00000000
00000001
00000000
00000000
00011000
,
00000000
00000000
01100000
00000000
10000000
00010000
01000000
00000000
00011000
00000000
00000000
00000110
00000000
00000000
00011000
00000000
,
00010000
00001000
00010000
00000000
00010010
00000000
00000000
00010100
00000000
00000000
00011000
00000000
00000010
00001000
00000100
00000000
,
00001010
00000000
00000000
00010100
00000000
00000000
00010010
00000000
00000010
00001000
00010000
00000000
00011000
00000000
00000000
00011000
,
00000000
00000000
00110000
00000000
01000000
00100000
00010000
00000000
00101000
00000000
00000000
00101000
00000000
00000000
00010100
00000000
,
00001000
00010000
00001000
00000000
01000100
00000000
00000000
01010000
00000000
00000000
12000000
00000000
00100000
00000000
00000000
03000000
,
00101000
00001000
00002000
00103000
02000000
03000100
00001010
00000100
,
00000020
00000130
00000020
00000030
00001100
00010000
00002000
00003100
,
00020000
00031000
00010100
00000001
00000020
00000130
00000020
00001030
,
00001100
00010000
02000000
03001000
00002000
00003010
00000101
00010000
,
00002000
00003001
00000020
00010030
00001100
00010000
00002000
00003001
,
00000002
00000000
00000013
00000000
00011000
00000000
00000100
00000000
00000002
00000000
00000013
00000000
00000002
00000000
00000103
00000001
,
00001100
00000010
00002000
00003000
00000020
00000030
00011000
00100000
,
02000000
00000000
03000000
00000000
00020000
00000000
00031000
00000000
02100000
03000000
00010000
00000000
00002000
00000000
00013000
00000000
,
00000020
00000000
00002030
00003000
00010002
00000003
00000010
00000000
00002000
00000000
00003100
00000000
00000002
00000000
00010003
00000000
,
00001000
00010000
00000002
00000103
00002000
00000000
00003010
00000100
,
00000020
00001030
00000002
00000103
00001000
00100000
00002000
01003000
,
00020000
00000000
00000000
00000000
00032000
00000000
00023000
00000000
02030000
00000000
00000000
00000000
03000000
00000000
00002000
00023000
,
00030200
00001000
00010300
00100000
00001000
00000002
00000000
00000000
00000000
00000000
00000000
00000003
00000000
00000000
00000000
00000000
;
