#TITLE:Necropolis;
#SUBTITLE:;
#ARTIST:Banzai;
#TITLETRANSLIT:;
#SUBTITLETRANSLIT:;
#ARTISTTRANSLIT:;
#CREDIT:;
#BANNER:necropolis-banner.PNG;
#BACKGROUND:necropolis-bg.PNG;
#LYRICSPATH:;
#CDTITLE:;
#MUSIC:Necropolis.mp3;
#OFFSET:-0.020;
#SAMPLESTART:26.000;
#SAMPLELENGTH:14.000;
#SELECTABLE:YES;
#BPMS:0.000=83.000,48.000=41.500,56.000=83.000;
#STOPS:;
#BGCHANGES:;
// cache tags:
#FIRSTBEAT:8.000;
#LASTBEAT:112.000;
#SONGFILENAME:Songs/StepMix 1.0/Necropolis/Necropolis.sm;
#HASMUSIC:1;
#HASBANNER:1;
#MUSICLENGTH:90.415;
// end cache tags

//---------------dance-single - M. Herson----------------
#NOTES:
     dance-single:
     M. Herson:
     Hard:
     9:
     0.616,1.000,1.000,0.000,0.680,296.000,94.000,0.000,0.000,0.000:
0000
0000
0000
0000
,
0000
0000
0000
0000
,
1000
0000
0100
0010
0001
0010
0100
0000
1000
0000
0100
0010
0100
0001
0100
1000
,
0100
0000
0010
0001
0000
0001
0100
0000
0010
1000
0100
0000
0100
0100
0100
0000
,
1100
0000
0011
0000
1100
0000
0010
0001
0010
0001
1000
0000
1100
0000
0001
0000
,
1010
0000
0101
0000
1010
0000
1000
0100
1000
0001
0100
0000
0010
1000
0100
0000
,
0011
0000
1100
0000
1001
0000
1000
0001
1000
0001
0010
0000
1100
0000
0011
0000
,
0110
0000
1100
0000
0011
0000
0001
1000
0001
0100
0001
0010
0100
0001
0100
0010
,
0100
0000
1100
0000
0011
0000
0110
0000
1100
0100
0010
0001
0001
0010
0100
1000
,
1100
0000
0110
0000
1100
0000
1001
0000
0011
0010
0100
1000
1000
0100
0010
0001
,
0011
0000
1100
0000
1001
0000
0101
0000
1010
0010
0100
0001
1000
1000
0001
0100
,
1010
0000
0101
0000
1001
0000
0110
0000
0101
0100
0010
1000
0001
0001
1000
0010
,
0101
0000
1010
0000
1001
0000
1100
0000
0011
0001
0010
1000
1000
0010
0001
0010
1100
0000
0101
0000
0011
0000
1010
0000
0011
0001
0100
0010
0010
1000
0100
0010
,
0011
0000
1001
0000
0110
0000
1100
0000
0011
0001
0100
0010
1000
1000
0100
0010
0011
0000
1001
0000
0110
0000
1100
0000
0101
0001
0100
0010
0010
0100
0001
0100
,
0101
0000
0010
1000
0100
0000
0010
0001
0000
0001
0100
0010
0100
0000
0010
1000
,
0000
1000
0100
0000
0010
0001
0000
1001
0000
0000
0110
0000
1001
0000
0000
0000
,
1100
0000
0010
0001
0100
0000
0100
0010
0000
0010
1000
0100
1000
0000
1000
0100
,
0000
0100
0010
0000
0010
0001
0000
0011
0000
0000
1100
0000
0110
0000
0011
0000
,
0101
0000
0010
1000
0100
0000
0100
1000
0000
1000
0100
0001
0100
0000
0100
1000
,
0000
1000
0010
0000
0010
0001
0000
1100
0000
0000
0101
0000
1010
0000
0110
0000
,
1010
0000
1000
0100
0010
0000
0010
0100
0000
0100
1000
0001
1000
0000
0001
0100
,
0000
0100
0010
0000
0010
1000
0000
1001
0000
0000
0110
0000
1001
0001
1000
0001
,
1001
0000
1010
0000
0101
0000
0010
1000
0000
1000
0100
0010
0001
0000
1001
0000
,
0110
0110
0011
0011
1100
1100
0101
1010
,
1100
1000
0100
0010
0011
0000
0000
0000
0011
0001
0010
0100
1100
0000
0110
0000
,
1001
0001
1000
0100
0010
0001
1000
0100
0010
0001
1001
0000
0101
0000
1010
0000
,
1100
0000
0000
0000
0000
0000
0000
0010
0000
0001
0000
0100
0000
0010
0000
1000
,
0000
0001
0000
0100
0000
0000
0000
0010
0000
0000
0000
0000
0000
0000
0000
0000
;

//---------------dance-single - M. Herson----------------
#NOTES:
     dance-single:
     M. Herson:
     Beginner:
     1:
     0.077,0.105,0.044,0.000,0.006,45.000,4.000,0.000,0.000,0.000:
0000
0000
0000
0000
,
0000
0000
0000
0000
,
1000
0000
0000
0000
,
0001
0000
0000
0000
,
1000
0000
0000
0000
,
0010
0000
0000
0000
,
0100
0000
0000
0000
,
1000
0000
0000
0000
,
0001
0000
0000
0000
,
0010
0000
0000
0000
,
1000
0000
0000
0000
,
0100
0000
0000
0000
,
0010
0000
0110
0000
,
0100
0000
1000
0000
,
0001
0100
0010
0000
,
1000
0100
0010
0000
,
0001
0100
0010
0000
,
1000
0100
0010
0000
,
0001
0000
1000
0000
,
0010
0100
0010
0000
,
1001
0000
1000
0000
,
0100
0010
0100
0000
,
0010
0000
0001
0000
,
0100
0000
0010
0000
,
0100
0000
0010
0000
,
0001
0000
0000
0000
,
0110
0000
0000
0000
,
0000
1001
0000
0000
0000
0000
0000
0000
0000
0000
0000
0000
0000
0000
0000
0000
;

//---------------dance-single - M. Herson----------------
#NOTES:
     dance-single:
     M. Herson:
     Easy:
     2:
     0.185,0.197,0.166,0.000,0.094,102.000,15.000,0.000,0.000,0.000:
0000
0000
0000
0000
,
0000
0000
0000
0000
,
1000
0100
0010
0001
,
0001
0000
0000
0010
0000
0000
0100
0000
0000
0000
0000
0000
1000
0000
0000
0000
,
1001
0000
0110
0000
,
0010
1000
0001
0100
,
0110
0000
0101
0000
,
0010
0001
0010
1000
,
0010
0001
0010
0100
,
1000
0010
0110
0000
,
1001
0000
0010
0001
,
0100
0100
0010
0010
,
1000
1000
1000
0000
0001
0001
0001
0000
,
0010
0010
0010
0000
0100
0100
0100
0000
,
1000
0001
0100
0010
,
0000
0100
0000
0000
0010
0000
0000
1000
0000
0000
0000
0000
0100
0000
0000
0000
,
0010
0100
1000
0100
,
0000
0010
0000
0000
0010
0000
0000
0001
0000
0000
0000
0000
1000
0000
0000
0000
,
0001
0001
1000
1000
,
0000
0010
0000
0000
0010
0000
0000
0110
0000
0000
0000
0000
0000
0000
0000
0000
,
0110
0101
0110
1010
,
0000
0100
0000
0000
0010
0000
0000
0110
0000
0000
0000
0000
0000
0000
0000
0000
,
1000
0100
1000
0010
,
1000
0001
1000
0010
,
1001
0110
0101
1000
,
0100
0010
0100
1000
,
0001
0000
0000
0000
0010
0000
0000
0100
0000
0010
0000
0001
0000
0010
0000
0100
,
0000
0010
0000
0001
0000
0000
0000
0100
0000
0000
0000
0000
0000
0000
0000
0000
;

//---------------dance-single - M. Herson----------------
#NOTES:
     dance-single:
     M. Herson:
     Medium:
     5:
     0.374,0.698,0.453,0.000,0.288,196.000,41.000,0.000,0.000,0.000:
0000
0000
0000
0000
,
0000
0000
0000
0000
,
0010
0001
0100
0000
0010
1000
0100
0000
,
0011
0000
0000
0110
0000
0000
1100
0000
0000
0000
1000
0000
0001
0000
0100
0000
,
0110
1000
0100
0010
0001
0001
0000
0000
,
1001
0001
0010
0100
1000
1000
0000
0000
,
1001
0001
0100
0010
0100
0010
0000
0000
,
1001
0100
0010
0001
0001
0100
0000
0000
,
0110
0000
0001
0000
1000
0000
0001
0000
1000
0001
1000
0001
1000
0000
0000
0000
,
0110
0000
0010
0000
0001
0000
0010
0000
1000
0010
0001
0010
0001
0000
0000
0000
,
1001
0000
0001
0000
0100
0000
0001
0000
1000
0100
1000
0100
1000
0000
0000
0000
,
0101
0000
0010
0000
1000
0000
0100
0000
0010
0001
0100
0010
1000
0000
0000
0000
,
0100
0000
0100
0000
0100
0000
0100
0000
0010
0001
0010
0001
0010
0000
0011
0000
1000
0000
1000
0000
1000
0000
1000
0000
0100
0010
0100
0010
0100
0000
0110
0000
,
0001
0000
0001
0000
0001
0000
0001
0000
0100
0010
1000
0001
0100
0000
1001
0000
0010
0000
0010
0000
0010
0000
0010
0000
1000
0100
0010
0001
0001
0000
1001
0000
,
0110
1001
0110
1001
,
0000
0110
0000
0000
1001
0000
0000
0110
0000
0000
0000
0000
0000
0000
0000
0000
,
1100
0011
1100
0011
,
0000
0101
0000
0000
1010
0000
0000
0101
0000
0000
0101
0000
1010
0000
0000
0000
,
0101
0110
0101
1001
,
0000
0101
0000
0000
0110
0000
0000
1010
0000
0000
0010
0000
0110
0000
0000
0000
,
1000
0100
0010
0001
0001
0100
0010
1000
,
0000
1000
0010
0000
0010
0100
0000
0110
0000
0000
1000
0100
0010
0100
1000
0000
,
1000
0100
1000
0001
1000
0010
1000
0100
,
0010
0001
0010
1000
0010
0001
0010
1000
,
0001
0100
1000
0010
0001
0010
1000
0100
,
0001
0100
0010
0001
1000
0100
0010
0001
,
0011
0000
0000
0000
0000
0000
0000
0001
0000
0010
0000
0100
0000
1000
0000
1000
,
0000
0100
0000
0010
0000
0000
0000
0001
0000
0000
0000
0000
0000
0000
0000
0000
;

//---------------dance-single - M. Herson----------------
#NOTES:
     dance-single:
     M. Herson:
     Challenge:
     12:
     0.406,0.604,0.166,1.000,0.492,117.000,15.000,121.000,189.000,114.000:
0000
0000
0000
0000
,
0000
0000
0000
0000
,
2222
0000
0003
000M
0301
0M0M
0102
0M00
,
0200
0000
0030
00M0
0020
0000
0300
0M00
,
3200
M000
2300
0M00
0M30
0MM0
0M23
0M0M
,
0201
000M
000M
000M
3002
M000
2030
00M0
,
0010
00M0
0320
0M00
0M00
0M00
0203
000M
,
0032
00M0
3020
M000
1330
M2M0
2023
000M
,
0002
0000
0330
0MM0
3M10
M2M0
20M3
00MM
,
00M2
00M0
3020
M000
2300
0M00
0230
00M0
,
0023
000M
0032
30M0
M320
2M00
0203
000M
,
3002
0000
M000
0000
2030
0000
00M0
0000
3020
0000
M000
0000
2003
0000
000M
0030
,
00M2
00M0
3020
M000
M000
M000
2000
0000
0300
0M00
0M00
0M00
0233
00MM
302M
M002
2000
0000
0000
0000
0300
0M00
0M00
0M00
0200
0000
0000
0000
0000
0000
0003
000M
,
000M
0002
0000
0000
0030
00M0
0020
0000
3000
M000
M000
M000
2333
0MMM
02MM
002M
3002
M000
2300
0M00
0M00
0M00
0203
000M
0332
0MM0
0MM0
0MM0
3220
M003
M00M
M00M
,
2302
0000
0M00
0000
0230
0000
00M0
0000
3320
0000
MM00
0000
2230
0000
00M0
00M0
,
0000
0023
000M
000M
0032
00M0
00M0
3020
M000
M000
2300
0M00
0230
0000
00M0
0000
,
3020
0000
M000
0000
2030
0000
00M0
0000
0013
0000
00MM
0000
0021
0000
000M
000M
,
0000
0032
00M0
00M0
3320
MM00
MM00
2230
03M0
00M0
0M20
0000
0100
0000
0M00
0000
,
3200
0000
M000
0000
2333
0000
0MMM
0000
0221
0000
000M
0000
0002
0030
0000
00M0
,
0000
0320
0M00
0M00
3200
M000
M000
2030
00M0
00M0
0320
0M00
3200
0000
M000
0000
,
2300
0000
0M00
0000
0233
0000
00MM
0000
0312
0000
0MM0
0000
0220
0000
0003
000M
,
000M
0032
00M0
00M0
3320
MM00
MM00
2203
000M
000M
0302
0M00
0203
0000
000M
0000
,
0001
0000
000M
0000
0032
03M0
0M20
3200
M030
20M3
302M
M002
2300
0M00
0230
00M0
,
0020
0000
0000
0000
0300
0000
0M00
0000
0200
0000
0000
0000
0000
0030
0000
00M0
,
0000
0020
0000
0000
0000
0000
0000
0000
0000
3000
0000
M000
0000
2000
0000
0003
,
0000
000M
0000
0001
000M
000M
3332
MMM0
MMM0
2120
0M30
0M00
32M0
0000
M020
0000
,
2000
0000
0000
3000
0000
M030
0000
23M0
0000
3M20
0000
M203
0000
230M
0000
0M02
,
0000
0100
0M00
3203
0000
M00M
0000
2002
0000
0000
0000
0000
0000
0000
0000
0000
,
3333
0000
0000
0000
;
