#TITLE:Mahoromatic Season 2;
#SUBTITLE:- Triomatic Ran Ran;
#ARTIST:Various Artists;
#TITLETRANSLIT:;
#SUBTITLETRANSLIT:;
#ARTISTTRANSLIT:;
#CREDIT:Anime Toshokan;
#BANNER:Mahoromatic Season 2 - Triomatic Ran Ran.png;
#BACKGROUND:Mahoromatic Season 2 - Triomatic Ran Ran bg.png;
#LYRICSPATH:;
#CDTITLE:dejiko.png;
#MUSIC:Mahoromatic Season 2 - Triomatic Ran Ran.mp3;
#OFFSET:-0.087;
#SAMPLESTART:6.980;
#SAMPLELENGTH:15.000;
#SELECTABLE:YES;
#DISPLAYBPM:256.000;
#BPMS:0.000=255.880,128.000=256.000;
#STOPS:;
#BGCHANGES:;
// cache tags:
#FIRSTBEAT:4.000;
#LASTBEAT:378.500;
#SONGFILENAME:Songs/DDR Anime 5th Mix/Mahoromatic Season 2 - Triomatic Ran Ran/Mahoromatic Season 2 - Triomatic Ran Ran.sm;
#HASMUSIC:1;
#HASBANNER:1;
#MUSICLENGTH:90.912;
// end cache tags

//---------------dance-single - BASIC----------------
#NOTES:
     dance-single:
     BASIC:
     Easy:
     3:
     0.181,0.310,0.121,0.000,0.000,104.000,11.000,0.000,0.000,0.000:
0000
0000
0000
0000
,
0000
0000
0000
0000
,
0010
0000
0000
0000
,
1000
0000
0000
0000
,
0001
0000
0000
0000
,
0010
0000
0000
0000
,
0001
0000
0000
0000
,
0100
0000
0010
0000
,
0010
0000
0010
0000
,
1000
0000
0000
0000
,
0000
0000
0000
0000
,
1000
0000
0000
0000
,
0001
0000
0000
0000
,
1000
0000
0000
0000
,
0000
0000
0000
0000
,
0000
0000
0000
0000
,
0000
0000
0000
0000
,
0010
0000
0000
0000
,
1000
0000
0000
0000
,
0010
0000
0000
0000
,
0100
0000
0000
0000
,
0001
0000
0000
0000
,
1000
0000
0000
0000
,
1001
0000
0100
0000
,
0100
0000
0100
0000
,
0010
0000
0000
0000
,
1000
0000
0000
0000
,
0010
0000
0000
0000
,
0100
0000
0000
0000
,
0001
0000
0000
0000
,
1000
0000
0000
0000
,
0100
0000
0000
0000
,
0010
0000
0000
0000
,
1000
0001
0000
0000
,
0000
0000
0000
0000
,
1000
0000
0000
0000
,
0010
0000
0000
0000
,
0100
0000
0000
0000
,
1000
0000
0001
0000
,
1001
0000
0010
0000
,
0100
0000
0010
0000
,
0001
0000
0000
0000
,
0010
0000
0000
0000
,
0100
0000
0000
0000
,
1000
0000
0000
0000
,
0100
0000
0000
0000
,
0010
0000
0000
0000
,
0001
0000
0000
0000
,
0100
0000
0000
0000
,
0010
0000
0000
1000
0000
0000
0100
0000
,
0000
0000
0100
0000
,
0001
0000
0000
0100
0000
0000
1000
0000
,
0000
0010
0000
0000
,
0100
0000
0000
0000
,
0001
0000
0000
0000
,
1000
0000
0001
0000
,
0001
0000
1000
0000
,
1001
0000
0000
0000
,
0010
0000
0000
0000
,
1000
0000
0000
0000
,
0100
0000
0000
0000
,
0001
0000
0000
0000
,
0010
0000
0000
0000
,
0100
0000
0000
0000
,
1000
0000
0000
0000
,
1001
0000
0000
0000
,
0101
0000
0000
0000
,
1010
0000
0000
0000
,
0110
0000
0000
0000
,
0010
0000
0000
0000
,
1000
0000
0000
0000
,
1001
0000
0000
0000
,
0000
0000
0000
0000
,
0100
0000
0000
0000
,
0001
0000
0000
0000
,
1001
0000
0000
0000
,
0010
0000
0000
0000
,
0001
0000
0000
0000
,
0100
0000
0000
0000
,
0001
0000
1000
0000
,
1000
0000
1000
0000
,
1000
0000
0000
0000
,
1001
0000
0000
0000
,
0100
0000
0000
0000
,
0001
0000
0000
0000
,
1000
0000
0000
0000
,
0010
0000
0000
0000
,
0100
0000
0000
0000
,
0001
0000
0000
0000
,
0010
0000
0000
0000
,
0100
0000
0000
0000
,
1000
0000
0000
0000
,
0001
0000
0000
0100
0000
0000
0010
0000
,
0000
0000
0000
0000
,
1001
0000
0000
0000
;

//---------------dance-single - ANOTHER----------------
#NOTES:
     dance-single:
     ANOTHER:
     Medium:
     6:
     0.479,0.572,0.264,0.099,0.000,272.000,24.000,9.000,0.000,0.000:
0000
0000
0000
0000
,
0000
0000
0000
0000
,
0000
0200
0000
0000
1300
0000
0010
0000
,
0001
0020
0000
0000
1030
0000
0100
0000
,
0010
0002
0000
0000
0103
0000
0010
0000
,
1000
0000
0000
0100
0000
0000
0010
0000
,
0001
0000
0000
0010
0000
0000
0100
0000
,
1000
0000
0001
0000
,
1000
0000
0001
0000
,
0010
0100
0001
0000
,
1000
0010
0100
0000
,
0001
1000
0001
1000
,
0001
0000
1000
0001
0000
0000
1000
0000
,
0010
0100
0001
0000
,
1000
0010
0100
0000
,
0001
0010
0100
1000
,
0100
0010
0001
0000
,
1001
1001
0000
0000
,
0000
0000
0000
0000
,
0100
0010
0100
0001
,
0010
0000
1000
0010
0000
0000
1000
0000
,
0001
0100
0001
1000
,
0001
0000
1000
0001
0000
0001
1000
0000
,
1001
0000
0100
0000
,
0010
0000
0100
0000
,
1000
0001
0100
0000
,
0010
0100
0010
0000
,
1000
0010
0100
1000
,
0001
0000
0010
0100
0000
0000
1000
0000
,
0001
1000
0000
0000
,
0000
0100
0010
0001
,
0010
0001
1000
0100
,
0020
0000
0000
0030
,
0100
0010
0000
0000
,
0000
0000
0000
0000
,
0001
0010
0100
0001
,
1000
0100
0001
1000
,
1001
0000
0000
0000
,
2000
0000
3002
0000
,
1003
0000
1001
0000
,
1001
0000
1001
0000
,
0020
0000
0130
0001
,
0000
0000
1000
0010
,
0001
0100
0010
1000
,
0001
0000
0100
0010
0000
0000
0000
0000
,
0001
0000
0000
0100
0000
0000
0001
0000
,
0000
0100
1000
0100
,
0010
0000
0000
0100
0000
0000
1000
0000
,
0000
0000
0000
0000
,
1000
0000
0000
0001
0000
0000
0100
0000
,
0000
0001
1000
0000
1001
0000
0000
0000
,
0010
0000
0000
1000
0000
0000
0100
0000
,
0000
0010
0001
0100
,
1001
0000
0000
0001
0000
0000
0100
0000
,
0110
0000
0000
0100
0000
0000
0001
0000
,
0101
0000
1001
0000
,
1001
0000
1001
0000
,
0010
0100
0001
1000
,
0100
0001
0100
1000
,
0010
0100
1000
1000
,
0001
0010
0100
0001
,
1000
0010
0100
0001
,
1000
0010
0100
1000
,
0001
1000
0100
0100
,
0010
0010
0001
1000
,
0001
1000
0001
0000
1000
0001
1000
0000
,
0100
0000
0010
0100
0000
0000
1000
0000
,
0001
1000
0001
0000
1000
0001
1000
0000
,
0010
0000
0100
0010
0000
0000
0000
0000
,
1000
0010
0100
1000
,
0001
0010
0001
0100
,
1001
0000
0000
0000
,
0000
0000
0000
0000
,
1000
0010
0100
1000
,
0001
0100
0010
0001
,
1001
0000
0000
0000
,
0000
0000
0000
0000
,
1000
0010
0100
0001
,
0010
0100
1000
0100
,
0010
0000
1001
0000
,
1001
0000
1001
0000
,
1001
0000
0000
0000
,
0000
0000
0000
0000
,
1000
0001
0100
0000
,
0010
0100
0001
1000
,
0010
0100
0010
0000
,
0001
0001
0010
0100
,
1000
0010
0100
0000
,
0010
0100
0001
0010
,
0100
0010
0001
0000
,
1000
0010
0100
0010
,
1000
0001
0100
0000
,
1001
0000
0000
0000
1001
0000
0000
1001
,
0000
0000
0000
0000
,
2002
0000
0000
0000
0000
3003
0000
0000
;

//---------------dance-single - MANIAC----------------
#NOTES:
     dance-single:
     MANIAC:
     Hard:
     9:
     0.677,0.780,0.539,0.275,0.000,357.000,49.000,25.000,0.000,0.000:
0000
0000
0000
0000
,
1001
0000
0010
0100
,
0001
0000
0100
1000
,
0110
0000
0010
0100
,
1000
0000
0010
1000
,
0101
0000
0000
0002
0000
0000
0103
0000
,
1010
0000
0000
0020
0000
0000
0130
0000
,
1001
0000
0002
0000
,
2003
0000
3020
0000
,
0031
0000
1000
0100
0000
0010
0000
0010
,
0000
1000
0000
0100
0001
0000
0010
0000
,
0001
0000
1000
0100
0000
0010
0000
0100
,
0000
1000
0000
0001
0010
0000
1000
0000
,
0100
0000
0001
0100
0000
0010
0000
0001
,
0000
1000
0000
0001
0100
0000
0001
0000
,
1000
0001
0000
0001
1000
0100
0000
0010
,
0200
0000
0000
0300
,
1000
0000
0001
0100
0000
0010
0000
1000
,
0000
0100
0000
0010
1000
0000
0001
0000
,
0010
0000
0001
0100
0000
0010
0000
1000
,
0000
0001
0000
0010
1000
0000
0100
0000
,
0100
0000
0010
0100
1000
0000
0010
0100
,
0010
0000
1000
0010
0100
0000
0010
1000
,
0001
0000
0000
0000
0202
0000
0000
0303
,
2002
0000
0000
3003
2200
0000
0000
3300
,
0001
0000
0100
0010
0000
0001
0000
1000
,
0000
0010
0000
0100
0010
0000
0001
0000
,
1000
0000
0001
0100
0000
0010
0000
1000
,
0000
0001
0000
0010
0001
0000
0001
0000
,
1000
0000
0010
0001
0000
0100
0000
0010
,
0000
1000
0000
0100
1000
0000
1000
0000
,
0001
0000
0010
1000
0000
0100
0000
0001
,
0000
0001
0000
0010
1000
0000
0100
0000
,
0010
0000
0100
0001
0000
0010
0000
0100
,
0000
0001
0000
0010
0100
0000
1000
0000
,
0001
0000
0010
0100
0000
0001
0000
0100
,
0000
1000
0000
0001
1000
0000
0100
0000
,
0001
0000
0010
0100
0000
0001
0000
0000
,
2002
0000
0000
3003
0202
0000
0000
0303
,
1010
0000
0000
0000
0002
0000
0000
0003
,
0200
0000
0000
0300
0020
0000
0000
0030
,
0100
0000
0000
0100
0001
0000
0000
0010
,
1000
0000
0000
0001
0100
0000
0000
0001
,
0010
0000
0000
0010
0100
0000
0000
0100
,
1000
0000
0000
1000
0100
0000
0001
0000
,
0100
0000
0000
0010
0001
0000
0000
0001
,
0010
0000
0000
0001
0100
0000
0010
0000
,
1000
0000
0000
0100
0010
0000
0000
0010
,
0100
0000
0000
0100
0010
0000
0000
0000
,
1001
0000
0000
0101
0000
0000
1010
0000
,
0000
0001
1000
0000
0100
0000
0000
0000
,
0110
0000
0000
1010
0000
0000
0101
0000
,
0000
1000
0001
0000
0100
0000
0010
0000
,
1001
0000
0000
0001
0000
0000
0100
0000
,
0101
0000
0000
0010
0000
0000
0100
0000
,
1001
0000
0101
0000
,
1010
0000
0000
0000
0101
0000
0000
0001
,
0100
0010
1000
0100
0001
0000
0010
0000
,
0001
1000
0100
0010
0100
0000
0010
0000
,
0100
0010
1000
0100
0010
0000
0100
0000
,
0100
0010
0100
0010
0001
0000
0010
0000
,
1000
0010
0100
0010
0100
0000
0001
0000
,
1000
0010
0001
0010
0100
0000
1010
0000
,
0100
0010
0001
0100
0010
0000
1000
0000
,
1100
0011
1001
1001
,
1000
0010
0100
0000
0001
0100
0010
0000
,
0001
1000
0000
0010
0100
0000
0001
0000
,
1000
0100
0010
0000
0001
0010
0100
0000
,
1000
0010
0000
0100
0001
0000
0100
0000
,
1010
0100
0101
0110
,
0010
1001
0100
0011
,
1100
0000
0000
0000
,
0000
0000
0000
0000
,
1001
0010
0101
1000
,
1100
0001
0010
0100
,
0101
0000
0000
0000
,
0000
0000
0000
0000
,
1000
0010
0100
0001
,
0010
0001
1000
0100
,
0002
0000
1000
0000
,
1000
0000
1000
0000
,
1000
0000
0000
0000
0000
0000
0000
0003
,
0000
0000
0100
0001
1000
0010
0100
0000
,
0001
0110
1000
0000
,
1000
0000
0110
0000
0001
0100
0010
0100
,
0001
0110
1000
0000
,
1000
0000
0110
0000
0001
0010
0100
0010
,
1000
0110
0001
0000
,
0100
0000
0110
0000
0010
1000
0001
0100
,
1000
0000
0110
0000
0001
0000
0000
0100
,
1000
0000
0100
0001
1000
0100
0010
0000
,
0101
1010
0110
0000
,
0002
0000
0000
0000
0023
0000
0000
0230
,
0000
0000
0000
0000
0000
0000
0000
0300
,
2002
0000
3003
0000
;

//---------------dance-single - BEGINNER----------------
#NOTES:
     dance-single:
     BEGINNER:
     Beginner:
     1:
     0.134,0.155,0.011,0.000,0.000,84.000,1.000,0.000,0.000,0.000:
0000
0000
0000
0000
,
0000
0000
0000
0000
,
0000
0000
0000
0000
,
0000
0000
0000
0000
,
0000
0000
0000
0000
,
1000
0000
0000
0000
,
0001
0000
0000
0000
,
0100
0000
0000
0000
,
0010
0000
0000
0000
,
1000
0000
0000
0000
,
0000
0000
0000
0000
,
1000
0000
0000
0000
,
0001
0000
0000
0000
,
1000
0000
0000
0000
,
0000
0000
0000
0000
,
0010
0000
0000
0000
,
0100
0000
0000
0000
,
0010
0000
0000
0000
,
1000
0000
0000
0000
,
0010
0000
0000
0000
,
0100
0000
0000
0000
,
0001
0000
0000
0000
,
1000
0000
0000
0000
,
0001
0000
0000
0000
,
0100
0000
0000
0000
,
0010
0000
0000
0000
,
1000
0000
0000
0000
,
0010
0000
0000
0000
,
0100
0000
0000
0000
,
0001
0000
0000
0000
,
1000
0000
0000
0000
,
0100
0000
0000
0000
,
0010
0000
0000
0000
,
1000
0000
0000
0000
,
0000
0000
0000
0000
,
1000
0000
0000
0000
,
0010
0000
0000
0000
,
0100
0000
0000
0000
,
1000
0000
0000
0000
,
0001
0000
0000
0000
,
0100
0000
0000
0000
,
0001
0000
0000
0000
,
0010
0000
0000
0000
,
0100
0000
0000
0000
,
1000
0000
0000
0000
,
0100
0000
0000
0000
,
0010
0000
0000
0000
,
0001
0000
0000
0000
,
0100
0000
0000
0000
,
0010
0000
0000
0000
,
0100
0000
0000
0000
,
0001
0000
0000
0000
,
0010
0000
0000
0000
,
0100
0000
0000
0000
,
0001
0000
0000
0000
,
1000
0000
0000
0000
,
0001
0000
0000
0000
,
1000
0000
0000
0000
,
0010
0000
0000
0000
,
1000
0000
0000
0000
,
0100
0000
0000
0000
,
0001
0000
0000
0000
,
0010
0000
0000
0000
,
0100
0000
0000
0000
,
1000
0000
0000
0000
,
1000
0000
0000
0000
,
0001
0000
0000
0000
,
1000
0000
0000
0000
,
0100
0000
0000
0000
,
0010
0000
0000
0000
,
1000
0000
0000
0000
,
0001
0000
0000
0000
,
0000
0000
0000
0000
,
0100
0000
0000
0000
,
0001
0000
0000
0000
,
1000
0000
0000
0000
,
0000
0000
0000
0000
,
0001
0000
0000
0000
,
0100
0000
0000
0000
,
0001
0000
0000
0000
,
1000
0000
0000
0000
,
1000
0000
0000
0000
,
0001
0000
0000
0000
,
0100
0000
0000
0000
,
0001
0000
0000
0000
,
1000
0000
0000
0000
,
0010
0000
0000
0000
,
0100
0000
0000
0000
,
0001
0000
0000
0000
,
0010
0000
0000
0000
,
0100
0000
0000
0000
,
1000
0000
0000
0000
,
0001
0000
0000
0000
,
0000
0000
0000
0000
,
1001
0000
0000
0000
;
