#TITLE:Exotica;
#SUBTITLE:;
#ARTIST:Banzai;
#TITLETRANSLIT:;
#SUBTITLETRANSLIT:;
#ARTISTTRANSLIT:;
#CREDIT:;
#BANNER:exotica.png;
#BACKGROUND:exotica-bg.png;
#LYRICSPATH:;
#CDTITLE:;
#MUSIC:exotica.mp3;
#OFFSET:-0.080;
#SAMPLESTART:24.440;
#SAMPLELENGTH:12.000;
#SELECTABLE:YES;
#BPMS:0.000=118.000;
#STOPS:;
#BGCHANGES:;
// cache tags:
#FIRSTBEAT:4.000;
#LASTBEAT:210.500;
#SONGFILENAME:Songs/StepMix 1/Exotica/exotica.sm;
#HASMUSIC:1;
#HASBANNER:1;
#MUSICLENGTH:109.949;
// end cache tags

//---------------dance-single - E. Holniker----------------
#NOTES:
     dance-single:
     E. Holniker:
     Beginner:
     1:
     0.172,0.189,0.064,0.000,0.000,125.000,7.000,0.000,0.000,0.000:



0000
0000
0000
0000
,
0000
0000
0000
0000
,
0000
0000
0000
0000
,
0000
0000
0000
0000
,
1000
0000
1000
0000
,
0010
0000
0010
0000
,
0100
0000
0100
0000
,
0001
0000
0001
0000
,
1000
0100
1000
0000
,
0010
0001
0010
0000
,
0010
0100
0010
0100
,
1000
0100
1000
0000
,
0100
0000
1000
0000
,
0010
0000
0001
0000
,
0100
0000
0010
0000
,
1000
0000
0001
0000
,
0100
0001
0100
0000
,
1000
0100
1000
0000
,
0010
0000
0100
0000
,
1000
0000
0001
0000
,
1000
0010
1000
0000
,
0001
0000
0100
0000
,
0010
0100
0010
0000
,
1000
0000
0001
0000
,
1000
0100
1000
0000
,
0001
0000
0010
0000
,
0010
0001
0100
0000
,
1000
0000
0010
0000
,
0010
0100
0010
0000
,
1000
0000
1100
0000
,
0001
0010
0100
0000
,
1000
0000
0110
0000
,
0001
1000
0001
0000
,
1000
0001
1000
0000
,
0010
1000
0010
0000
,
0100
1000
0100
0000
,
0001
0000
0010
0000
,
0100
0000
1000
0000
,
0010
0001
0010
0001
,
0010
0100
0010
0000
,
1000
0000
0100
0000
,
0001
0000
0010
0000
,
1000
0100
1000
0000
,
1100
0000
0110
0000
,
0001
0010
0001
0000
,
0110
0000
1010
0000
,
0001
0100
1000
0000
,
1000
0100
0001
0000
,
0001
0010
1000
0000
,
1000
0010
0001
0000
,
1000
0001
1000
0000
,
0001
1000
0001
0000
,
1001
0000
0000
0000
;

//---------------dance-single - E. Holniker----------------
#NOTES:
     dance-single:
     E. Holniker:
     Challenge:
     10:
     0.877,0.857,0.055,1.000,0.732,494.000,6.000,175.000,36.000,5.000:

0000
0000
0000
0000
,
2000
0000
0000
3020
0030
0000
0100
0010
0100
0000
0010
0000
1000
0000
0100
0000
,
0002
0000
0000
0023
0000
0030
0100
0001
0100
0000
0010
0000
0100
0000
0010
0000
,
0200
0000
0000
0320
0000
0030
0100
0010
0100
0000
0010
0000
0001
0000
0010
0000
,
0002
0000
0023
0000
2030
0000
3200
0000
0320
0000
0032
0000
0023
0000
0130
0010
,
0100
0010
0200
0000
2300
0000
3200
0000
0320
0000
0032
0000
0023
0000
0130
0010
,
0001
0010
0200
0000
0320
0000
2030
0000
3020
0000
0230
0000
0320
0000
0031
0010
,
0100
0010
0200
0000
0320
0000
0230
0000
0320
0000
0032
0000
0023
0000
0230
0300
,
1000
0000
0100
0000
1000
0000
0100
0000
0000
0000
0000
0000
M001
0000
0000
0000
0000
0000
0010
0000
0000
0M00
0000
0000
0001
0000
0000
M000
0000
0000
0010
0000
0000
0M01
0000
0000
0000
0000
0000
0010
0000
0000
0001
0000
0000
0000
0000
0000
,
0010
0000
0001
0000
0010
0000
0001
0000
0000
0000
0000
0000
001M
0000
0000
0000
0000
0000
01M0
0000
0000
0000
0000
0000
0M10
0000
0000
0000
0000
0000
01M0
0000
0000
1000
0000
0000
0000
0000
0000
1000
0000
0000
0010
0000
0000
0000
0000
0000
,
0010
0000
1000
0000
0010
0000
1000
0000
0000
0000
0000
0000
M001
0000
0000
0000
0000
0000
01M0
0000
0000
0000
0000
0000
001M
0000
0000
0000
0000
0000
M100
0000
0000
0010
0000
0000
0000
0000
0000
0100
0000
0000
0010
0000
0000
0000
0000
0000
,
1000
0000
0100
0000
1000
0000
0100
0000
0000
0000
0000
0000
0M10
0000
0000
0000
0000
0000
M001
0000
0000
0000
0000
0000
001M
0000
0000
0000
0000
0000
M100
0000
0000
0010
0000
0000
0000
0000
0000
0010
0000
0000
0100
0000
0000
0000
0000
0000
,
2000
0000
3010
0100
0000
0000
0100
0010
0200
0000
0320
0000
0032
0000
0023
0000
,
0032
0000
0023
1000
0030
0000
1000
0100
0020
0000
0032
0000
0023
0000
0230
0000
,
2300
0000
3000
0010
0000
0000
0100
0010
0200
0300
0010
0000
0001
0000
0010
0000
,
1000
0100
0010
0001
0010
0100
0010
0000
2200
0000
0000
0000
0010
0000
0000
3300
,
0100
0010
1000
1000
0100
1000
0100
0100
0010
0100
0010
0010
0001
0010
0001
0001
,
0010
0100
0010
0010
0100
1000
0010
0010
1000
0100
1000
1000
0100
0010
0100
0100
,
2000
0000
3020
0000
2230
0000
0300
3000
0002
0000
0023
0030
0022
0000
0033
0000
,
0020
0000
0230
0300
0220
0300
0130
0000
1000
0010
0100
0010
0001
0010
0100
0010
,
1000
0100
1000
1000
0100
0010
0100
0100
0001
0100
0001
0001
0100
0010
0100
0100
,
0002
0000
0000
0023
0000
0000
2030
0000
3100
0010
0001
0010
0100
0000
0020
0000
,
2030
3000
0010
1000
0020
0030
0100
0010
0200
0300
0010
0001
0020
0030
1000
0010
,
2000
3100
0010
0100
0020
0030
0001
0010
0002
0003
0010
1000
0020
0030
2200
0300
,
3200
0000
0320
0000
0032
0000
0023
0000
0230
0300
0010
0100
2000
0000
3010
0100
,
0000
0010
0002
0000
0023
0000
0230
0000
0320
0000
2030
0000
3200
0300
0010
0100
,
0010
0000
0001
0000
0010
0000
0001
0000
0000
0000
0000
0000
M010
0000
0000
0000
0000
0000
010M
0000
0000
0000
0000
0000
M010
0000
0000
0000
0000
0000
01M0
0000
0000
1000
0000
0000
0000
0000
0000
0100
0000
0000
2000
0000
0000
0000
0000
0000
,
3010
0000
0001
0000
0010
0000
0001
0000
0000
0000
0000
0000
1M00
0000
0000
0000
0000
0000
001M
0000
0000
0000
0000
0000
M100
0000
0000
0000
0000
0000
001M
0000
0000
0100
0000
0000
0000
0000
0000
0100
0000
0000
0020
0000
0000
0000
0000
0000
,
1030
0100
1000
0100
0020
0000
0032
0000
0023
0000
0032
0000
0203
0000
2300
0000
,
0000
0000
3020
0000
0230
0000
0320
0000
0032
0000
0023
0000
1030
0000
1000
0100
,
0010
0000
0001
0000
0010
0000
0001
0000
0000
0000
0000
0000
0200
0000
0000
0000
0000
0000
0320
0000
0000
0000
0000
0000
0230
0000
0000
0000
0000
0000
1300
0000
0000
0010
0000
0000
0000
0000
0000
0100
0000
0000
0010
0000
0000
0000
0000
0000
,
0100
0000
0010
0000
0100
0000
0010
0000
0000
0000
0000
0000
10M0
0000
0000
0000
0000
0000
M100
0000
0000
0000
0000
0000
0M10
0000
0000
0000
0000
0000
M001
0000
0000
0010
0000
0000
0000
0000
0000
0010
0000
0000
0100
0000
0000
0000
0000
0000
,
2000
0000
3200
0000
0320
0000
0000
0032
0023
0230
0000
0000
0320
0000
0230
0000
,
0000
0000
0000
2300
0000
0000
0000
0000
0000
0000
0000
0000
3020
0000
0000
0000
0000
0000
0230
0000
0000
0000
0000
0000
0320
0000
0000
0000
0000
0000
0032
0000
0000
0000
0000
0000
0023
0000
0000
0030
0000
0000
1000
0000
0100
0000
0010
0000
,
0002
0000
0023
0000
0230
0000
2300
0000
3020
0000
0130
0010
0000
0001
0020
0030
,
1000
0000
0100
0000
0010
0000
0001
0000
0000
0001
0000
0000
M020
0000
0000
0000
0000
0000
023M
0000
0000
0000
0000
0000
M320
0000
0000
0000
0000
0000
013M
0000
0000
1000
0000
0000
0000
0000
0000
1000
0000
0000
0010
0000
0000
0000
0000
0000
,
0001
0010
0000
2000
0000
3010
0000
0000
1000
0000
0001
1000
0000
0002
0000
0003
,
0100
0000
0010
0100
0000
0020
0000
0030
1000
0000
0100
0010
0000
0100
0010
0000
,
0001
0010
0100
0010
0100
1000
0010
0100
0010
0100
0010
0001
0010
0002
0020
0033
,
1000
0100
0010
0100
0001
0100
0010
0100
1000
0100
0010
0100
0020
0000
0032
0000
,
2003
0000
3020
0000
2030
0000
3020
0000
2030
0000
3010
0100
0000
0100
0010
0001
,
0020
0000
2030
0000
3200
0000
0320
0000
0230
0000
0320
0100
0030
0100
1000
0100
,
2000
0000
3002
0000
0023
0000
0230
0000
0320
0000
0130
1000
0100
1000
0010
1000
,
0020
0230
0302
0203
0320
0230
0020
0000
,
1001
0000
0000
0000
M00M
0000
0000
0000
0000
0330
0000
0000
0200
0000
0320
0000
,
0032
0000
0000
0020
0003
0000
0200
0030
2000
0300
0000
0010
3000
0000
0200
0000
,
0320
0000
0200
0000
,
0001
0000
000M
0000
1000
0000
M000
0330
,
0002
0000
0000
0000
0000
0000
2003
3200
,
0320
0000
0000
0032
0000
0000
0023
0000
0230
0000
0000
2300
0000
0000
3020
0000
,
0230
0000
0310
1000
0100
0000
0010
0100
0000
0010
0100
1000
0001
0000
0010
0100
,
0010
0100
1000
0010
0100
0010
0001
0010
0100
0010
0100
0010
1000
0100
0010
0200
,
0002
0000
0000
0303
0000
0000
0000
0000
;

//---------------dance-single - E. Holniker----------------
#NOTES:
     dance-single:
     E. Holniker:
     Hard:
     8:
     0.550,0.570,0.127,0.255,0.250,381.000,14.000,28.000,14.000,0.000:



0000
0000
0000
0000
,
0000
0000
0000
0000
,
0000
0000
0000
0000
,
0000
0000
0000
0000
0000
1000
0010
1000
,
0100
0000
1000
0000
0100
0000
1000
0000
0010
0000
0100
0000
0010
0000
1000
0100
,
0010
0100
0001
0000
0100
0000
1000
0000
0010
0000
0100
0000
0010
0000
1000
0100
,
1000
0100
1000
0000
0001
0000
0100
0000
0010
0000
0001
0000
0010
0000
1000
0100
,
0010
0100
0010
0000
0110
0000
1100
0000
1010
0000
0000
0000
0101
0000
0000
0000
,
1000
0000
0100
0000
0010
0000
0001
0000
0010
0000
0001
0010
0000
0010
0001
0000
,
0010
0000
0100
0000
1000
0000
0010
0000
0100
0000
0010
0100
0000
0100
1000
0000
,
0100
0000
0010
0000
1000
0000
0100
0000
0010
0000
0100
0001
0000
0001
0100
0000
,
1000
0000
0010
0000
0100
0000
0010
0000
1000
0000
0100
1000
0000
1000
0100
0000
,
0010
0000
0001
0010
0000
0000
0010
0100
0010
0000
0100
0000
1000
0000
0010
0000
,
0100
0000
0100
1000
0000
0000
0100
0010
1000
0000
0100
0000
0010
0000
0100
0000
,
0001
0000
0100
0001
0000
0000
0001
0100
1000
0000
0010
0000
0100
0000
0010
0000
,
1000
0100
0010
0100
0001
0100
0010
0000
0110
0000
0000
0000
1010
0000
0000
0000
,
1000
0100
0010
0100
0001
0100
1000
0100
,
1000
0010
0100
0010
0001
0010
1000
0010
,
0100
1000
0100
0000
0010
0001
0010
0000
,
1000
0100
0010
0000
0001
0010
0100
0000
,
1000
0100
0010
0100
0001
0100
2000
3020
,
0230
0000
0000
0320
0000
0000
0032
0000
2003
0000
0000
3020
0000
0000
0230
0000
,
2300
3000
0100
1000
0100
0000
1000
0000
0001
0000
0000
0000
0010
0000
0000
0000
,
0100
0000
0010
0100
0010
0000
0100
1000
0100
0010
0100
0001
0100
0000
0000
0000
,
0010
0000
0100
0000
1000
0000
0010
0000
1000
0000
0010
1000
0000
1000
0010
0000
,
0100
0001
1000
0100
0010
0100
0001
0100
,
1000
0000
0100
0000
1000
0000
0100
0000
1000
0000
0200
2000
0000
0000
3300
0000
,
0001
0000
0100
0000
0001
0000
0100
0000
0010
0000
2000
0200
0000
0000
3300
0000
,
0010
0100
1000
0000
0010
0100
0010
0000
,
0001
0010
0001
0010
0100
0000
0000
0000
0010
0000
0000
0000
1000
0000
0100
0000
,
1000
0100
1000
0000
0001
0100
0001
0000
,
0100
0010
1000
0100
0010
0000
0110
0000
,
1000
0100
1000
0001
0001
0100
0010
0100
,
1000
1000
0100
0010
0100
0001
0100
1000
,
1M1M
M0M1
M11M
M1M0
,
11MM
1MM0
1M1M
0010
,
0100
1000
0100
0000
0010
0001
0010
0000
,
0100
1000
0100
0100
0010
1000
0100
0010
,
0100
0001
0001
0000
0100
1000
1000
0000
,
0010
0000
0100
0000
0100
0000
0000
0000
1000
0000
0100
1000
0100
0000
1000
0000
,
0001
0000
0010
0000
0100
0000
0010
0000
0100
0000
1000
0010
0000
0010
1000
0010
,
0100
0000
0010
0000
0001
0000
0010
0000
1000
0000
0100
1000
0000
1000
0100
1000
,
0100
0000
0010
0000
0001
0000
0010
0000
0100
0000
0010
0100
0000
0100
0010
0100
,
0010
0100
1000
0010
1000
0010
0100
0001
,
1000
0000
0100
1000
0100
0000
1000
0000
0001
0000
0010
0001
0010
0000
0200
0000
,
0320
0000
0000
0230
0000
0000
2300
0000
3020
0000
0130
0010
0000
0010
0100
0000
,
1000
0100
0010
0001
0010
0000
1100
0000
,
0100
0000
0010
0000
0100
0000
1000
0000
0100
0000
1000
0100
1000
0000
0100
0000
,
0010
0001
0010
0100
0010
0100
1000
0020
,
0230
0000
0000
0320
0000
0000
0032
0000
0023
0000
0000
2030
0000
0000
3200
0000
,
0020
0300
0130
0000
1000
0000
0100
0000
1000
0000
0000
0000
1001
0000
0000
0000
,
0010
0000
0100
0000
1000
0000
0010
0000
0100
0000
0010
0001
0010
0000
0100
0000
,
2020
0000
0000
3030
0000
0000
0000
0000
0000
0000
0000
0000
0000
0000
0000
0000
;

//---------------dance-single - E. Holniker----------------
#NOTES:
     dance-single:
     E. Holniker:
     Medium:
     6:
     0.412,0.501,0.155,0.418,0.086,254.000,17.000,46.000,2.000,5.000:



0000
0000
0000
0000
,
0000
0000
0000
0000
,
0000
0000
0000
0000
,
0000
0000
0000
0000
,
2000
3200
0320
0032
,
0023
0000
0230
0000
2300
0000
3000
MM00
,
2000
0000
3200
0000
0320
0000
0230
0300
,
1000
0100
0000
0100
1000
0000
0100
0000
1100
0000
0000
0000
0110
0000
0000
0000
,
1000
0000
0100
0000
0010
0000
0001
0010
,
0001
0000
0010
0000
0100
0000
1000
0100
,
1000
0000
0010
0000
0100
0000
0001
1000
,
0100
0000
0000
0000
0010
0000
0000
0000
0100
0000
0000
0000
1000
0000
0000
0010
,
0000
1000
0000
0010
0100
0001
0100
0010
,
1000
0000
0000
0100
0000
0000
0010
0000
0001
0000
0010
0000
0100
0000
0010
0000
,
0100
0000
0000
1000
0000
0000
0010
0000
0100
0000
0010
0000
0001
0000
0010
0000
,
1000
0000
0000
0100
0000
0000
0010
0000
0001
0000
0010
0000
0100
0000
0010
0000
,
0100
1000
0010
0000
0100
0010
0001
0000
,
0010
0000
0000
1000
0000
0000
0100
0000
0010
0000
0000
0100
0000
0000
0001
0000
,
0200
2300
3020
0000
,
0230
0000
2300
0000
,
3020
0000
0230
0000
0320
0000
0031
0010
,
0100
0000
0000
1000
0000
0000
0010
0000
0100
0000
0000
0010
0000
0000
0001
0000
,
0020
2030
3200
0320
,
0230
0302
2003
3020
,
1030
0100
1000
0100
0010
0001
0010
0001
,
0000
0010
0000
0100
0000
0000
1000
0000
0010
0000
0100
0000
0010
0000
0001
0000
,
0010
2000
3200
0320
,
0032
0023
0230
2300
,
3010
1000
0010
1000
0001
0100
0010
1000
,
0000
0100
0000
0010
0000
0000
0100
0000
0001
0000
0100
0000
0010
0000
0100
0000
,
2000
0000
0000
0000
0020
0000
0000
0000
0200
0000
0000
0000
0002
0000
0000
3333
,
0000
0100
1000
0100
,
1000
0100
1000
0100
0010
0100
0001
0100
,
0000
1000
0000
0010
0000
0000
0100
0000
0010
0000
0001
0000
0010
0000
1000
0000
,
0100
1000
0100
0000
0010
0100
0010
0000
,
0100
0001
1000
0010
0100
0000
1010
0000
,
1000
0100
1000
0000
0001
0010
0100
0010
,
0000
0100
0000
0000
1000
0000
0010
0000
0100
0000
0010
0000
0001
0000
0010
0000
,
1000
0100
1000
0000
0001
0010
0100
0010
,
0100
0000
1000
0000
0010
1000
0010
0000
,
0100
1000
0010
0001
,
0100
0000
0010
0000
1000
0000
0100
1000
,
0100
0000
0110
0000
0101
0000
0100
1000
,
0010
0000
1010
0000
1100
0000
0100
0001
,
0010
1100
0110
0101
,
1000
0100
0010
0100
0001
0000
1010
0000
,
0110
0100
1100
0010
,
0011
0100
1100
0010
,
1000
0100
1000
0100
1000
0000
1001
0010
,
0200
0000
0000
0320
0000
0030
0002
0000
2000
0003
0000
3020
0000
0000
0230
0000
,
2300
0000
0002
0000
,
0100
0000
0010
0000
,
0110
0000
3003
0000
;

//---------------dance-single - E. Holniker----------------
#NOTES:
     dance-single:
     E. Holniker:
     Easy:
     3:
     0.243,0.239,0.200,0.018,0.000,163.000,22.000,2.000,0.000,0.000:



0000
0000
0000
0000
,
0000
0000
0000
0000
,
0000
0000
0000
0000
,
0000
0000
0000
0000
,
1000
0100
1000
0100
,
1000
0000
0010
0000
,
0001
0010
0100
1000
,
0010
0000
0110
0000
,
1000
0100
1000
0100
,
0100
1000
0100
0000
0100
0000
0000
0000
,
0010
0001
0100
1000
,
0100
1000
0100
0000
1000
0000
0000
0000
,
0010
0001
0010
0100
,
1000
0010
0100
0001
,
0010
1000
0100
1000
,
0100
0010
0100
0000
0010
0000
0000
0000
,
1000
0100
0010
0100
,
0001
0100
0001
1000
,
1010
0000
0101
0000
,
0110
0000
1100
0000
,
1000
0010
0100
0010
,
0001
0010
0100
1000
,
1100
0000
0110
0000
,
0011
0000
1100
0000
,
0100
1000
0010
0001
,
0010
0000
0100
0000
,
1000
0100
0010
0100
,
1000
0100
1000
0000
1100
0000
0000
0000
,
0100
0010
0001
0010
,
1000
0000
0100
0000
,
0001
0010
0100
0010
,
0001
0010
0001
0000
1100
0000
0000
0000
,
1000
0010
0001
0000
,
0100
1000
0010
0000
,
1000
0100
0010
0001
,
0010
0100
1000
0000
1100
0000
0000
0000
,
0010
0001
0010
0000
,
0100
1000
0010
0000
,
0100
0100
1000
0000
,
0010
0010
0001
0000
,
1000
0100
1000
0100
,
0010
0001
0010
0001
,
0010
0100
0010
0100
,
1000
0100
1000
0000
1100
0000
0000
0000
,
0001
0010
0100
0010
,
0100
1000
0010
0001
,
0011
0000
0110
0000
,
1100
0000
1001
0000
,
0100
1000
0010
0001
,
0100
0010
0100
1000
,
1010
0000
0110
0000
,
0011
0000
1100
0000
,
0220
0000
0000
0000
0000
0330
0000
0000
;
