#TITLE:Ranma 1/2;
#SUBTITLE:- Us After This;
#ARTIST:Doco;
#TITLETRANSLIT:;
#SUBTITLETRANSLIT:;
#ARTISTTRANSLIT:;
#CREDIT:Anime Toshokan;
#BANNER:Ranma - Us After This.png;
#BACKGROUND:Ranma - Us After This bg.png;
#LYRICSPATH:;
#CDTITLE:dejiko.png;
#MUSIC:Ranma - Us After This.mp3;
#OFFSET:0.750;
#SAMPLESTART:45.030;
#SAMPLELENGTH:12.600;
#SELECTABLE:YES;
#DISPLAYBPM:152.000;
#BPMS:0.000=151.700,248.000=152.060;
#STOPS:;
#BGCHANGES:;
// cache tags:
#FIRSTBEAT:2.500;
#LASTBEAT:274.000;
#SONGFILENAME:Songs/Anime Mix 1/Ranma - Us After This/Ranma - Us After This.sm;
#HASMUSIC:1;
#HASBANNER:1;
#MUSICLENGTH:109.220;
// end cache tags

//---------------dance-single - BASIC----------------
#NOTES:
     dance-single:
     BASIC:
     Easy:
     1:
     0.175,0.125,0.009,0.000,0.000,133.000,1.000,0.000,0.000,0.000:
0000
0000
0000
0000
,
0000
1000
0000
0001
,
0000
1000
0000
0001
,
0000
1000
0000
0001
,
0000
0100
0000
0010
,
0000
0100
0000
0010
,
0000
1000
0000
0001
,
0000
1000
0000
0001
,
0000
0010
0000
0100
,
0000
1000
0000
0001
,
0000
0100
0000
0001
,
0000
1000
0000
0100
,
0000
0001
0000
1000
,
0000
0010
0000
0001
,
0000
0100
0000
1000
,
0000
0001
0000
0010
,
0000
0100
0000
1000
,
0000
0100
0000
0010
,
0000
0001
0000
0100
,
0000
0001
0000
0100
,
0000
0010
0000
1000
,
0000
0001
0000
0100
,
0000
0001
0000
0001
,
0000
0001
0000
1000
,
0000
1000
0000
1000
,
0000
0100
0000
0010
,
0000
0010
0000
0100
,
0000
1000
0000
0001
,
0000
0100
0000
0010
,
0000
1000
0000
0001
,
0000
1000
0000
0100
,
0000
0010
0000
0001
,
0000
1000
0000
0100
,
0000
0010
0000
0001
,
0000
1000
0000
0100
,
0000
0010
0000
0001
,
0000
0100
0000
1000
,
0000
0001
0000
1000
,
0000
0100
0000
1000
,
0000
0010
0000
0001
,
0000
0100
0000
0010
,
0000
0001
0000
1000
,
0000
0100
0000
0010
,
0000
0001
0000
0001
,
0000
1000
0000
1000
,
0000
0010
0000
0010
,
0000
0100
0000
0100
,
0000
0001
0000
0001
,
0000
1000
0000
0100
,
0000
1000
0000
0100
,
0000
1000
0000
0100
,
0000
0001
0000
0100
,
0000
0001
0000
0100
,
0000
0001
0000
0100
,
0000
0010
0000
0100
,
0000
0010
0000
0010
,
0000
0100
0000
0001
,
0000
0010
0000
0001
,
0000
0010
0000
1000
,
0000
0010
0000
1000
,
0000
0010
0000
1000
,
0000
0100
0000
0001
,
0000
0010
0000
1000
,
0000
0100
0000
0001
,
0000
0010
0000
1000
,
0000
0001
0000
1000
,
0000
0001
0000
1000
,
0000
0000
0000
0000
,
0000
1001
0000
0000
;

//---------------dance-single - ANOTHER----------------
#NOTES:
     dance-single:
     ANOTHER:
     Medium:
     4:
     0.348,0.282,0.000,0.000,0.000,266.000,0.000,0.000,0.000,0.000:
0000
0000
0000
0000
,
0000
1000
0001
1000
,
0001
1000
0001
0100
,
0010
0100
0010
0100
,
0010
1000
0001
0000
,
0000
1000
0001
1000
,
0001
1000
0001
0100
,
0010
1000
0100
0001
,
0010
1000
0001
0100
,
0010
0001
0100
0010
,
0001
0100
1000
0010
,
0001
0100
1000
0010
,
0001
0100
0001
0100
,
0001
1000
0100
1000
,
0100
0010
0001
0010
,
0001
1000
0010
1000
,
0010
0001
0100
1000
,
0010
0001
0100
1000
,
0010
0001
0100
0001
,
0010
1000
0100
0001
,
1000
0001
0100
0010
,
0001
1000
0010
0100
,
0100
0001
1000
0100
,
0010
1000
0001
0010
,
0100
0001
1000
0100
,
0010
1000
1000
1000
,
1000
0001
0001
0001
,
0001
0100
0100
0100
,
0100
0010
0010
0010
,
0010
1000
1000
0001
,
0001
1000
1000
0001
,
0001
0100
0010
1000
,
0100
1000
0001
0100
,
0001
0100
1000
0100
,
0001
0100
1000
1000
,
0010
0001
0010
1000
,
0010
0001
0001
0100
,
0010
0001
0100
0010
,
0100
1000
0010
0100
,
1000
0010
0001
0100
,
0001
1000
0010
1000
,
0001
0010
0001
0100
,
1000
0100
0001
1000
,
0100
0010
0001
0100
,
1000
0100
0001
1000
,
0010
0001
0100
0001
,
1000
0100
0010
0001
,
0100
0010
0001
0001
,
1000
0100
0010
0001
,
1000
0010
0001
1000
,
0100
0010
1000
0001
,
0100
0001
0010
1000
,
0010
0001
1000
0100
,
0010
0001
0100
1000
,
0010
0010
0100
0100
,
0010
0010
0100
0100
,
0001
1000
0001
0001
,
1000
1000
0001
1000
,
0100
0010
1000
0001
,
0010
0100
1000
0001
,
0001
1000
0100
0010
,
0001
1000
0100
0010
,
1000
0100
1000
0100
,
0001
0100
0001
0100
,
0010
1000
0100
0010
,
0001
0100
0010
1000
,
0001
0100
1000
0100
,
0001
0000
0100
0000
0000
0000
0000
1000
,
0000
0000
0000
0100
0100
0000
0000
0000
;

//---------------dance-single - MANIAC----------------
#NOTES:
     dance-single:
     MANIAC:
     Hard:
     7:
     0.467,0.470,0.458,0.000,0.000,307.000,50.000,0.000,0.000,0.000:
0000
0000
0000
0000
0000
1000
0001
0000
,
1000
0100
1000
0001
0100
0001
1000
0000
,
0100
1001
0110
0010
,
0100
0001
0100
1000
0100
1000
0001
0000
,
0001
0000
1000
0000
0001
0000
0000
1010
,
0000
0101
1000
0001
,
0001
0001
1000
0000
1000
0000
0001
0001
,
1000
0000
0100
0000
1000
0100
1000
0000
,
0001
0000
0100
0001
0100
0000
1000
0000
,
0001
0001
0001
0000
0001
0000
1000
1000
,
1000
0001
0010
0100
,
0010
0000
0100
0000
1000
0001
0010
0100
,
0000
0000
0001
0000
0000
0001
0101
0000
,
0010
0000
0100
0000
0010
0100
0010
0000
,
0001
0000
1000
0000
0001
0000
1000
0001
,
1000
1001
1100
0101
,
1001
1010
0011
1001
,
1000
0000
0001
0000
0001
1000
0001
0000
,
0001
0000
1000
0000
0001
0001
1000
1000
,
1000
1001
0110
1001
,
1010
0000
0000
0101
0000
0000
0001
1000
,
0100
1000
0001
0000
0010
0000
0010
0001
,
1000
0100
0010
0000
1000
0000
1000
0100
,
1000
0100
0001
0000
0100
0000
0100
0001
,
1000
0100
1000
0000
0100
0000
0100
0010
,
0100
0010
0100
0000
0001
0000
0001
0100
,
0001
0100
0001
0000
1000
0000
1000
0100
,
1000
0100
1000
0000
0001
0000
1001
0101
,
0000
0010
0100
0110
,
1000
0001
1001
1000
,
0001
1000
0001
1001
,
0110
0000
1000
0001
0010
0100
1000
0100
,
0001
1000
0001
1000
0100
0010
0001
0000
,
0010
0001
1000
0100
,
1000
0000
0010
0000
0001
0000
0100
0001
,
0000
1010
0011
1010
,
1100
0000
0000
0101
0000
0000
0001
0000
,
1000
0000
0001
0000
1000
0000
0001
1000
,
0001
0000
0001
1000
0001
0000
0010
0000
,
0100
0000
0010
0000
0100
0000
0010
0100
,
0010
0000
0010
0100
0010
0000
0010
0000
,
0001
0100
1000
0100
,
0001
0100
1000
0010
,
0001
0000
0010
0000
0001
0000
1000
1000
,
0000
0000
0000
0000
0000
0000
1001
0100
,
0000
0000
1001
0010
0000
0010
1001
0000
,
1000
0001
1000
0001
0100
0100
0000
0000
,
0000
1001
1001
1001
,
1001
0000
1000
0001
0000
0000
1000
0000
,
0001
1000
0001
1000
,
0001
0100
0010
0100
0000
0110
0000
0000
,
0000
0110
0110
1001
,
0110
0000
0010
0100
0000
0000
1000
0000
,
1000
1000
0001
0001
,
0001
0100
0100
0100
,
0010
0010
0010
1000
,
0001
0000
1000
0000
0001
0000
1000
1000
,
0000
0000
0000
1000
,
0010
0000
1000
0100
0000
0000
0110
0000
,
0100
0001
1000
1001
,
1001
0000
0000
0000
,
0000
0000
0000
0000
1001
0000
0010
0010
,
0000
0000
0000
0000
1000
0001
1000
0001
,
0000
0000
0000
0000
1000
0001
1000
0001
,
0000
0000
0000
0000
1000
0001
1000
0001
,
1000
0001
1000
0001
1000
0001
0000
1001
,
0000
1001
0000
1001
0000
1001
0000
0110
,
0000
0000
0011
0000
0000
0000
1000
1000
,
0000
0000
0001
0100
0000
0000
0000
0000
;

//---------------dance-single - BEGINNER----------------
#NOTES:
     dance-single:
     BEGINNER:
     Beginner:
     1:
     0.175,0.156,0.009,0.000,0.000,133.000,1.000,0.000,0.000,0.000:
0000
0000
0000
0000
,
1000
0000
0001
0000
,
1000
0000
0001
0000
,
1000
0000
0001
0000
,
0100
0000
0010
0000
,
0100
0000
0010
0000
,
1000
0000
0001
0000
,
1000
0000
0001
0000
,
0010
0000
0100
0000
,
1000
0000
0001
0000
,
0100
0000
0001
0000
,
1000
0000
0100
0000
,
0001
0000
1000
0000
,
0010
0000
0001
0000
,
0100
0000
1000
0000
,
0001
0000
0010
0000
,
0100
0000
1000
0000
,
0100
0000
0010
0000
,
0001
0000
0100
0000
,
0001
0000
0100
0000
,
0010
0000
1000
0000
,
0001
0000
0100
0000
,
0001
0000
0001
0000
,
0001
0000
1000
0000
,
1000
0000
1000
0000
,
0100
0000
0010
0000
,
0010
0000
0100
0000
,
1000
0000
0001
0000
,
0100
0000
0010
0000
,
1000
0000
0001
0000
,
1000
0000
0100
0000
,
0010
0000
0001
0000
,
1000
0000
0100
0000
,
0010
0000
0001
0000
,
1000
0000
0100
0000
,
0010
0000
0001
0000
,
0100
0000
1000
0000
,
0001
0000
1000
0000
,
0100
0000
1000
0000
,
0010
0000
0001
0000
,
0100
0000
0010
0000
,
0001
0000
1000
0000
,
0100
0000
0010
0000
,
0001
0000
0001
0000
,
1000
0000
1000
0000
,
0010
0000
0010
0000
,
0100
0000
0100
0000
,
0001
0000
0001
0000
,
1000
0000
0100
0000
,
1000
0000
0100
0000
,
1000
0000
0100
0000
,
0001
0000
0100
0000
,
0001
0000
0100
0000
,
0001
0000
0100
0000
,
0010
0000
0100
0000
,
0010
0000
0010
0000
,
0100
0000
0001
0000
,
0010
0000
0001
0000
,
0010
0000
1000
0000
,
0010
0000
1000
0000
,
0010
0000
1000
0000
,
0100
0000
0001
0000
,
0010
0000
1000
0000
,
0100
0000
0001
0000
,
0010
0000
1000
0000
,
0001
0000
1000
0000
,
0001
0000
1000
0000
,
0000
0000
0000
0000
,
0000
1001
0000
0000
;
