#TITLE:Fascination;
#SUBTITLE:(Night Sky Mix);
#ARTIST:Kit@ Keru;
#TITLETRANSLIT:;
#SUBTITLETRANSLIT:;
#ARTISTTRANSLIT:;
#CREDIT:;
#BANNER:fascinationnightsky-bn.png;
#BACKGROUND:fascinationnightsky-bg.png;
#LYRICSPATH:;
#CDTITLE:;
#MUSIC:Fascination (Night Sky Mix).mp3;
#OFFSET:0.000;
#SAMPLESTART:17.250;
#SAMPLELENGTH:12.000;
#SELECTABLE:YES;
#BPMS:0.000=100.000,3.000=400.000,127.500=100.000,143.000=200.000,177.000=400.000,315.000=200.000,316.000=400.000,330.000=200.000,331.000=400.000,345.000=200.000,346.000=400.000,360.000=200.000,361.000=400.000,375.000=100.000,375.500=400.000,389.500=100.000,390.000=400.000,404.000=200.000,405.000=400.000,419.000=200.000,420.000=400.000,424.000=200.000,432.000=400.000,447.000=200.000;
#STOPS:3.000=0.500
,78.000=0.200
,93.000=0.200
,108.000=0.200
,122.000=0.200
,176.000=2.000
,447.000=0.200
;
#BGCHANGES:;
// cache tags:
#FIRSTBEAT:4.000;
#LASTBEAT:448.000;
#SONGFILENAME:Songs/StepMix 2/Fascination (Night Sky Mix)/Fascination (Night Sky Mix).sm;
#HASMUSIC:1;
#HASBANNER:1;
#MUSICLENGTH:86.465;
// end cache tags

//---------------dance-single - Copied from----------------
#NOTES:
     dance-single:
     Copied from:
     Hard:
     12:
     1.000,1.000,1.000,0.301,0.243,543.000,115.000,26.000,84.000,1.000:

0000
0000
0000
0000
,
1000
0100
0010
0001
,
0010
0100
0010
1000
,
0100
0010
0001
0100
,
0010
1000
0100
0010
,
0001
0010
0100
0010
,
0100
1000
0100
0010
,
0100
0001
1000
0100
,
0010
0001
1000
0100
,
0010
0100
1000
0100
,
0010
0001
0010
0100
,
0010
0001
0010
0100
,
0010
0100
1000
0100
,
1000
0010
0100
1000
,
0001
0000
0000
0000
0100
0000
0000
0000
0010
0000
0000
0000
0100
0000
0000
2002
,
0000
0000
0000
0000
,
0000
0000
0000
0000
,
3113
0100
1001
0100
,
0110
0001
1010
0100
,
0011
0000
1000
0000
2000
3000
0011
0000
,
0100
1100
0010
0110
,
1000
1100
0001
0011
,
0100
0000
0011
0000
0100
1000
0100
1000
,
0100
0010
0020
0030
2100
0000
3010
0000
,
1002
0103
2001
3010
,
0210
0301
1020
0130
,
2010
0000
3001
0000
0021
0000
1030
0100
,
0200
0300
0010
0001
0010
0001
0010
0000
,
0100
1000
0100
1000
0100
0000
0000
0000
,
0100
0010
0100
0010
0100
0000
0000
0000
,
1000
0100
0010
0001
2002
3000
0000
0000
,
0000
0000
0000
0000
0000
0000
0000
0000
0000
0000
0000
0000
0000
0000
0000
0000
0000
0000
0000
0000
0000
0000
0000
0000
0000
0000
0000
0000
0000
0000
0000
0000
0000
0000
0000
0000
0000
0000
0000
0000
0000
0000
0000
0000
0000
0000
0000
0000
0000
0000
0000
0000
0003
0000
0000
0000
1000
0001
0000
0000
0000
0000
0000
0000
,
0MM0
0000
0000
0000
0000
0000
0000
0000
0000
0000
0000
0000
0000
0000
0000
0000
0000
0000
0000
0000
0000
0010
0000
0000
M10M
0000
0000
0000
0000
0000
0000
0000
0000
0000
0000
0000
0000
0000
0000
0000
0000
0000
0000
0000
0000
0000
0000
0000
0000
0000
0000
0000
0000
0000
0000
0000
0000
0000
0000
0000
1000
0000
0000
0100
0000
0000
0000
0000
0000
0000
0000
0000
00MM
0000
0000
0000
0000
0000
0000
0000
MM00
0000
0000
0000
0000
0000
0000
0000
0000
0000
0000
0000
0000
0000
0000
0000
0000
0000
0000
0010
0000
0000
0001
0000
0000
0000
0000
0000
0000
0000
0000
0000
0000
0000
0000
0000
0000
0000
0000
0000
MMMM
0000
0000
0000
0000
0000
0000
0000
0000
0000
0000
0000
0000
0000
0000
0000
0000
0000
0000
0000
0000
0000
0000
0000
0000
1000
0000
0000
0000
0000
0100
0000
0000
0000
0000
0000
0000
0000
0000
0000
0000
0000
0000
0000
0000
0000
0000
0000
MMMM
0000
0000
0000
0000
0000
0000
0000
0000
0000
0000
0000
0000
0000
0000
0000
0000
0000
0000
0000
0000
0000
0000
0000
,
0000
0010
0100
0000
0000
0000
0000
0000
MMMM
0000
0000
0000
0000
0000
0000
0000
1000
0001
0000
0000
0000
0000
0000
0000
MMMM
0000
0000
0000
0000
0000
0000
0000
0001
1000
0000
0000
0000
0000
0000
0000
MMMM
0000
0000
0000
0000
0000
0000
0000
0001
0100
0000
0000
0000
0000
0000
0000
MMMM
0000
0000
0000
0000
0000
0000
0000
,
0000
1000
0000
0000
0000
0000
0010
0000
0000
0000
0000
0000
0000
0000
0000
0000
0000
0000
0000
0000
0000
0000
0000
0000
MMMM
0000
0000
0000
0000
0000
0000
0000
0000
0000
0000
0000
0000
0000
0000
0000
0000
0000
0000
0000
0000
0000
0000
0000
0100
0000
0000
0001
0000
0000
0000
0000
0000
0000
0000
0000
0000
0000
0000
0000
0000
0000
0000
0000
0000
0000
0000
0000
MMMM
0000
0000
0000
0000
0000
0000
0000
0000
0000
0000
0000
0000
0000
0000
0000
0000
0000
0000
0000
0000
0000
0000
0000
0001
0000
0000
0010
0000
0000
0000
0000
0000
0000
0000
0000
0000
0000
0000
0000
0000
0000
0000
0000
0000
0000
0000
0000
MMMM
0000
0000
0000
0000
0000
0000
0000
0000
0000
0000
0000
0000
0000
0000
0000
0000
0000
0000
0000
0000
0000
0000
0000
0010
0000
0000
0100
0000
0000
0000
0000
0000
0000
0000
0000
0000
0000
0000
0000
0000
0000
0000
0000
0000
0000
0000
0000
MMMM
0000
0000
0000
0000
0000
0000
0000
0000
0000
0000
0000
0000
0000
0000
0000
0000
0000
0000
0000
0000
0000
0000
0000
,
0100
1000
0000
0000
0000
0000
0000
0000
MMMM
0000
0000
0000
0000
0000
0000
0000
1000
0001
0000
0000
0000
0000
0000
0000
MMMM
0000
0000
0000
0000
0000
0000
0000
0MM1
1000
0000
0000
0000
0000
0000
0000
0MM0
0000
0000
0000
0000
0000
0000
0000
1001
0000
0000
0000
0000
0000
0000
0000
1100
0000
0000
0000
0000
0000
0000
0000
,
1100
1100
MM00
0011
0011
0011
00MM
0110
,
0110
0110
0MM0
1100
0110
0011
00MM
0011
,
0110
1100
MM00
0110
1001
0110
0MM0
1100
,
0011
0110
0MM0
0011
1100
0110
0MM0
1001
,
0110
1100
MM00
1001
0110
0011
00MM
1000
,
0100
0020
0030
00M1
0010
0200
0300
0M10
,
0100
0020
0030
10M0
0100
0020
0030
00M1
,
1000
0000
0000
0010
0000
0000
0001
0000
0000
0100
0000
0000
0010
0000
0000
0001
0000
0000
0100
0000
0000
1000
2000
0000
,
0000
0000
0000
0000
0000
3000
0000
0000
0000
0000
0000
0000
0000
0000
0000
0000
0000
0000
0000
0000
0000
0000
0000
0000
0010
0000
0000
0000
0000
0000
1000
0000
0000
0000
0000
0000
0000
0000
0000
0000
0000
0000
0000
0000
0000
0000
0000
0000
,
0100
0010
0001
0001
,
1000
0000
0010
0000
0000
0100
0000
0001
,
0000
0001
0000
1000
0000
0000
0100
0000
,
0100
0000
0010
0000
0000
0001
0000
0000
,
1000
0000
0010
0000
0000
0100
0001
0000
,
0000
1000
0100
0000
0000
0100
0010
0000
,
0000
0010
0001
0000
0001
0000
0000
1000
,
0000
0010
0000
0010
0000
1000
0000
1000
,
0001
0001
0010
0100
,
0100
0000
0010
0000
0000
0001
0000
0001
,
0000
1000
0000
0010
0000
0100
0000
0001
,
0000
1000
0010
0000
0000
0010
0000
1000
,
0000
1000
0000
0100
0000
0100
0010
0000
,
0000
0001
0000
0001
0000
1000
0000
1000
,
0010
0100
0001
1000
,
0100
1001
0110
1100
,
0000
0011
0110
1100
,
0000
1100
0110
0011
,
0000
1001
0011
1001
,
0000
1001
1100
1001
,
0000
0110
0011
0110
,
0000
0110
1100
0110
,
0000
0110
0110
0110
,
0000
0011
0011
0011
,
0000
1100
1100
1100
,
0000
0011
0011
1100
,
0000
1100
1100
0011
,
0000
0110
0110
1100
,
0000
0110
0110
0011
,
0000
1001
1100
0011
,
0000
1001
0011
1100
,
0000
0000
1000
0100
1000
0000
0010
0100
,
0010
0000
0001
1000
0001
1000
0010
0100
,
0010
0000
0000
0100
0000
0000
1000
0000
0000
0100
0000
0000
1000
0000
0000
0000
0000
0000
1001
0000
0000
0000
0010
0000
,
1000
0001
0010
0000
1000
0100
0010
0100
,
0000
0001
0010
0001
0100
0000
0000
0000
,
1000
0100
0010
1000
0010
0000
0000
0000
,
1000
0000
0000
0100
0000
0000
0010
0000
0000
0001
0000
0000
0110
0000
0000
0000
1000
0000
0001
0000
0000
0010
0000
0000
,
0001
0010
0100
0010
0100
1000
0100
1000
,
0100
0010
0100
0010
0001
0010
0100
1000
,
0100
0010
0001
0100
0010
1000
0100
0010
,
0001
0010
0100
0000
1000
0100
0010
0100
,
0010
0001
0010
0100
1000
0100
0010
0100
,
1000
0100
0010
0001
0010
0100
1000
0100
,
1000
0010
1000
0100
0010
0001
0010
0100
,
1010
0000
0100
1000
0100
0000
0010
0001
,
0010
0000
0100
1000
0000
0010
0001
0010
,
0100
0010
0100
1000
0100
0000
0000
0000
,
0100
0000
0000
0000
0000
0000
0010
0000
0000
0000
0000
0000
0100
0000
0000
0000
0000
0000
0010
0000
0000
0000
0000
0000
0100
0000
0000
0000
0000
0000
0010
0000
0000
0000
0000
0000
0200
0000
0000
0000
0000
0300
0000
0000
0000
0000
0000
0000
,
0010
0100
0010
0100
0010
0100
0010
0100
,
1000
0001
1000
0001
1000
0001
1000
0010
,
0001
0010
0001
0010
0001
0010
0001
0010
,
0100
1000
0100
2000
3001
0000
0010
0000
,
0100
0010
1000
0100
,
0010
0100
0010
0001
,
0010
0100
0010
0100
,
1001
0010
0100
0000
1000
0000
0100
0000
,
0010
0100
0001
1000
,
0100
0010
0001
0010
,
0100
0010
1000
0020
,
0030
1001
0110
1100
,
0100
1000
0100
1000
0000
0000
0010
0001
0010
0001
0000
0000
0100
0010
0100
1000
0100
1000
0000
0000
0000
0001
0010
0001
,
0100
1000
0100
1000
0000
0100
0010
0100
0010
0000
0000
0000
2002
0000
0000
0000
0000
0000
0000
0000
0000
3003
0000
0000
,
0110
0100
1100
0100
,
0110
0010
1010
0010
,
0101
0010
1100
0100
,
0110
0000
0000
0000
0010
0000
0000
0000
1001
0000
0000
0002
2000
0000
3003
0000
;

//---------------dance-single - Blank----------------
#NOTES:
     dance-single:
     Blank:
     Beginner:
     3:
     0.279,0.452,0.035,0.000,0.000,166.000,3.000,0.000,0.000,0.000:


0000
0000
0000
0000
,
0000
0010
1000
0000
,
0001
0000
0010
0000
,
0100
0000
0000
0100
,
0000
0000
0100
0000
,
0000
0000
1000
0000
,
0000
1000
0000
0000
,
1000
0000
0000
1000
,
0000
0000
1000
0000
,
0000
0000
0010
0000
,
0000
0010
0000
0000
,
0010
0000
0000
0010
,
0000
0000
0010
0000
,
0000
0000
1000
0000
,
0000
1000
0000
0000
,
1000
0000
0000
1000
,
0000
1000
0000
0000
,
0000
0000
0000
0000
,
1000
0000
0000
0000
,
0100
0000
0010
0000
,
0001
0000
0000
1000
,
0000
0000
0000
0100
,
0000
0010
0000
0000
,
0000
0001
0000
0000
,
1000
0000
0000
0000
,
0010
0000
0000
0100
,
0000
0000
0000
0001
,
0000
1000
0000
0000
,
0000
0010
0000
0000
,
0010
0000
0000
0000
,
0100
0000
0000
1000
,
0000
0000
0000
0001
,
0000
1000
0000
0100
,
0000
0010
0000
1000
,
0000
0100
0000
0001
,
1000
1000
0100
0010
,
0000
0000
1000
0000
,
0001
0000
1000
0100
,
0010
0000
0001
0000
,
1000
0000
0100
0000
,
0010
0000
0001
0000
,
1000
0000
0100
0000
,
0010
0000
1000
0000
,
0100
0100
0100
0100
,
0100
0000
1000
0000
,
0010
0000
0000
1000
,
0000
0001
0000
1000
,
0000
0100
0000
0010
,
0000
0001
0000
1000
,
0000
1000
0000
0000
,
0000
0001
0000
1000
,
0000
1000
0000
0000
,
0000
0001
0000
1000
,
0000
1000
0000
0000
,
0000
0001
0000
1000
,
0000
1000
0000
0000
,
0000
0001
0000
1000
,
0000
1000
0000
0000
,
0000
0001
0000
1000
,
0000
1000
0000
0000
,
0000
0100
0000
0010
,
0000
0001
0000
0001
,
0000
1000
0000
0010
,
0000
0100
0000
0001
,
0000
0001
0000
0000
,
0000
0010
0000
1000
,
0000
0100
0000
0100
,
0000
0010
0000
0001
,
0000
1000
0000
1000
,
0000
0010
0000
0100
,
0000
0001
0000
0001
,
0000
1000
0000
1000
,
0000
1000
0000
0100
,
0000
0010
0000
0001
,
0000
0001
0000
1000
,
0000
0010
0000
0010
,
0000
1000
0000
0000
,
0000
0001
0000
0000
,
0000
0000
0000
0000
,
0100
0000
0000
0000
,
1000
0000
0000
0000
,
0001
0000
0000
0000
,
1000
0000
0010
0000
,
0000
0000
1000
0000
,
0000
0000
0001
0000
,
0000
0000
0000
0010
,
0000
0100
0000
1000
,
0000
0000
1000
0000
,
0000
0000
0001
0000
,
0000
0000
0010
0000
,
0100
0100
0000
0000
,
0000
1000
0000
0000
,
0000
1000
0000
0000
,
0000
0010
0000
0010
,
0010
0000
0000
0000
,
1000
0000
0000
1000
,
0000
0000
0000
0000
,
0001
0000
1000
0000
,
0000
0000
1000
0000
,
0000
0000
0100
0000
,
0000
0000
0010
0000
,
0010
0010
0000
0000
,
0000
1000
0000
0000
,
0000
0100
0000
0010
,
0000
0001
0000
1000
,
1000
0000
0000
0000
,
1000
0000
0000
0000
,
0000
0000
1001
0000
,
0000
0000
0000
0000
,
0000
0000
0000
0000
,
1010
0000
0000
0000
,
0000
0000
0000
1001
;

//---------------dance-single - Novice----------------
#NOTES:
     dance-single:
     Novice:
     Easy:
     7:
     0.519,0.842,0.116,0.069,0.012,298.000,10.000,6.000,0.000,0.000:


0000
0000
0000
0000
,
0000
0010
1000
0000
,
0001
0000
0010
0000
,
0100
0000
0000
0100
,
0000
0000
0100
0000
,
0000
0000
1000
0000
,
0000
1000
0000
0000
,
1000
0000
0000
1000
,
0000
0000
1000
0000
,
0000
0000
0010
0000
,
0000
0010
0000
0000
,
0010
0000
0000
0010
,
0000
0000
0010
0000
,
0000
0000
1000
0000
,
0000
1000
0000
0000
,
1000
0000
0000
1000
,
0000
2000
0000
0000
,
0000
0000
0000
3000
,
1000
0000
0000
0000
,
0100
0000
0010
0000
,
0001
0010
0100
1000
,
0001
0000
0100
0100
,
1000
0010
0000
0010
,
0100
0001
1000
0010
,
1000
0000
0100
0100
,
0010
0000
0001
0100
,
0000
1000
0100
0001
,
0000
1000
0001
0010
,
0000
0010
0000
0100
,
0010
0000
0001
0000
,
0100
0000
0010
1000
,
0000
1000
0000
0001
,
0100
1000
0001
0100
,
0010
0010
0010
1000
,
0001
0100
1000
0001
,
1000
0000
1000
0000
0110
0110
0110
0000
,
0001
0010
1000
0100
,
0001
0010
1000
0100
,
0010
0000
0001
0100
,
1000
0001
0100
0000
,
0010
1000
0001
0000
,
1000
0010
0100
0000
,
0010
0000
0000
0000
1000
0000
0000
0100
,
0100
0000
0000
0000
0100
0000
0000
0000
0100
0000
0000
0000
0100
0000
0000
0000
0100
0000
0000
0000
0100
0000
0000
0000
0100
0000
0000
0000
0100
0000
0000
0200
,
0000
0300
1000
0100
,
0010
0001
0010
1000
,
0100
0001
0010
1000
,
0010
0100
1000
0010
,
0100
0001
0001
1000
,
0010
1000
0100
0010
,
1000
0001
0010
1000
,
0010
1000
0010
0100
,
1000
0001
0010
1000
,
0001
1000
0010
0000
,
0100
0001
0100
1000
,
0010
1000
0001
0100
,
0010
0001
0100
1000
,
0010
1000
0100
0010
,
0100
0001
0010
1000
,
0001
1000
0100
0010
,
0001
0100
0100
0010
,
1000
0001
0010
0001
,
0010
1000
0001
0010
,
1000
0100
0010
0001
,
0100
0001
0010
0000
,
0001
0010
0100
1000
,
0010
0100
1000
0100
,
0001
0010
0100
0001
,
0010
1000
0001
1000
,
0010
0010
0100
0100
,
1000
0001
0100
0001
,
0010
1000
0001
1000
,
0010
1000
0100
0100
,
1000
0010
0100
0001
,
0010
0001
0001
1000
,
0010
0010
0100
0010
,
1000
1000
0100
0000
,
0010
0001
0001
0000
,
0010
0000
0100
0000
,
0100
0000
0000
0000
,
1000
0000
0000
0000
,
0001
0000
0000
0000
,
1000
0000
0010
0000
,
0000
0000
1000
0000
,
0000
0000
0001
0000
,
0000
0000
0000
0010
,
0000
0100
0000
1000
,
0000
0000
1000
0000
,
0000
0000
0001
0000
,
0000
0000
0010
0000
,
0100
0100
0000
0000
,
0000
1000
0000
0000
,
0000
1000
0000
0000
,
0000
0010
0000
0010
,
0010
0000
0000
0000
,
1000
0000
0000
1000
,
0000
0000
0000
0000
,
0001
0000
1000
0000
,
0000
0000
1000
0000
,
0000
0000
0100
0000
,
0000
0000
0010
0000
,
0010
0010
0000
0000
,
0000
1000
0000
0000
,
0000
0100
0000
0010
,
0000
0001
0000
1000
,
1000
0000
0000
0000
,
1000
0000
0100
0000
0100
0000
0000
0001
,
0100
0000
0000
0000
0000
0010
0000
0000
0000
0000
0000
0000
2200
0000
0000
0000
0000
0000
0000
0000
0000
0000
0000
0000
,
3300
1010
1010
1010
,
1010
0100
0010
0100
,
1010
0100
0001
0010
,
0100
1000
0100
0022
,
0033
0000
0000
0000
;

//---------------dance-single - Easy----------------
#NOTES:
     dance-single:
     Easy:
     Medium:
     9:
     0.841,1.000,0.497,0.081,0.012,459.000,43.000,7.000,0.000,0.000:


0000
0000
0000
0000
,
0100
0010
1000
0001
,
0001
0010
0010
0100
,
0100
1000
0100
0100
,
0001
0010
0100
1000
,
0010
0100
1000
0001
,
0010
1000
0010
0010
,
1000
0001
0100
1000
,
0010
0100
1000
0001
,
0100
1000
0110
1000
,
0100
0010
0100
1000
,
0010
0100
1000
0010
,
0100
1000
0010
0001
,
0100
0010
1000
0001
,
0100
1000
0001
0010
,
1000
0001
0100
1000
,
0001
0021
0000
0000
,
0000
0000
0000
0030
,
0010
0001
1000
0100
,
1000
1000
0001
0001
,
0100
0001
1000
0010
,
0100
0001
1000
1000
,
0010
0001
0010
0001
,
1000
0100
0010
0001
,
0010
0100
1000
1000
,
0001
0001
0100
1000
,
0100
0010
1000
0100
,
1000
0010
1100
0001
,
0100
0001
0100
1000
,
0001
0010
0100
0001
,
1000
1000
0001
0010
,
0100
0000
0010
0000
0001
0000
0100
0001
,
1000
0100
0010
0001
0100
0010
1000
0100
,
0001
0010
0001
0100
0001
0010
0100
0010
,
0100
0001
1000
0100
0010
0001
0100
1000
,
0010
0010
0010
0100
1001
1001
1001
0000
,
0100
0010
0001
1000
0010
0100
1000
0001
,
0100
0010
0001
1000
0010
0100
1000
0010
,
0001
0100
0010
0001
0100
0010
1000
0100
,
0010
0001
0100
0010
1000
0100
0010
1000
,
0001
0100
0010
0001
0100
1000
0010
0100
,
0010
1000
0001
0100
1000
0010
0100
1000
,
0010
0001
0100
0010
0100
1000
0001
1000
,
1000
0000
0000
0000
1000
0000
0000
0000
1000
0000
0000
0000
1000
0000
0000
0000
1000
0000
0000
0000
1000
0000
0000
0000
1000
0000
0000
0000
1000
0000
0000
2000
,
0000
3000
0110
1001
,
0101
0100
0001
0010
,
1001
0110
0001
0010
,
0101
1010
0010
0001
,
1001
0101
0100
0010
,
1001
0110
1000
0001
,
0110
0101
0001
0010
,
0101
1010
0001
1000
,
0110
0101
0001
0010
,
1100
0110
0001
0100
,
1001
0110
1000
0010
,
0001
0010
0100
1000
,
0001
0100
1000
0010
,
0001
0010
1000
0001
,
1000
0100
0001
0010
,
0100
0010
1000
0001
,
0100
1000
1000
0001
,
0010
0100
0001
0100
,
0001
0010
0100
0001
,
0010
1000
0001
0100
,
1000
0100
0001
0000
,
0100
0001
1000
0010
,
0001
1000
0010
1000
,
0100
0001
1000
0100
,
0001
0010
0100
0010
,
0001
0001
1000
1000
,
0010
0100
1000
0100
,
0001
0010
0100
0010
,
0001
0010
1000
1000
,
0010
0001
1000
0100
,
0001
0100
0100
0010
,
0001
0001
1000
0001
,
0010
0010
1000
0000
,
0001
0100
0100
0000
,
0001
0000
1000
1001
,
1000
0100
0010
0001
0000
0000
0000
0000
,
0010
0100
0001
0010
0000
0000
0000
0000
,
0100
0010
1000
0001
0000
0000
0000
0000
,
0010
0100
0001
0010
0002
0000
0003
0000
,
0000
0000
0000
0000
0010
0100
0001
0010
,
0000
0000
0000
0000
0100
1000
0010
0100
,
0000
0000
0000
0000
0000
0000
0001
0010
,
0100
0000
1000
0000
0000
0000
0010
0100
,
0001
0000
0000
0000
0010
0100
1000
0000
,
0000
0000
0000
0000
0100
0010
0001
0000
,
0000
0000
0000
0000
0001
0100
0010
0000
,
1000
0000
1000
0001
0010
0000
0000
0000
,
0000
0000
0010
0100
0010
0000
0000
0000
,
0000
0000
0010
1000
0001
0000
0000
0000
,
0000
0000
0001
0100
0001
1000
0001
0000
,
1001
0000
0000
0000
,
0110
1000
0001
0000
0000
0000
0110
0001
,
1000
0000
0000
0000
,
0110
1000
0100
0000
0011
0001
0010
0000
,
0000
0000
0000
0000
0110
1000
0001
0000
,
0000
0000
0000
0000
1001
0100
0010
0000
,
0000
0000
0000
0000
1001
0010
0100
1000
,
0001
0100
0001
0000
0000
0000
0000
0000
,
0000
0010
0000
0000
,
0000
1000
0000
0001
,
0000
0100
0000
0010
,
0010
0000
0000
0000
,
0010
0000
1000
0000
1000
0000
0000
0100
,
1000
0000
0000
0000
0000
0001
0000
0000
0000
0000
0000
0000
2020
0000
0000
0000
0000
0000
0000
0000
0000
0000
0000
0000
,
3030
0011
0011
0011
,
0011
1000
0001
1000
,
0011
1000
0100
0001
,
1000
0000
0000
0000
0010
0000
0000
0000
1000
0000
0000
0000
0220
0000
0000
0330
;
