#TITLE:Theme from Jets N Guns;
#SUBTITLE:;
#ARTIST:Machinae Supremacy;
#TITLETRANSLIT:;
#SUBTITLETRANSLIT:;
#ARTISTTRANSLIT:;
#CREDIT:;
#BANNER:JetsNGuns-BN.png;
#BACKGROUND:JetsNGuns-BG1.png;
#LYRICSPATH:;
#CDTITLE:;
#MUSIC:Machinae Supremacy - Theme from Jets N Guns.mp3;
#OFFSET:-0.113;
#SAMPLESTART:25.260;
#SAMPLELENGTH:12.700;
#SELECTABLE:YES;
#BPMS:0.000=149.860,61.500=150.120,92.250=149.880,124.250=149.840,140.125=142.961,143.500=157.041,144.000=157.040,147.250=149.821,156.125=149.321,160.250=149.940,196.125=147.320,199.250=149.820,210.000=164.100,211.000=150.000,240.000=149.860,240.125=150.980,240.375=149.860,278.125=155.340,278.250=149.860,292.875=161.260,293.000=149.860,296.125=155.080,296.250=149.860,311.250=153.240,311.500=160.180,311.750=170.460,312.000=187.440,312.250=200.000,312.500=220.000,318.000=188.680,318.500=149.840,322.125=178.840,323.000=149.840,324.000=149.680,328.500=149.840,331.000=149.840,331.125=145.280,331.250=149.720,335.125=178.321,335.500=149.720,344.000=149.840,344.500=149.720,344.750=149.620,348.125=151.160,348.250=149.940,356.125=151.460,356.250=149.900,371.875=150.300,372.000=149.860,378.125=155.480,378.250=149.880,396.875=155.900,397.000=149.880;
#STOPS:304.125=0.040
;
#BGCHANGES:28.000=JetsNGuns-BG2.png=1.000=0=0=1,
28.563=JetsNGuns-BG3.png=1.000=0=0=1,
29.313=JetsNGuns-BG2.png=1.000=0=0=1,
30.063=JetsNGuns-BG1.png=1.000=0=0=1,
32.000=JetsNGuns-BG4.png=1.000=0=0=1,
32.375=JetsNGuns-BG1.png=1.000=0=0=1,
128.000=JetsNGuns-BG4.png=1.000=0=0=1,
128.375=JetsNGuns-BG1.png=1.000=0=0=1,
148.000=JetsNGuns-BG4.png=1.000=0=0=1,
207.875=JetsNGuns-BG2.png=1.000=0=0=1,
208.375=JetsNGuns-BG3.png=1.000=0=0=1,
209.125=JetsNGuns-BG2.png=1.000=0=0=1,
209.875=JetsNGuns-BG1.png=1.000=0=0=1,
274.000=JetsNGuns-BG4.png=1.000=0=0=1,
274.375=JetsNGuns-BG1.png=1.000=0=0=1,
292.875=JetsNGuns-BG4.png=1.000=0=0=1,
293.250=JetsNGuns-BG1.png=1.000=0=0=1,
396.875=JetsNGuns-BG4.png=1.000=0=0=1,
397.250=JetsNGuns-BG1.png=1.000=0=0=1,
412.875=JetsNGuns-BG4.png=1.000=0=0=1,
99999=-nosongbg-=1.000=0=0=0 // don't automatically add -songbackground-
;
// cache tags:
#FIRSTBEAT:0.000;
#LASTBEAT:420.000;
#SONGFILENAME:Songs/StepMix 2/Theme from Jets N Guns/Machinae Supremacy - Theme from Jets N Guns.sm;
#HASMUSIC:1;
#HASBANNER:1;
#MUSICLENGTH:171.180;
// end cache tags

//---------------dance-single - ----------------
#NOTES:
     dance-single:
     :
     Challenge:
     10:
     0.620,0.951,0.479,0.643,0.608,551.000,82.000,110.000,161.000,0.000:



2002
0000
0000
0000
,
0000
0000
0000
0000
,
0000
0000
0000
0000
,
0000
0000
0000
0000
,
0000
0000
0000
0000
,
0000
0000
0000
0000
,
0000
0000
0000
0000
0000
0000
0000
0000
0000
0000
0000
0000
0000
0000
0000
3003
,
1MM1
0000
0000
0000
0000
0000
0000
0000
0000
1100
0000
0000
0000
0000
0000
0000
0000
0000
0000
0000
0000
0011
0000
0000
0000
0000
0000
0000
0000
0000
0000
0000
M00M
0110
0000
0000
0000
0000
0000
0000
0000
0000
0000
0000
0000
0000
0000
0000
0000
0000
0000
0000
0000
0000
0000
0000
0000
0000
0000
0000
0000
0000
0000
0000
,
1000
0000
0000
0100
0000
0000
0010
0000
0001
0000
0000
0100
0000
0000
0010
0000
,
1000
0000
0000
0001
0000
0000
2000
0000
0200
3000
2000
0300
0020
3000
0200
0030
,
0002
0300
0000
0010
0003
0000
0100
0000
1000
0000
0000
0010
0000
0000
0100
0000
,
0001
0000
0000
1000
0000
0000
0001
0000
0110
0000
0000
1001
0000
0000
0110
0000
,
1000
0000
0000
0001
0000
0000
0100
0000
0010
0000
0000
1000
0000
0000
0100
0000
,
1000
0000
0000
0010
0000
0000
0200
0000
0002
0300
0020
0003
0002
0030
0200
0003
,
0020
0300
0000
0100
0030
0000
0001
0000
1001
0000
0000
0100
0000
0000
1000
0000
,
1100
0000
0000
0010
0000
0000
0001
0000
0100
000M
1000
0000
0100
M000
0001
0000
,
2000
0000
0200
3000
0020
0300
2000
0030
0000
0000
0010
3000
0001
0000
M100
0000
,
001M
0000
2000
0001
0000
00MM
0000
0000
3000
0000
0001
0100
0001
0000
1000
0000
,
020M
0000
0000
0000
M0MM
0000
0300
0000
0000
0000
0100
1000
0100
0000
0010
0000
,
0002
0000
MM00
0000
0003
0000
0000
0000
2000
0000
0000
0000
0200
3000
0000
0000
,
0310
0001
1000
0000
0010
0000
020M
0000
M000
0000
0010
0300
1000
0000
0100
0000
,
M010
0000
0200
0001
0000
000M
0000
0300
0000
0000
0100
1000
0010
0000
0100
M000
,
0001
0000
0010
000M
1000
0000
0010
M000
0001
0000
0100
000M
0010
0000
2000
0200
,
0000
00MM
0000
0000
0000
0000
0000
0000
0300
0000
3000
0000
0000
0000
0000
MM00
,
0010
0001
0100
001M
1000
01M0
1000
0010
,
0100
0000
0002
1000
0000
M000
0000
0003
0000
0000
0001
0100
0010
0000
1000
0000
,
0200
0000
M000
0000
0000
0000
0000
0300
0000
0000
1000
0001
0010
0000
0001
0000
,
0200
0000
0000
M0MM
0000
0300
0000
0000
0002
0000
0000
0000
0200
0003
0000
0300
,
0010
1000
0100
0000
0010
0000
1001
0000
0000
0000
1000
0000
0100
0000
0001
0000
,
1000
0000
0020
0001
0000
M00M
0000
0030
0000
0000
0001
0100
0001
0000
1000
0000
,
0001
0000
0100
0000
100M
0000
0100
0000
M001
0000
0010
0000
1000
0000
0020
0001
,
0000
MM0M
0000
0000
0000
0000
0030
0000
,
0001
0000
0000
0101
0000
0000
0010
0000
1000
0000
0000
1100
0000
0000
1000
0000
,
0101
0000
0000
0110
0000
0000
0002
0000
0200
0003
0020
0300
0200
0030
0002
0300
,
2000
3003
0000
0101
0000
0000
0010
0000
0001
0000
0000
1100
0000
0000
0001
0000
,
2000
0000
0MMM
0000
0000
0000
0MMM
0000
0000
0000
0MMM
0000
3000
0000
0000
1100
0000
0000
0000
0000
0000
1001
0000
0000
0000
0000
0000
0202
0000
0000
0000
0000
,
0000
0000
0000
0000
0000
0000
0000
0303
,
1000
0001
1000
0001
0100
0001
0100
0001
0100
0010
0100
0010
1000
0010
1000
0010
,
1000
0100
0010
0001
1000
0010
0100
0001
0010
0100
1000
0010
1000
0100
1000
0001
,
0200
0000
0000
0000
0000
0000
0000
0000
0002
0300
0000
2000
0003
0000
3020
0000
,
0200
0000
0000
0000
0000
0030
0000
0000
0000
00M0
0000
0300
0000
0000
0001
1000
,
0200
0000
M000
0000
0000
0300
0000
0000
1001
0000
0000
0101
0000
0000
0010
0000
,
2002
0000
3003
0000
1000
0100
0010
0001
,
0100
0001
1000
0100
1000
0000
0010
0000
0100
0000
0001
0000
0000
0000
1000
0000
,
0002
0000
0000
0000
0000
0000
0000
0000
0103
0000
0000
1001
0000
0000
1000
0000
,
1100
0000
0000
0000
0000
0000
0000
0000
0110
0000
0000
0011
0000
0000
1001
0000
,
1100
0000
0000
0001
0000
0000
0100
0000
0020
0000
MM0M
0000
0000
0000
1030
0000
,
1200
0000
0000
0000
M000
0300
0001
0000
0101
0000
0000
0000
001M
0000
1000
0000
,
0100
M000
0001
0000
0100
000M
1000
0000
0010
0100
0001
1000
0100
1000
0010
0100
,
0002
0000
0000
0000
0000
0000
0000
0003
,
MMMM
MMMM
0000
0000
0000
0000
0000
0000
0000
0000
0000
0000
0000
0000
0000
0000
,
0000
0000
0000
0000
MMMM
0000
0000
0000
0000
0000
0000
0000
0000
0000
0000
0000
0000
0000
0000
0000
0000
0000
0000
0000
0000
0000
0000
0000
0000
0000
0000
MM01
,
0000
0010
0000
0001
0000
0000
0000
0000
0000
1100
0000
0000
0000
0000
0000
1001
0000
0000
0000
0000
0000
0000
0000
0000
0000
0000
0000
0000
0000
0000
0000
0000
,
0002
0000
0200
0003
2000
0300
0200
3000
0000
0300
0001
0000
0010
0000
0100
0000
,
0001
0000
0100
1000
0M0M
0000
0000
0000
0000
0000
0010
0100
0001
0000
1000
0000
,
1020
0000
0000
0000
0000
0000
0000
0000
0030
0000
1000
0100
0010
0000
0100
0000
,
1001
0000
0000
0000
0000
0000
0000
0000
0002
0000
0000
0000
0200
0003
0000
0300
,
0001
0010
0001
0000
0100
0000
1010
0000
0000
0000
1000
0000
0100
M000
0001
0000
,
0100
000M
2000
0010
0000
00M0
0000
3000
0000
0000
0001
1000
0001
0000
1000
0000
,
0010
M000
0001
0000
0010
000M
1000
0000
M100
0000
0M10
0000
00M1
0000
010M
0020
,
0000
0000
MM0M
0000
0001
0000
1000
0030
,
1000
0010
0100
0001
0010
0100
1000
0010
,
1000
0000
0001
0100
0000
0000
0000
0000
0000
0000
0010
1000
0010
0000
0100
0000
,
M2M2
0000
0000
0300
0000
0000
0003
0000
0000
0000
0010
0001
0200
0000
0020
0300
,
0001
0000
0000
0000
0030
0000
0000
0000
2000
0000
0000
0000
0002
3000
0000
0003
,
0010
0100
0010
0000
0100
0000
11MM
0000
0000
0000
0010
0000
0100
0000
1000
0000
,
0010
0000
0200
0001
0000
000M
0000
0000
0300
0000
0001
1000
0010
0000
0100
0000
,
0010
0000
0M01
0000
1000
0000
0100
0000
M001
0000
1000
0000
0100
0000
0020
1000
,
0000
M000
0000
0000
0030
0000
0000
0000
1001
0000
0100
0001
1000
0100
1000
0001
,
0100
0001
0010
0001
1000
0010
1000
0001
0100
0000
1100
0000
0000
0101
0000
0000
,
0220
0000
0000
0000
0330
MMMM
0000
0000
0000
0000
0011
0000
0000
1010
0000
0000
,
2200
0000
0000
0000
3300
MMMM
0000
0000
0000
0000
0201
0000
0000
1000
0000
0000
,
0010
0000
0300
0000
0000
0000
0010
0000
0110
0000
0000
1100
0000
0000
0011
0000
,
0000
0000
0000
0000
0000
0000
0000
1001
0000
0000
0000
0000
0000
0000
0000
0000
0000
0000
0000
0000
1000
0000
0000
0000
0000
0000
0001
0000
0000
0000
M00M
0000
,
0110
0000
0000
0000
0000
0000
0000
0000
0000
0000
0002
0000
0000
0020
0003
0000
,
2000
0030
0000
0000
3000
0000
0000
0000
0000
0000
1010
0000
0000
0011
0000
0000
,
0101
0000
0000
0000
0000
1000
0000
0001
0000
0000
0010
0000
0000
1100
0000
0101
,
0000
0000
0000
0000
0000
0000
1000
0000
0000
0000
0000
0000
0000
0000
0000
0010
0000
0000
0000
0000
0000
0000
0000
0000
0000
0000
0000
0000
0000
0000
0000
0000
0002
0000
2000
0000
0000
0000
0000
00M0
0000
0000
0M00
0000
0000
00M0
0000
0000
,
0M00
00M0
0M00
00M0
0M00
00M0
0M00
00M0
0M00
00M0
0M00
00M0
0M00
00M0
0M00
00M0
,
3003
2002
0000
0000
0000
0000
0000
0000
,
0000
3003
0000
0000
0010
0000
0000
00M0
1000
0000
0000
0000
0000
0000
0000
0000
,
0001
0100
0010
1000
0100
0010
0001
0100
0001
0010
0001
1000
0010
1000
0100
1000
,
0010
0000
0100
0001
0010
0001
1000
0100
1000
0000
0000
0000
1001
0000
0000
0000
,
0000
0000
0001
1000
0010
0100
0001
0000
1000
0000
0000
0000
0110
0000
0000
0000
,
0000
0000
0001
1000
0010
0100
0001
0010
0100
1000
0001
1000
0001
1000
0100
1000
,
0100
0010
0100
0010
0001
0010
0001
1000
0100
0010
0001
0010
0100
1000
0010
0100
,
0002
0000
0000
0000
0000
0000
0000
0000
0000
0000
0000
0000
0000
0000
0000
0000
0000
0000
0000
0000
0000
0000
0000
0000
0000
0000
0000
0000
0000
0000
0000
0000
0000
0000
0000
0000
2000
0000
0000
0000
0000
0000
0000
0000
0000
0000
0000
0000
0003
0000
0000
0000
0000
0000
0000
0000
0000
0000
0000
0000
0000
0000
0000
0000
0000
0000
0000
0000
0000
0000
0000
0000
0200
0000
0000
0000
0000
0000
0000
0000
0000
0000
0000
0000
0000
0000
0000
0000
0000
0000
3000
0000
0000
0000
0000
0000
0000
0000
0000
0000
0300
0000
0000
0000
0010
0000
0000
0000
0000
0000
0000
0000
0000
0000
0000
0000
0001
0000
0000
0000
0000
0000
0000
0000
0000
0000
0000
0000
0000
0000
0000
0000
0000
0000
0000
0000
0000
0000
0000
0000
1000
0000
0000
0000
0000
0000
0000
0000
0000
0000
0000
0000
0100
0000
0000
0000
0000
0000
0000
0000
0000
0000
0000
0000
0010
0000
0000
0000
0000
0000
0000
0000
0000
0000
0000
0000
0000
0000
0000
0000
0000
0000
0000
0000
0000
0000
0000
0000
0001
0000
0000
0000
,
0000
0000
2000
0000
0000
0000
0000
0000
0000
0000
0000
0000
0000
0000
0000
0000
0000
0000
0000
0000
0000
0000
0000
0000
0000
0000
0000
0000
0000
0000
3001
0000
0000
M000
0000
0000
0100
0000
0000
0000
0000
0000
0001
0000
0000
0000
0000
0000
,
2001
0000
0000
00MM
0000
0000
0000
0000
0000
0000
3001
0000
0010
000M
0100
00M0
,
1002
0M00
0000
0000
0000
0000
0000
0000
0000
0000
0013
0000
0100
0000
1000
0000
,
1100
0100
0010
0001
0101
0100
0010
1000
,
0200
0000
0000
0000
M0MM
0000
0000
0000
0000
0000
0001
0300
0100
0000
1000
0000
,
0020
0000
0000
0030
0000
0100
0001
0010
,
0110
0000
0000
1100
0000
0000
0001
0000
1000
0000
0000
0101
0000
0000
1001
0000
,
1000
0100
1000
0020
0002
0000
0000
0000
,
0000
0000
0000
0000
0000
0000
0033
0000
0000
0000
1001
0000
0000
0110
0000
0000
,
2002
0000
0000
0000
3003
MMMM
0000
0000
0000
0000
1100
0000
0000
0010
0000
0000
,
0202
0000
0000
0000
0303
MMMM
0000
0000
0000
0000
0002
0000
0000
0200
0003
0000
,
0020
0300
0000
0000
0030
0000
1000
0100
1000
0000
0000
0110
0000
0000
0011
0000
,
0000
0000
0000
0000
0MM0
0000
0000
1001
0000
0000
0000
0000
0000
0000
0000
0000
0000
0000
0000
0000
0101
0000
0000
0000
0000
0000
1100
0000
0000
0000
0000
0000
,
2020
0000
0000
0000
3030
MMMM
0000
0000
0000
0000
0100
0000
0000
0001
0000
0000
,
0220
0000
0000
0000
0330
MMMM
0000
0000
0000
0000
0002
0000
0000
2000
0003
0000
,
0020
0000
3000
0000
0000
0000
0000
0000
0030
0000
0000
0000
0100
0000
0001
0000
1000
0000
0000
0000
0000
1MM1
0000
0000
0000
0000
0000
11MM
0000
0000
0000
0000
,
0000
0000
0000
0000
0000
0000
0000
2MM2
0000
0000
0000
0000
0000
0000
0000
0000
0000
0000
0000
0000
0000
0000
0000
0000
0000
0000
0000
0000
0000
0000
0000
0000
,
0000
0000
0000
0000
,
3MM3
0000
0000
0000
;

//---------------dance-single - ----------------
#NOTES:
     dance-single:
     :
     Hard:
     9:
     0.593,0.644,0.456,0.730,0.371,507.000,78.000,125.000,92.000,0.000:



2002
0000
0000
0000
0000
0000
0000
0000
0000
0000
0000
0000
0000
0000
0000
0000
0000
0000
0000
0000
0000
0000
0000
0000
0000
0000
0000
3000
0000
2000
0003
0000
,
0002
0000
0000
0000
,
3003
0000
2002
0000
0000
0000
0000
0000
0000
0000
0000
0000
0000
0000
0000
0000
0000
0000
0000
0000
0000
0000
0000
0000
0000
0003
0000
0002
3000
0000
2000
0000
,
0000
0000
0000
0000
,
0000
0000
3003
0000
2002
0000
0000
0000
0000
0000
0000
0000
0000
0000
0000
0000
0000
0000
0000
0000
0000
0000
0000
0000
0000
0000
0000
3000
0000
2000
0003
0000
,
0002
0000
0000
0000
,
3003
2002
0000
0000
0000
0000
0000
0000
0000
0000
0000
0000
0000
0000
0000
0000
,
0000
0000
0000
3MM3
,
1000
0000
0000
0001
0000
0000
0100
0000
0010
0000
0000
1000
0000
0000
0010
0000
,
0100
0000
0000
0001
0000
0000
2000
0000
0002
3000
0200
0003
0002
0300
2000
0003
,
0200
3000
0300
0010
0000
0000
0001
0000
1000
0000
0000
0010
0000
0000
1000
0000
,
0001
0000
0000
0010
0000
0000
0001
0000
0201
0000
0000
0020
0300
0000
2000
0030
,
0010
0000
3000
0100
0000
0000
0001
0000
0010
0000
0000
0100
0000
0000
1000
0000
,
0100
0000
0000
1000
0000
0000
0020
0000
0200
0030
0002
0300
2000
0003
0200
3000
,
0020
0300
0000
0001
0030
0000
0100
0000
1001
0000
0000
0001
0000
0000
0100
0000
,
0101
0000
0000
1000
0000
0000
0001
0000
0100
0000
0010
0000
0100
00M0
1000
0000
,
0200
M000
0002
0300
0020
0003
0002
0030
0000
0003
1000
0000
0100
0000
1000
0000
,
0010
0000
0000
2002
0000
0000
0000
0000
3003
0000
0001
0000
0101
0000
100M
0000
,
0200
0000
0000
0300
0000
0010
0011
1000
,
0020
0000
MM0M
0000
0000
0000
0030
0000
0200
0000
0000
0000
0002
0300
0000
0003
,
0010
0000
0100
0000
0010
0000
2000
00M0
0000
0000
0010
3000
0001
0000
0100
0000
,
0010
0000
0000
2002
0000
0000
0000
0000
3003
0000
1000
0000
1001
0000
0100
0000
,
0001
0000
0010
0000
0110
0000
0100
0000
1000
0000
0010
0000
0100
0000
0002
0200
,
0000
0000
0000
0000
0000
0003
0000
0000
001M
0000
0000
0000
1000
0000
0000
0300
,
0001
1000
0100
0010
0001
0100
0010
1000
,
0100
0000
0000
2002
0000
0000
0000
0000
3003
0000
0010
0000
0110
0000
1000
0000
,
0200
0000
0000
0000
0000
0000
0000
M300
0000
0000
1000
0000
1010
0000
0001
0000
,
0200
0000
0000
M0MM
0000
0300
0000
0000
0002
0000
0000
0000
0200
0003
0000
0300
,
0010
0000
0100
0000
0020
0000
0001
0000
0000
0030
1000
0000
0100
0000
0010
0000
,
0100
0000
0000
2002
0000
0000
0000
0000
3003
0000
0001
0000
0101
0000
1000
0000
,
0010
0000
0100
0000
0110
0000
1000
0000
0100
0000
0010
0000
0001
0000
0200
0020
,
0000
0000
0000
0000
0000
0000
0000
0000
0000
0030
0000
0000
0300
0000
0000
0000
,
0001
0000
0100
0001
0000
0000
1000
0000
0100
0000
1000
0010
0000
0000
0100
0000
,
0001
0000
0010
0100
0000
0000
2000
0000
0002
3000
0200
0003
0020
0300
0200
0030
,
0002
0300
1000
0103
0000
0000
1000
0000
0010
0000
0100
0001
0000
0000
1000
0000
,
0020
0000
0000
0000
,
0000
0000
0000
0000
1000
M000
1000
M030
,
1000
0000
0001
0000
0100
0001
0100
0000
0010
0000
1000
0000
0100
1000
0100
0000
,
0010
0000
0001
0000
0100
0000
0010
0000
0100
0000
0001
0000
1000
0001
1000
0000
,
M2MM
0000
0000
0000
0000
0000
0000
0000
2000
0300
0000
0020
3000
0000
0130
0000
,
2002
0000
0000
0000
0000
0000
0000
0000
0000
3003
0000
0000
0000
0000
1000
0001
,
0020
0000
0000
0000
0000
0000
0030
0000
1010
0000
0000
0100
0000
0000
0001
0000
,
2002
0000
3003
0000
0010
1000
0001
0100
,
0010
0000
1000
0100
0000
0000
1000
0000
0001
0000
0010
0000
0100
0000
0010
0000
,
0001
M000
0M00
00M0
M00M
0M00
00M0
000M
0200
0000
0000
1000
0000
0000
0010
0300
,
1001
0000
0000
0000
0000
0000
0000
0000
1200
0000
0000
0010
0000
0300
0001
0000
,
0201
0000
0000
0010
0000
0300
1000
0000
1001
0000
0000
0000
0000
0000
1000
0000
,
0001
M000
0000
0000
0001
0000
1000
0000
011M
0000
0000
0000
0001
0000
0100
0000
,
0010
0000
1000
0000
0100
0000
0010
0000
0001
1000
0000
0001
0100
0001
0100
0002
,
2000
0000
0000
0000
0000
0000
0000
0000
0000
0000
0000
0000
0000
0000
0000
0000
0000
0000
0000
0000
0000
0000
0000
0000
0000
3000
0000
2000
0003
0000
0002
0000
,
0000
0000
0000
0000
,
3003
2002
0000
0000
0000
0000
0000
0000
0000
0000
0000
0000
0000
0000
0000
0000
,
0000
0000
0000
0000
0000
0000
0000
3003
,
1000
0000
0100
M000
0001
0000
0100
0000
000M
0000
1000
0000
0010
0000
0100
0000
,
0001
0000
0000
2200
0000
0000
0000
0000
3300
0000
0001
0100
0010
0000
1000
0000
,
1M2M
0000
0000
0000
0000
0000
0000
0000
0030
0000
1000
0100
0010
0000
0100
0000
,
1MM1
0000
0000
0000
0000
0000
0000
0000
0020
0000
0000
0000
2000
0030
00M0
0000
,
0001
3000
1000
0000
0100
0000
0110
0000
0000
0000
0010
0000
0001
0000
0100
0000
,
0010
0000
0000
2200
0000
0000
0000
0000
3300
0000
0100
0000
1001
0000
0001
0000
,
0010
0000
0001
0000
1000
0000
0010
0000
1010
0000
1000
0000
0001
0000
0010
0200
,
0000
0000
M0MM
0000
1000
0000
0001
0300
,
0010
0000
0001
0000
1000
000M
0100
M000
0010
0M00
0001
00M0
0100
000M
0010
0000
,
1000
0000
0000
2002
0000
0000
0000
0000
3003
0000
0010
0000
1010
0000
0100
0000
,
0M02
0000
0000
0003
0000
1000
0101
0100
,
0020
0000
0000
0000
0000
0000
0000
0000
MM0M
0000
0000
0000
0030
0000
0000
0000
2000
0000
0000
0000
0000
0000
0000
0000
0002
0000
3000
0000
0000
0003
0000
0000
,
0011
M001
0100
0010
0000
0101
0100
0010
,
100M
0000
0000
2020
0000
0000
0000
0000
3030
0000
0100
0000
0001
0000
1000
0000
,
0100
0000
0010
0000
0100
0000
1000
0000
0010
0000
0100
0000
0001
0000
1000
0020
,
0000
0000
0000
0030
2002
0000
0000
0000
,
0000
0000
0000
0000
0000
0000
0000
0000
3003
0000
1100
0000
0000
0001
0100
0000
,
2001
0000
0000
0000
0000
0000
3000
0000
0000
0000
0101
0000
0000
1000
0010
0000
,
1002
0000
0000
0000
0000
0000
0003
0000
0000
0000
1001
0000
0000
1000
0010
0000
,
1000
0001
0000
0000
0000
0000
0000
0001
1000
0000
0001
0000
1000
0001
0000
0100
,
0000
0000
0000
0000
0000
0000
0000
M1M1
0000
0000
0000
0000
0000
0000
0000
0000
0000
0000
0000
0000
1001
0000
0000
0000
0000
0000
0010
0000
0001
0000
0000
0000
,
1000
0001
0000
0000
0000
0000
0000
0000
0000
0000
0101
0000
0000
0010
1000
0000
,
1001
0000
0000
0000
0000
0000
0000
0000
0000
0000
0101
0000
0000
0001
0010
0000
,
1001
0000
0000
0000
0000
0000
0000
1001
0000
0000
1000
0100
0000
1000
0001
0100
,
0000
0000
0001
0100
0000
0010
1000
0000
0000
0000
0000
2002
0MM0
0000
0000
0000
,
0000
0000
0000
0000
,
0000
0000
0000
0000
,
0000
3MM3
0000
0000
0001
0000
000M
M00M
M100
0000
0000
0000
0000
0000
0000
0000
,
0001
0000
1000
0000
0010
M10M
0010
0000
1000
0000
0100
0000
0010
MM01
0010
0000
,
0100
0000
1000
0000
0010
0100
M001
0100
M001
0000
0000
0000
0110
0000
0000
0000
,
0000
0000
0001
1000
0100
0000
1000
0000
0001
0000
0000
0000
0110
0000
0000
0000
,
0000
0000
0000
0000
1000
0M00
0100
00M0
0010
000M
0001
0000
0100
00M1
1000
0000
,
0010
0000
0100
0000
0001
M100
0010
0000
1000
0000
0100
0000
0010
0001
0100
0000
,
0002
0000
0000
0200
0003
0000
0320
0000
1030
0000
0001
0000
0010
0000
0001
0000
,
02MM
0000
0000
0000
0300
0010
1000
0001
,
0201
0000
0000
0000
0000
M0MM
0000
0000
0000
0000
0301
0000
0010
0000
0100
0000
,
1002
0000
0000
0000
0000
MMM0
0000
0000
0000
0000
0013
0000
0001
0000
0100
0000
,
0001
0000
1000
0000
0010
M000
0001
0000
0010
000M
0100
0000
0010
0000
1000
0000
,
1002
0000
0000
0000
0000
MMM0
0000
0000
0000
0000
0103
0000
0001
0000
0010
0000
,
1200
0000
0000
0000
0300
1000
0010
0100
,
0101
0000
0000
0001
1000
0000
0101
0000
1100
0000
0000
1000
0001
0000
0100
0000
,
0010
0000
0100
0000
0001
0000
2000
0M0M
0020
0000
0000
0000
0000
0000
0000
0000
,
0000
0000
0000
0000
0000
0000
0000
3030
0000
0000
1001
0000
0000
0100
0001
0000
,
2002
0000
0000
0000
3003
0000
0000
0000
0000
0000
0110
0000
0000
0001
1000
0000
,
2200
0000
0000
0000
3300
0000
0000
0000
0000
0000
1010
0000
0000
0100
0001
0000
,
1000
0010
0000
0000
0000
0000
0100
0001
0100
0000
0000
0010
1000
0000
2MM2
0000
,
0000
0000
3003
0000
0000
0000
0000
M22M
0000
0000
0000
0000
0000
0000
0330
0000
0000
0000
0000
0000
0101
0000
0000
0000
0000
0000
0100
0000
0010
0000
0000
0000
,
1000
0001
0000
0000
0000
0000
0000
0000
0000
0000
0110
0000
0000
1000
0100
0000
,
1001
0000
0000
0000
0000
0000
0000
0000
0000
0000
0102
0000
0000
2000
0003
0000
,
0020
0000
3000
0000
0000
0000
0000
0000
0030
0000
0000
0000
0100
0000
0001
0000
1000
0000
0000
0000
0000
1100
0000
0000
0000
0000
0000
1001
0000
0000
0000
0000
,
0000
0000
0000
0000
0000
0000
0000
2002
0000
0000
0000
0000
0000
0000
0000
0000
0000
0000
0000
0000
0000
0000
0000
0000
0000
0000
0000
0000
0000
0000
0000
0000
,
0000
0000
0000
0000
,
3MM3
0000
0000
0000
;

//---------------dance-single - ----------------
#NOTES:
     dance-single:
     :
     Medium:
     7:
     0.430,0.460,0.280,0.467,0.061,387.000,48.000,80.000,32.000,0.000:



2002
0000
0000
0000
0000
0000
0000
0003
,
0200
0000
0000
0000
3000
0000
0000
0000
0000
0010
0000
0000
0000
0000
0000
0000
,
0000
0000
0001
0000
0000
0000
0000
0000
0000
0000
0000
1000
0000
0000
0000
0000
,
0000
0000
0000
0000
0020
0000
0000
0000
0300
0000
0000
0000
0000
0001
0000
0000
,
0000
0000
0000
0000
0000
0000
0100
0000
0000
0000
0000
0000
0000
0000
0000
1000
,
0000
0000
0100
0000
,
0000
0002
0000
0000
0030
0000
0000
0000
0000
0000
2000
0000
0000
0000
3003
0000
,
2002
0000
0000
3MM3
,
0010
1000
0001
0100
,
0010
0000
0000
0000
0000
0000
2000
0000
0002
3000
2000
0003
0002
3000
2000
0003
,
0200
3000
0000
0300
0010
0000
0000
0000
0001
0000
0000
0000
1000
0000
0000
0000
,
0100
0000
0000
0000
0000
0000
0000
0000
0000
0000
0000
0000
0010
0000
0000
0000
0002
0000
0000
0000
0000
0000
0200
0000
0000
0003
0000
0000
0020
0300
0000
0000
,
1000
0030
1000
0000
0001
0000
0010
0000
,
0100
0000
0000
0000
0000
0000
0020
0000
0002
0030
0020
0003
0002
0030
2000
0003
,
0002
3000
0000
0003
0100
0000
0000
0000
0010
0000
0000
0000
1000
0000
0000
0000
,
0100
0000
0000
1000
0010
1000
0001
0100
,
0001
0100
0001
1000
0000
0001
0000
1000
,
0000
0110
M00M
0000
0000
1000
0001
1000
,
0200
0000
0000
0300
0000
1000
0001
1000
,
0020
0000
0000
0000
0000
0000
0030
0000
2000
0000
0000
0000
0200
3000
0000
0300
,
0010
0000
0001
0000
0010
0000
0002
0000
0000
0000
1000
0003
0000
0000
0100
0000
,
0000
1001
0MM0
0000
0000
0010
1000
0010
,
0000
0010
0100
0010
0000
1000
0000
0202
,
0000
0000
0000
0000
0000
0003
0000
0000
0010
0000
0000
0000
1000
0000
0000
0000
,
0301
1000
0001
1000
0000
0010
0000
0100
,
0000
1001
0MM0
0000
0000
0000
0101
0000
,
2100
0001
3100
1001
,
0102
0000
0000
0000
1000
0000
0000
0000
0010
0003
0000
0000
0001
0000
0000
0000
,
0100
0010
1000
0010
0000
1000
0000
0001
,
0000
0011
MM00
0000
0000
0001
0100
0001
,
0000
1000
0100
1000
0000
0010
0000
0201
,
0000
0000
0000
0300
,
0010
1000
0100
0010
,
0001
0000
0000
0000
0000
0000
0002
0000
0020
0003
0002
0030
0020
0003
0200
0030
,
2000
0300
0000
3000
0001
0000
0000
0000
0100
0000
0000
0000
0010
0000
0000
0000
,
2002
0000
0000
0000
,
0000
0003
0001
0000
0001
0000
3001
0000
,
0001
1000
0001
0000
0100
0001
0100
0000
,
0010
1000
0010
0000
1000
0100
0010
0001
,
2000
0000
0000
0000
0000
0000
0000
0000
0020
3000
0000
0200
0030
0000
0301
0000
,
2000
0000
0000
0000
0000
0000
0000
0000
0000
3000
0000
0000
0000
0000
0001
0000
,
0202
0000
0000
0000
0000
0303
0000
0000
1000
0000
0000
0000
0100
0000
0000
0000
,
0010
0000
0000
0000
0001
1000
0000
0001
,
0100
0001
0000
1000
0001
0100
0000
0010
,
2000
0000
0000
0000
0000
0000
0000
0000
0001
3000
0000
0000
0100
0000
0000
0000
,
1001
0000
0000
0000
1000
0000
0001
1000
,
0200
0000
0000
0000
0010
0300
0000
0000
0011
0000
0000
0000
0000
0000
1000
0000
,
0100
0000
0010
0001
1000
0000
0000
0001
,
0100
0001
0000
1000
0010
1000
0010
1000
,
2002
0000
0000
0000
0000
0000
0000
0MM0
,
0000
0000
0000
0000
,
0000
0MM0
0000
0000
0000
0000
0000
0000
0000
0000
0000
0000
0000
0000
0000
0000
,
0000
0000
0000
0000
0000
0000
0000
3003
,
1000
0001
0100
0001
0000
0100
0000
0010
,
0000
1010
0M0M
0000
0000
1000
0001
0100
,
0020
0000
0000
0000
0030
1000
0001
0010
,
0200
0000
1000
0001
,
1300
0001
1000
0010
0000
1000
0000
0001
,
0000
0110
M00M
0000
0000
0001
1000
0100
,
0000
1000
0001
0100
0000
0010
0000
2000
,
0000
0000
0001
0100
,
3001
0100
0010
1000
0010
0100
0000
0001
,
0000
0110
M00M
0000
0000
0001
1000
0100
,
0020
0000
0000
0000
0000
0000
0000
0030
0000
0000
0100
0000
1000
0000
0010
0000
,
0200
0000
1000
0001
,
0310
1000
0001
0100
0000
0001
0000
0010
,
0000
1001
0MM0
0000
0000
1000
0010
0100
,
0000
0001
0010
0100
0000
1000
0000
0202
,
M0M0
0000
0000
0000
0000
0303
0000
0000
2002
0000
0000
0000
0000
0000
0000
0000
,
0000
0000
0000
0000
3003
1100
0000
0000
,
0101
0000
0001
0000
0000
0011
0000
0000
,
1010
0000
1000
0000
0000
0101
0000
0000
,
0110
0000
0010
0000
0001
1000
0001
0100
,
0000
0000
0000
M1M1
0000
0000
0000
0000
0000
0000
1001
0000
0000
0000
0000
0000
,
2000
0000
0010
3000
0000
0101
0000
0000
,
0020
0000
1000
0030
0000
1010
0000
0000
,
0102
0000
0000
0000
0000
0003
0000
1000
0000
0000
0001
0000
0000
1000
0000
0001
,
0000
0000
1000
0000
0000
0001
0000
0000
0000
0000
0000
2002
0MM0
0000
0000
0000
,
0000
0000
0000
0000
,
0000
0000
0000
0000
,
0000
3MM3
0000
0000
1000
0000
0000
0000
0010
0000
0000
0000
0000
0000
0000
0000
,
0000
0000
1000
0001
1000
0010
0100
0001
,
1000
0000
0010
1000
0001
0000
1001
0000
,
0000
0001
1000
0000
1100
0000
0101
0000
,
0000
0000
0001
0100
0001
0000
0010
0100
,
1000
0001
1000
0001
0100
0001
0100
0010
,
0100
0000
0000
0002
0000
0000
2003
0000
0200
3000
0300
0000
0010
0000
0001
0000
,
2000
0000
0000
0000
3000
0001
0100
0000
,
0102
0000
0000
0000
0000
0000
0000
0003
0000
0000
1000
0000
0010
0000
0000
0000
,
2010
0000
0000
0000
0000
0000
0000
3000
0000
0000
0010
0000
1000
0000
0010
0000
,
0100
0000
0001
0010
0000
0100
1000
0001
,
0200
0000
0000
0000
0000
0000
0000
0300
0000
0000
0001
0000
0100
0000
0000
0000
,
2002
0000
0000
0000
0000
0000
0000
3003
0000
0000
1000
0000
0001
0000
1000
0000
,
0100
0000
0000
1000
0000
0000
0001
0000
1000
0000
0000
0000
0000
0000
0001
0000
,
0100
0000
0001
2000
0020
0000
0000
0000
,
0000
0000
0000
3030
0000
1001
0000
0000
,
0101
0000
0100
0000
0010
1000
0000
0000
,
1001
0000
0001
0000
0010
0100
0000
0000
,
1100
0000
0000
0000
1000
0000
0001
0000
1000
0000
0000
0001
0000
0000
1000
0000
,
0000
0000
0000
0101
0000
M0M0
0000
0000
0000
0000
2001
0000
0000
0000
0000
0000
,
0010
0000
3001
0000
0001
2000
0000
0000
,
0010
0000
3010
0000
0001
0010
0000
0000
,
0001
0000
1000
0001
0000
1000
0000
0001
,
0000
0000
0000
2002
0000
0000
0000
0000
0000
0000
0000
0000
0000
0000
0000
0000
,
0000
0000
0000
0000
,
3003
0000
0000
0000
;

//---------------dance-single - ----------------
#NOTES:
     dance-single:
     :
     Easy:
     4:
     0.251,0.307,0.210,0.058,0.000,255.000,36.000,10.000,0.000,0.000:



1001
0000
0000
0000
,
0010
0000
0000
0000
,
0100
0000
0000
0000
,
1000
0000
0000
0000
,
0001
0000
0000
0000
,
0010
0000
0000
0000
,
0100
0000
0000
0000
,
1001
0000
0000
0000
,
0010
0000
1000
0000
,
0100
0000
0001
1000
,
0001
0000
0010
0000
,
0100
0000
1000
0001
,
1000
0000
0010
0000
,
0100
0000
0001
1000
,
0001
0000
0100
0000
,
0001
0000
1000
0010
,
0100
0001
1000
0100
,
0010
0010
0000
1001
,
0001
0000
0000
1001
,
1000
0000
0001
0100
,
0001
1000
0100
1000
,
0001
0001
0000
1000
,
0100
0010
0001
0100
,
0010
0000
0001
1000
,
1001
0010
1000
0001
,
0100
0100
0000
1100
,
1000
0000
0000
0101
,
0001
0000
1000
0010
,
0100
0001
0100
0001
,
1000
1000
0000
0100
,
0000
0010
0000
1000
,
1001
0000
0000
0000
,
0010
0000
0100
0000
,
0001
0000
1000
0100
,
0010
0000
0001
0000
,
1001
0000
0000
0000
,
0000
1000
1000
1000
,
1000
0001
0100
0010
,
0100
0001
0010
0100
,
0010
0000
0001
1000
,
0100
0000
0000
0000
,
1001
0000
0001
1000
,
0010
0000
0100
0010
,
1000
0100
0010
0100
,
1000
0000
0001
0100
,
1001
0000
1000
0100
,
0010
0001
1001
0000
,
0010
0000
0100
0000
,
0001
0001
1000
1000
,
1001
0000
0000
0000
,
0001
0000
0000
0000
,
1000
0000
0000
0000
,
1001
0000
0000
0000
,
1000
0001
0100
0001
,
0010
0010
0000
1010
,
1000
0000
0000
0011
,
0001
0000
1000
0001
,
0100
0010
1000
0001
,
0100
0100
0000
0001
,
1000
0000
0001
1000
,
0100
0000
1001
1001
,
0010
1000
0001
0100
,
0010
0010
0000
1000
,
0002
0000
0003
0001
,
2000
0000
3001
0001
,
1000
0010
0100
0001
,
1000
1000
0000
0010
,
1000
0000
0010
0100
,
0001
0000
2002
0000
,
0000
0000
3003
0000
,
0001
0001
0000
0000
,
1000
1000
0000
0000
,
0010
0010
1000
0001
,
1000
0000
0000
0000
,
0001
0001
0000
0000
,
0100
0100
0000
0000
,
1001
0000
0001
0000
,
1000
0000
0000
2002
,
0000
0000
0000
0000
,
0000
0000
0000
0000
,
0000
3003
0000
0000
1000
0000
0000
0000
0010
0000
0000
0000
0000
0000
0000
0000
,
0000
1001
1000
0100
,
1000
0010
1001
0110
,
0000
1000
0001
0101
,
0000
0000
1000
0000
,
0100
0010
0001
1000
,
0010
0100
0001
1000
,
1001
0000
0000
0010
,
1002
0000
0000
0000
0000
0000
0000
0003
0000
0000
0000
0000
0010
0000
0000
0000
,
2001
0000
0000
0000
0000
0000
0000
3000
0000
0000
0000
0000
0001
0000
0000
0000
,
0001
0100
0010
1000
,
1001
0000
0000
1001
,
0110
0000
0000
0001
,
0100
0001
1000
0100
,
1000
0001
1001
0000
,
0000
0000
0000
0000
,
1000
1000
0000
0000
,
0001
0001
0000
0000
,
0100
0100
1001
0110
,
1001
0000
0000
0000
,
0010
0010
1000
0001
,
0010
0010
0001
1000
,
0001
2002
0000
0000
,
0000
0000
0000
0000
,
0000
0000
0000
0000
,
3003
0000
0000
0000
;
