#TITLE:Goin' Home -stepmanix-;
#SUBTITLE:;
#ARTIST:CHAO5;
#TITLETRANSLIT:;
#SUBTITLETRANSLIT:;
#ARTISTTRANSLIT:;
#CREDIT:;
#BANNER:Goin home.jpg;
#BACKGROUND:Goin home-bg.jpg;
#LYRICSPATH:;
#CDTITLE:;
#MUSIC:Goin home.mp3;
#OFFSET:0.000;
#SAMPLESTART:34.800;
#SAMPLELENGTH:12.000;
#SELECTABLE:YES;
#BPMS:0.000=137.954;
#STOPS:;
#BGCHANGES:;
// cache tags:
#FIRSTBEAT:16.000;
#LASTBEAT:210.000;
#SONGFILENAME:Songs/StepMix 1.0/Goin' Home -stepmanix-/Goin home.sm;
#HASMUSIC:1;
#HASBANNER:1;
#MUSICLENGTH:100.858;
// end cache tags

//---------------dance-single - E. Holniker----------------
#NOTES:
     dance-single:
     E. Holniker:
     Challenge:
     9:
     0.540,0.729,0.089,0.892,0.223,282.000,9.000,90.000,19.000,37.000:






0000
0000
0000
0000
,
0000
0000
0000
0000
,
0000
0000
0000
0000
,
0000
0000
0000
0000
,
1000
0100
1000
0000
0000
0000
0010
0100
0010
0000
0000
0000
0010
0001
0010
0100
,
0000
0100
1000
0100
1000
0100
0000
0100
0010
0001
0010
1000
0000
1000
0010
0001
,
0010
1000
0000
1000
0100
0001
0100
1000
0000
1000
0010
0100
0010
1000
0000
1000
,
0100
0001
0100
0010
0000
0010
0100
1000
0100
0001
0000
0001
0010
1000
0010
1000
,
0200
0000
0000
0000
2000
0000
0000
0000
0020
0000
0000
0000
0000
0000
3330
000M
,
0020
0000
0000
0000
0200
0000
0000
0000
2000
0000
0000
0000
0000
0000
3330
000M
,
0002
0000
0000
0000
0020
0000
0000
0000
0200
0000
0000
0000
0000
0000
0333
M000
,
0200
0000
0000
0000
2000
0000
0000
0000
0002
0000
0000
0000
0000
0000
3303
00M0
,
2000
0000
0200
0000
0010
0000
0010
3300
,
0002
0000
0020
0000
1000
0000
1000
0033
,
0200
0000
2000
0000
0010
0000
0010
3300
,
0020
0000
0002
0000
1000
0000
1000
0033
,
1000
0000
0100
0000
0010
0001
0010
0001
,
0000
0001
0000
0001
0010
0100
0010
0000
,
0100
1000
0010
0100
0010
0001
0010
1000
,
0100
0000
0010
0000
0001
0000
1000
0010
,
1000
0000
0010
0000
0100
0001
1000
0100
,
0000
0100
0000
0100
0010
0001
0010
0000
,
0100
1000
0010
0100
0010
0001
0010
1000
,
0100
0010
0001
1000
,
0010
0000
0100
0010
0200
0300
2000
0000
3000
0002
0000
0003
2200
0000
3300
0000
,
0010
0000
0100
0010
0100
0000
2000
0000
0000
3002
0000
0000
2203
0000
3300
0000
,
0001
0000
1000
0100
1000
0000
0020
0000
0000
0032
0000
0000
2023
0000
0000
3030
,
0100
0000
1000
0010
1000
0000
0200
0000
0000
0302
0000
0000
0223
0000
0330
0000
,
1000
0000
0001
1000
0001
0000
2000
0000
0000
0002
0000
3003
0220
0000
0000
0330
,
1000
0000
0100
0010
0001
0000
0010
0000
0001
0000
0010
0000
0010
0000
0100
0000
,
2000
3200
0320
0230
2300
3200
2300
3200
,
0302
0000
0000
0003
2000
0000
0000
3000
0020
0000
0000
0030
2000
0000
3200
0000
,
2300
0000
0000
3000
0200
0000
0000
0300
0020
0000
0000
0030
0001
0000
0010
0000
,
0000
0010
0000
0010
0100
1000
0200
0000
,
0010
0000
00M0
0000
M010
0000
10M0
0000
M010
0000
00M0
0000
2020
0000
0000
3030
,
0001
M000
0000
000M
0010
0000
00M1
0000
0010
0000
00M0
0000
2002
0000
0000
3303
,
0020
0000
0000
0030
0200
0000
0000
0300
2000
0000
0000
3000
0100
0000
0010
0000
,
0000
0010
0000
0010
0100
1000
0100
0000
,
0020
0200
0000
0002
0000
2003
000M
3000
,
1000
0000
M001
0000
200M
0000
0000
0000
3001
0000
M00M
0000
1001
0000
0000
0330
,
2000
0000
3200
0000
0310
0001
0010
0100
,
0000
0100
0000
0100
0010
1000
0010
0000
,
1000
0100
0001
1000
0100
0001
1000
0100
,
0002
0000
0000
0000
0023
0000
0000
0000
0230
0000
0000
0300
1000
0000
0010
0000
,
2000
0000
0000
3000
0200
0000
0000
0300
0020
0000
0000
0030
0001
0000
0010
0000
,
0000
0010
0000
0010
0100
1000
0100
0000
,
0200
0000
0002
0000
0020
0000
2000
0030
,
0000
3000
0010
1000
0010
0000
1010
0303
,
2000
0000
3200
0000
0320
0000
0130
1000
,
0000
1000
0000
1000
0001
0100
0001
0000
,
0200
0020
2000
3002
,
1003
0001
1000
0000
0001
000M
2000
0000
,
3000
0000
0330
0000
;

//---------------dance-single - E. Holniker----------------
#NOTES:
     dance-single:
     E. Holniker:
     Hard:
     7:
     0.418,0.462,0.069,0.000,0.030,288.000,7.000,0.000,0.000,0.000:

0000
0000
0000
0000
,
0000
0000
0000
0000
,
0000
0000
0000
0000
,
0000
0000
0000
0000
,
1000
0000
0010
0100
0000
0010
1000
0100
,
0010
0000
0100
0001
0000
0100
0010
0100
,
1000
0000
0010
0100
0000
0001
1000
0100
,
1000
0000
0100
0010
0000
0001
0010
0100
,
1000
0000
0000
0010
1000
0000
0010
0000
1000
0000
0010
0000
1000
0000
0010
0000
,
1000
0000
0000
1000
0001
0000
0001
0000
0100
0000
0010
0000
0100
0000
0010
0000
,
1000
0000
0000
0100
1000
0000
0100
0000
0010
0000
0001
0000
0010
0000
0001
0000
,
0010
1100
1010
0110
,
1100
0000
0101
0010
0100
0010
0100
0010
,
0100
0000
0000
1000
0100
0000
0100
0000
0010
0000
0001
0000
0010
0000
0100
0000
,
0010
0000
0000
0001
0100
0000
0010
0000
0100
0000
0001
0000
0100
0000
0010
0000
,
1000
0000
0000
1000
0100
0000
0001
0000
0010
0000
0001
0000
0010
0000
0001
0000
,
0010
0000
0100
0000
1000
0010
1000
0010
,
0000
0010
0000
0010
0100
0001
1000
0000
,
1000
0100
0010
0001
0010
0100
0010
0100
,
1000
0000
0010
0000
0100
0000
0001
1000
,
0010
0000
0100
0000
0010
0001
0010
1000
,
0000
1000
0000
1000
0100
0010
0001
0000
,
0010
0100
0010
0100
1000
0010
0100
0010
,
0001
0000
0010
0000
1000
0000
0100
1000
,
0100
1000
0100
1000
0100
0000
0110
0000
,
0001
0010
0100
0010
0100
0000
1010
0000
,
0001
0100
0010
1000
0100
0010
0100
0010
,
0100
0000
1000
0000
0001
0000
0100
0010
,
1000
0000
0100
0000
0010
0001
0010
0100
,
0000
0100
0000
0100
1000
0010
0100
0000
,
0001
1000
0010
0100
0010
0001
0010
1000
,
0010
0000
0100
0000
0100
0000
1000
0001
,
0010
0000
0100
0000
1000
0000
0010
1000
,
0000
1000
0000
1000
0001
0100
0000
0010
,
1000
0100
0000
0100
0000
0100
0000
0100
,
0000
0100
0000
0100
0000
0100
0000
0100
,
0010
0000
0001
0000
0010
0000
0100
1000
,
0000
1000
0000
1000
0010
0100
0001
0000
,
1000
0100
0000
0010
0000
0001
0000
0010
,
0000
0100
0000
1000
0000
0010
0100
0010
,
1000
0000
0100
0000
0010
0001
0010
0100
,
0000
0100
0000
0100
1000
0010
0100
0000
,
0010
1000
0010
0001
0010
1000
0010
0001
,
0010
0000
1000
0000
0100
0000
0010
0100
,
1000
0000
0100
0000
0010
0000
0001
1000
,
0000
1000
0000
1000
0010
0100
0001
0000
,
0000
0010
0100
0010
0100
0000
0010
0000
,
1000
0100
1000
0100
1000
0000
0100
0000
,
0010
0001
0010
0100
0010
0000
0100
0000
,
1000
0010
1000
0010
0100
0000
0001
0000
,
1000
0100
0010
0100
0001
0000
0100
0000
,
0100
0000
0010
0001
0010
0100
0010
0000
;

//---------------dance-single - E. Holniker----------------
#NOTES:
     dance-single:
     E. Holniker:
     Easy:
     3:
     0.238,0.232,0.000,0.000,0.000,168.000,0.000,0.000,0.000,0.000:

0000
0000
0000
0000
,
0000
0000
0000
0000
,
0000
0000
0000
0000
,
0000
0000
0000
0000
,
1000
0010
1000
0010
,
0100
0001
0100
0000
,
0010
1000
0100
0010
,
0100
0001
0100
1000
,
0010
0000
0100
0001
,
1000
0100
0010
0100
,
1000
0000
0010
0000
,
0100
0001
1000
0100
,
0010
0000
1000
0000
,
0001
0000
0100
0000
,
0010
1000
0100
1000
,
0100
0010
0100
0001
,
0100
1000
0100
1000
,
0100
0000
0000
0000
,
0010
0100
1000
0010
,
0100
0100
0100
0000
,
0001
1000
0010
0100
,
0001
0001
0001
0000
,
0010
1000
0100
0010
,
0100
0010
0010
0000
,
1000
0100
1000
0000
,
0001
1000
0001
0000
,
0100
0010
1000
0000
,
0001
1000
0100
0010
,
0010
0001
1000
0010
,
0100
0000
0001
0000
,
1000
0100
0010
0001
,
1000
0000
0100
0000
,
0010
0100
1000
0010
,
0100
0100
0001
0000
,
1000
0000
0010
0000
,
0100
0000
0001
1000
,
0100
0010
0001
1000
,
0010
0100
0001
1000
,
1000
0100
0100
0010
,
0010
0001
0001
1000
,
0010
1000
0010
1000
,
0001
0100
0010
1000
,
0100
0010
0100
0001
,
0100
1000
0010
0100
,
0001
1000
0010
1000
,
0100
0100
1000
0100
,
0010
0001
0010
0100
,
1000
0010
0100
0010
,
0100
0010
0010
0001
,
0010
0010
1000
0100
,
0010
0100
1000
0100
,
1000
0001
0100
0010
,
1000
0000
0000
0000
;

//---------------dance-single - E. Holniker----------------
#NOTES:
     dance-single:
     E. Holniker:
     Beginner:
     1:
     0.171,0.179,0.000,0.000,0.000,121.000,0.000,0.000,0.000,0.000:

0000
0000
0000
0000
,
0000
0000
0000
0000
,
0000
0000
0000
0000
,
0000
0000
0000
0000
,
1000
0000
0000
0000
,
0010
0000
0000
0000
,
0100
0000
0000
0000
,
0001
0000
0000
0000
,
1000
0010
1000
0000
,
0001
0100
0001
0000
,
0100
1000
0100
0000
,
0010
1000
0100
0000
,
0010
0100
1000
0010
,
0100
0000
0000
0000
,
1000
0100
0010
0001
,
0010
0000
0000
0000
,
1000
1000
1000
0000
,
0001
0001
0001
0000
,
0010
0010
0010
0000
,
0100
0100
0100
0000
,
1000
0000
1000
0000
,
0001
0000
0001
0000
,
0010
0100
1000
0000
,
0010
0000
0100
0000
,
1000
1000
0100
0000
,
0010
0010
0100
0000
,
0001
0001
1000
0000
,
0010
0010
0100
0000
,
0100
0100
1000
0000
,
0010
0010
0001
0000
,
0100
0100
1000
0000
,
0010
0010
0001
0000
,
1000
0100
0010
0000
,
0001
0010
0100
0000
,
1000
0100
0010
0000
,
0001
0010
0100
0000
,
1000
0010
1000
0000
,
0001
0100
0001
0000
,
0100
0010
0100
0000
,
1000
0000
0001
0000
,
0100
0000
0010
0000
,
1000
0000
0100
0000
,
0010
0000
0100
0000
,
1000
0000
0010
0000
,
0001
0000
0100
0000
,
1000
0000
0010
0000
,
0100
0000
1000
0000
,
0001
0000
1000
0000
,
0010
0000
1000
0000
,
0010
0010
0010
0000
,
1000
0100
0010
0000
,
0001
0001
0001
0000
;

//---------------dance-single - E. Holniker----------------
#NOTES:
     dance-single:
     E. Holniker:
     Medium:
     5:
     0.296,0.335,0.010,0.000,0.000,208.000,1.000,0.000,0.000,0.000:

0000
0000
0000
0000
,
0000
0000
0000
0000
,
0000
0000
0000
0000
,
0000
0000
0000
0000
,
1000
0010
1000
0000
,
0001
0100
0010
1000
,
0100
0010
0100
1000
,
0100
1000
0100
0010
,
0001
0010
0100
1000
,
0010
0100
0010
1000
,
0100
1000
0100
0010
,
0100
0001
0100
0001
,
0100
1000
0100
0010
,
0100
1000
0010
0100
,
0010
0001
0010
1000
,
0100
0010
0100
1000
,
1000
0100
1000
0100
1000
0000
0000
0000
,
0001
0100
0001
0100
0001
0000
0000
0000
,
1000
0010
1000
0010
1000
0000
0000
0000
,
0010
0100
0010
0100
0010
0000
0000
0000
,
0000
0000
1000
0100
1000
0100
1000
0000
,
0001
0010
0001
0010
0001
0010
0001
0000
,
0010
0100
0010
0100
0010
0100
0010
0000
,
0000
0000
0010
1000
0010
1000
0100
0000
,
0100
0001
0001
1000
,
0010
1000
0100
0010
,
0100
0001
0100
1000
,
0010
1000
0010
1000
0010
0000
0100
0000
,
0001
1000
0100
0010
,
0100
1000
0010
0100
,
0010
0001
0010
0001
0010
0000
1000
0000
,
0100
0010
0100
1000
,
1000
1000
1000
0001
,
1000
1000
0001
1000
,
0001
1000
0010
1000
,
0010
0010
1000
0001
,
1000
0100
0010
0100
,
1000
1000
0100
0010
,
0001
0010
0100
1000
,
0010
0010
0100
0100
,
0001
1000
0010
0001
,
0010
1000
0100
0001
,
0100
0010
0100
1000
,
0001
0100
0010
1000
,
0010
0001
0100
1000
,
0100
0010
0010
0001
,
0010
1000
0100
0010
,
0100
1000
0010
0001
,
0100
0010
0100
1000
,
0001
0100
0010
0001
,
0010
1000
0100
0010
,
0100
1000
1000
0001
,
1001
0000
0000
0000
;
