#TITLE:Chaoz Japan;
#SUBTITLE:;
#ARTIST:ParagonX9;
#TITLETRANSLIT:;
#SUBTITLETRANSLIT:;
#ARTISTTRANSLIT:;
#CREDIT:NiDeCo;
#BANNER:Chaoz Japan.png;
#BACKGROUND:Chaoz Japan bg.png;
#LYRICSPATH:;
#CDTITLE:;
#MUSIC:Chaoz Japan.mp3;
#OFFSET:-0.040;
#SAMPLESTART:11.496;
#SAMPLELENGTH:9.000;
#SELECTABLE:YES;
#BPMS:0.000=165.000,30.000=330.000,124.000=165.000,124.500=330.000,172.500=165.000,207.500=330.000,369.000=165.000,369.500=330.000;
#STOPS:30.000=0.545
,60.000=0.546
,207.500=1.000
,209.000=0.182
,241.000=0.182
;
#BGCHANGES:;
// cache tags:
#FIRSTBEAT:16.000;
#LASTBEAT:408.500;
#SONGFILENAME:Songs/StepMix 1/Chaoz Japan/Chaoz Japan.sm;
#HASMUSIC:1;
#HASBANNER:1;
#MUSICLENGTH:90.259;
// end cache tags

//---------------dance-single - ----------------
#NOTES:
     dance-single:
     :
     Challenge:
     10:
     1.000,1.000,1.000,0.875,0.227,449.000,118.000,79.000,0.000,0.000:
0000
0000
0000
0000
,
0000
0000
0000
0000
,
0000
0000
0000
0000
,
0000
0000
0000
0000
,
0010
0000
0000
0000
1000
0000
0000
0000
0101
0000
0000
0011
0000
0000
0000
0000
,
0100
0000
0000
0000
1000
0000
0000
0000
1010
0000
0000
0011
0000
0000
0000
0000
,
0100
0000
0000
0000
0010
0000
0000
0000
1001
0000
0000
1100
0000
0000
0100
0000
,
0010
0000
0001
0100
0001
0000
0010
0000
1010
0000
0000
0000
2000
0000
0000
0000
,
0100
3000
0200
0000
0010
0300
0020
0000
,
0001
0030
0002
0000
0100
0003
0200
0000
,
0010
0300
0020
0000
1000
0030
2000
0000
,
0001
3000
0101
0000
0110
0000
1020
0000
,
1000
0030
2000
0000
0001
3000
0002
0000
,
0010
0003
0020
0000
0100
0030
0200
0000
,
1000
0300
2000
0000
0001
3000
0002
0000
,
0100
0003
1000
0000
2000
0000
0001
3000
,
0002
0000
0100
0003
0200
0000
1000
0300
,
2000
0000
0100
3000
0200
0000
0010
0300
,
0020
0000
1000
0030
1001
0000
1100
0000
,
0210
0000
0010
0300
0020
0000
1000
0030
,
2000
0000
0010
3000
0020
0000
0001
0030
,
0002
0000
0100
0003
0200
0000
0010
0300
,
0020
2000
0000
3030
,
0001
1000
0001
1000
0010
1000
0010
1000
,
0010
1000
1001
1001
,
0010
0100
0010
0100
0001
0100
0010
1000
,
0001
1000
0110
0011
,
0001
1000
0001
1000
0100
0010
0100
0010
,
0001
0000
1100
0000
1100
0000
0010
0001
,
1000
0001
0100
0010
0100
0001
1000
0000
,
0001
0110
1001
0100
,
0110
2002
0000
3003
1000
0100
1000
0010
,
0100
0001
0000
1100
0000
0101
0000
1000
,
0100
1000
0100
0010
0001
1000
0100
0010
,
0000
1000
0000
1010
0000
0011
0000
0001
,
0100
0001
0100
0001
0100
0010
1000
0100
,
0000
0011
0000
0011
0000
1000
0100
0010
,
0100
1000
0001
0100
0010
1000
0000
1001
,
0000
0110
0000
1001
0000
0110
0000
2002
,
0000
0000
0000
0000
,
0000
0000
0000
0000
,
0000
0000
0000
0000
,
0000
0000
0000
0000
,
0000
0000
0000
0000
0000
0000
0000
3003
,
1001
0000
0000
1001
0000
0000
1001
0000
0010
0100
0000
0010
,
1001
0000
0000
1001
0000
1000
0100
0010
0001
1000
0100
0010
,
1001
0000
0000
1001
0000
0000
1001
0000
0010
0100
0000
0010
,
1001
0000
0000
1001
0000
0100
0010
1000
0001
0010
0100
1000
,
0110
0000
0000
0110
0000
0000
0110
0000
0001
1000
0000
0001
,
0110
0000
0000
0110
0000
1000
0100
0001
0100
0010
0001
0010
,
1100
0000
1100
0000
1100
0000
1100
0000
1100
0000
1100
0000
,
1000
0100
0010
0001
0100
0010
1000
0000
0001
0000
1000
0000
,
0110
1001
0010
0020
,
0100
0030
0200
0000
0001
0300
0002
0000
,
0010
0003
0020
0000
0100
0030
0200
0000
,
1000
0300
2000
0000
0001
3000
0002
0000
,
0100
0003
0110
0000
1010
0000
1200
0000
,
1000
0300
2000
0000
0001
3000
0002
0000
,
0010
0003
0020
0000
1000
0030
0010
0100
,
0010
0000
0001
0010
0001
0000
1000
0100
,
1000
0000
1001
0000
0210
0000
0010
0300
,
0020
0000
0001
0030
0002
0000
1000
0003
,
2000
0000
0010
3000
0020
0000
0100
0030
,
0200
0000
1000
0300
2000
0000
0100
3000
,
0110
0000
0101
0000
0012
0000
0010
0003
,
0020
0000
0100
0030
0200
0000
1000
0300
,
2000
0000
0001
3000
0002
0000
0100
0003
,
0200
0000
0010
0300
0020
0000
1000
0030
,
1100
0000
1001
0000
0102
0000
0100
0003
,
0100
0000
1001
0000
1020
0000
1000
0030
,
1000
0000
1001
0000
0012
0000
0010
0003
,
0010
1001
1100
1001
,
0101
0000
1001
0000
0210
0000
0010
0300
,
0010
0000
1001
0000
0021
0000
0001
0030
,
0001
0000
1001
0000
2100
0000
0100
3000
,
0100
1001
1010
1001
,
0011
0000
0000
1001
0000
0000
0200
0000
0000
0002
0300
0000
,
0100
0003
0000
1001
0000
0000
0200
0000
0000
2000
0300
0000
,
0100
3000
0000
1001
0000
0000
0020
0000
0000
2000
0030
0000
,
0010
3000
0000
1001
0000
0000
0110
0000
0000
1100
0000
0000
,
0101
0000
1000
0000
0200
0000
0010
0300
,
0002
0000
1000
0003
0200
0000
0010
0300
,
0002
0000
0100
0003
0020
0000
1000
0030
,
0002
0000
0010
0003
0200
0000
1000
0300
,
0001
1100
1100
0011
,
0001
0100
0001
0100
0010
0000
1001
0000
,
1100
0011
0011
0101
,
0010
1000
0010
1000
0100
0000
0101
0000
,
1100
0110
0110
1001
,
1000
0100
0010
0100
1000
0000
1001
0000
,
0011
0000
1000
0010
0100
0001
1000
0000
,
0001
0100
0010
1000
0001
0100
0010
1000
,
0001
0000
0000
0000
0000
0000
0020
0000
0000
0100
0000
0000
0000
0000
0030
0100
0000
0000
0000
0000
0000
0010
0000
0000
,
0001
0010
0000
0100
0000
1100
0000
1000
,
0100
1100
0000
1100
0000
0011
0000
0011
,
0000
0101
0000
0101
0000
1010
0000
1010
,
0000
1000
0001
0000
0100
0000
1000
0000
,
0100
0001
0010
1000
,
0010
0000
0000
0001
0000
0000
0000
0000
0000
0100
0000
0010
0000
0100
0000
0010
0000
0000
0100
0000
0000
0010
0000
0000
,
0000
0100
0000
0000
0000
0010
0000
0000
0000
0000
0100
0000
0000
0000
0000
0010
0000
0000
0000
0000
0000
0000
0000
0010
,
0000
2002
0000
0000
0000
0000
0000
0000
,
0000
0000
0000
0000
,
0000
3003
0000
0000
0000
0000
0000
0000
;

//---------------dance-single - ----------------
#NOTES:
     dance-single:
     :
     Hard:
     9:
     0.790,0.952,0.377,0.421,0.194,427.000,34.000,38.000,0.000,0.000:
0000
0000
0000
0000
,
0000
0000
0000
0000
,
0000
0000
0000
0000
,
0000
0000
0000
0000
,
1000
0000
0001
0000
0100
0000
0000
0000
1001
0000
0000
0110
0000
0000
0000
0000
,
0001
0000
1000
0000
0100
0000
0000
0000
1001
0000
0000
0110
0000
0000
0000
0000
,
0001
0000
1000
0000
0010
0000
1000
0000
0100
0000
0010
0001
0000
0000
1000
0000
,
0010
0000
0100
0001
0100
0000
0010
0000
2000
3000
0000
0000
0010
0000
0000
0000
,
0100
0001
0100
0010
,
1000
0100
0000
0000
0010
0000
0001
0000
,
1000
0100
1000
0000
0001
0000
0100
0000
,
0010
1000
0000
0000
0000
0000
0100
0000
,
0010
0001
0010
0100
,
1000
0010
0000
0000
0001
0000
1000
0000
,
0100
0010
0100
0000
0000
1000
0020
0000
,
0000
0130
0001
0010
,
0100
0000
0010
0001
0000
0000
1000
0000
,
0010
0000
0100
0010
0100
0000
0001
0000
,
0010
0000
0100
1000
0000
0000
0010
0000
,
0100
0000
0001
0010
0001
0000
0100
0000
,
1000
0000
0100
0001
0000
0000
0010
0000
,
0100
0000
1000
0001
0100
0000
0001
1000
,
0200
0000
0010
0000
0000
0010
0300
0010
,
0001
0001
0010
0100
,
1000
1000
0010
0100
,
0001
0000
0001
0000
0010
0000
0100
1000
,
0100
1000
0100
0000
0010
0000
0001
0000
,
0100
0100
0001
1000
,
0010
0010
1000
0001
,
0010
0000
0010
0000
0001
0000
1000
0100
,
1000
0100
1000
0000
0001
0000
0100
0000
,
0010
0200
0000
0000
0301
1000
0001
1000
,
0000
0100
0000
0010
0000
0000
0000
0001
,
0000
0100
0000
0010
1000
0010
0000
0100
,
0000
0001
0000
0010
0000
0000
0100
1000
,
0000
0010
0000
0100
0001
0100
0000
0010
,
0000
1000
0000
0100
0000
0000
0010
0001
,
0000
0100
0000
0010
0000
1000
0000
0010
,
0000
0100
0000
0001
0000
0010
0000
2200
,
0000
0000
0000
0000
,
0000
0000
0000
0000
,
0000
0000
0000
0000
,
0000
0000
0000
0000
,
0000
0000
0000
3300
,
0001
0000
0000
0001
0000
0000
0001
0000
0010
0100
0000
0010
,
0001
0000
0000
0001
0000
0001
0100
0010
1000
0001
0010
0100
,
1000
0000
0000
1000
0000
0000
1000
0000
0010
0100
0000
0010
,
1000
0000
0000
1000
0000
1000
0100
0010
0100
1000
0010
0100
,
0001
0000
0000
0001
0000
0000
0001
0000
0010
1000
0000
0010
,
0001
0000
0000
0001
0000
0001
0100
1000
0100
0010
1000
0100
,
0010
0000
0010
0000
0100
0000
1000
0000
1000
0000
1000
0000
,
0010
0100
0010
0100
0010
0100
0001
0000
1000
0000
1001
0000
,
0010
0110
1000
0001
,
0100
0000
0001
0000
1000
0000
0001
0010
,
0000
0000
1000
0000
0010
0000
0001
1000
,
0001
0000
0010
0000
1000
0000
0010
0001
,
0000
0000
0001
1000
,
0100
0000
1000
0000
0001
0000
1000
0010
,
0000
0000
0001
0000
0010
0000
1000
0001
,
1000
0000
0010
0100
0010
0000
1000
0000
,
2002
0000
0000
3003
0010
0000
1000
0000
,
0010
0000
0100
0000
0010
1000
0000
0000
,
1000
0000
0100
0000
0001
0000
0100
0010
,
0100
0000
1000
0000
0001
0100
0000
0000
,
1000
0000
0001
0000
0100
0010
0100
0000
,
0001
0000
1000
0000
0100
0010
0100
0000
,
1000
0001
0101
0100
,
0110
0010
1010
1000
,
1001
0210
0320
0130
,
0010
2001
3002
1003
,
0001
1002
2003
3001
,
1000
1000
0100
0010
,
0001
0102
0203
0301
,
0100
1020
2030
3010
,
1000
2010
3020
1030
,
0010
0010
0100
0001
,
1000
2100
3002
0103
,
1000
1200
0320
1030
,
0010
1020
0230
1300
,
0100
0100
0001
1000
,
0100
0012
0023
0031
,
0010
2100
3200
1300
,
0100
2001
3002
1003
,
0010
0100
0010
0000
1000
0000
1001
0000
,
0011
0000
2000
0000
0001
3000
0110
0000
,
1000
0001
1000
0000
0010
0000
0110
0000
,
0000
0000
0200
0000
0001
0300
1010
0000
,
0100
0001
0100
0000
0010
0000
1010
0000
,
0000
0001
0010
0100
,
1000
0010
0001
0010
,
1000
0000
1000
0100
1000
0100
0010
0000
,
0002
0000
0013
0100
0010
0100
1000
0100
,
1000
0000
2000
0100
3000
0100
0000
0010
,
0100
0010
0000
0001
0000
1000
0000
0100
,
0010
0100
0000
1000
0000
1100
0000
0010
,
0000
0001
0000
0100
0000
0110
0000
0001
,
0000
1000
0100
0000
0010
0000
0100
0000
,
0001
0100
0010
0100
,
1000
0001
0000
1000
0010
1000
0000
0001
,
0010
0001
0000
0000
0000
0110
0000
0000
,
0000
2002
0000
0000
0000
0000
0000
0000
,
0000
3003
0000
0000
0000
0000
0000
0000
;

//---------------dance-single - ----------------
#NOTES:
     dance-single:
     :
     Medium:
     7:
     0.467,0.728,0.266,0.089,0.011,263.000,24.000,8.000,0.000,0.000:
0000
0000
0000
0000
,
0000
0000
0000
0000
,
0000
0000
0000
0000
,
0000
0000
0000
0000
,
1000
0001
1000
0001
0100
0000
0010
0000
,
1000
0100
1000
0100
0010
0000
0000
0000
,
0001
1000
0010
0000
0100
0001
0010
0000
,
1000
0100
0010
0001
1000
0000
0001
0000
,
0100
0001
0000
1000
,
0000
0001
0000
1000
,
0100
1000
0000
0001
,
0000
1000
0000
0010
,
0100
0010
0000
1000
,
0001
1000
0000
1000
,
0100
0010
0000
1001
,
0000
0010
1000
0000
,
0001
0000
1000
0000
,
0100
0010
0001
0000
,
1000
0000
0001
0000
,
0100
0010
1000
0000
,
1000
0010
0100
0000
,
0100
0010
1000
0100
,
0010
0000
0001
0000
,
1000
0100
1000
0100
,
0010
0000
1001
0000
,
0001
0100
0001
0010
,
0100
0000
0000
0000
,
1000
0100
0010
0100
,
1000
0100
0010
0100
,
1000
0100
0010
0001
,
0011
0000
0000
0000
,
2000
0000
0000
3100
0000
0010
0000
0001
,
0000
0000
0000
1000
0000
0010
0000
0100
,
0000
0010
0000
1000
0000
0000
0000
0001
,
0000
0000
0000
0000
0000
0000
0000
1000
,
0000
0001
0000
0010
0000
0100
0000
0010
,
0000
0001
0000
1000
0000
0100
0000
0010
,
0000
0100
0000
1000
0000
0001
0000
1001
,
0000
0000
0000
1001
0000
0000
0000
2002
,
0000
0000
0000
0000
,
0000
0000
0000
0000
0000
0000
0000
3003
,
0000
0000
0000
0000
,
0000
0000
0000
0000
,
0000
0000
0000
0000
,
0010
0010
0010
0010
,
0100
0000
0100
0000
0200
0000
0000
0300
,
0001
0001
0001
0001
,
1000
0000
1000
0000
2000
0000
0000
3000
,
0010
0010
0100
0100
,
0001
0000
0001
0000
2000
0000
0000
3000
,
0101
0000
1010
0000
,
1100
0000
0000
0011
0000
0000
1100
0000
0010
0000
0001
0000
,
0000
0000
0010
0100
,
0010
0000
1000
0000
,
0001
0000
0010
0100
,
0010
0000
1001
0000
,
0000
0000
1000
0100
,
1000
0000
0001
0100
,
0001
0000
1000
0100
,
0010
0100
1000
0000
,
0001
0000
0100
0010
,
0000
1000
0000
0000
,
0000
1000
0100
1000
,
0100
0010
0000
0001
,
0010
0100
0000
1000
,
0100
0010
0000
0001
,
0100
0001
0100
0010
,
0000
1000
0000
0001
,
0000
1000
0100
1000
,
0000
0100
0010
0100
,
0000
0010
0001
0010
,
0000
1100
0000
0101
,
0000
0001
0100
0001
,
0000
0100
0010
0100
,
0000
0010
1000
0010
,
0000
0101
0000
1100
,
0000
1000
0100
1000
,
0000
0010
0100
0010
,
0000
1000
0100
1000
,
0000
0011
0000
1010
,
0000
0001
0100
0001
,
0000
0010
0100
0010
,
0000
0100
1000
0100
,
0000
0011
0000
1010
,
0000
1000
0001
1000
,
0000
0010
0000
0010
,
0000
0001
1000
0001
,
0000
0010
0000
0010
,
0000
0100
0010
0100
,
0000
0001
0000
1000
,
0000
0010
0100
0010
,
0000
1000
0001
1000
,
0001
0000
2000
0000
3000
0010
0000
0100
,
0000
0010
0000
0000
0000
0001
0000
0000
,
0000
1100
0000
0000
0000
0011
0000
0000
,
0000
0110
0000
0000
0000
1001
0000
0000
,
0000
0010
0000
0000
0000
0000
0000
0000
,
0000
0000
0000
0000
,
0000
0010
0000
0000
0000
0010
0000
0000
,
0000
1000
0000
0000
0000
0001
0000
0000
,
0000
0200
0000
0000
0000
0000
0000
0000
,
0000
0300
0000
0000
0000
0000
0000
0000
;

//---------------dance-single - ----------------
#NOTES:
     dance-single:
     :
     Easy:
     5:
     0.293,0.388,0.244,0.177,0.000,147.000,22.000,16.000,0.000,0.000:
0000
0000
0000
0000
,
0000
0000
0000
0000
,
0000
0000
0000
0000
,
0000
0000
0000
0000
,
1000
0000
0001
0000
,
0100
0000
0010
0000
,
1000
0000
0100
0000
,
0010
0001
0001
0000
,
0000
0010
0000
0000
,
0000
0100
0000
0000
,
0000
0001
0000
1000
,
0000
0001
0000
0000
,
0000
0001
0000
0000
,
0000
0010
0000
0000
,
0000
0100
0000
1000
,
0000
0000
0001
0000
,
0000
0000
0100
0000
,
0000
0000
0010
0000
,
1000
0000
0010
0000
,
0000
0000
0100
0000
,
0000
0000
0001
0000
,
0000
0000
0010
0000
,
0100
0000
1000
0000
,
1001
0000
0000
0000
,
0010
0000
0000
0000
,
0100
0000
0100
0000
,
0010
0000
0000
0000
,
0110
0000
0000
0000
,
1000
0000
0000
0000
,
0001
0000
0100
0000
,
0100
0000
0100
0000
,
0020
0000
0030
0000
0000
0000
0000
0010
,
0000
0000
0000
0000
0000
0000
0000
0010
,
0000
0000
0000
1000
0000
0000
0000
0100
,
0000
0000
0000
0000
0000
0000
0000
1001
,
0000
0000
0000
0000
0000
0000
0000
0110
,
0000
0000
0000
0000
0000
0000
0000
0001
,
0000
0000
0000
0100
0000
0000
0000
0001
,
0000
0000
0000
0000
0000
0000
0000
1010
,
0000
0000
0000
0000
,
0000
0000
0000
0000
,
0000
0000
0000
0000
,
0000
0000
0000
0000
,
0000
0000
0000
0000
,
0010
0000
0010
0000
,
0010
0000
0100
0100
,
0001
0000
1000
0000
,
0001
0000
0010
0010
,
0010
0000
0010
0000
,
0010
0000
0010
0100
,
1000
0000
0001
0000
,
1000
0000
0010
0000
0020
0000
0000
0030
,
0000
0000
0000
0000
,
0001
0000
0000
0000
,
1000
0000
0000
0000
,
0010
0000
0100
0000
,
0010
0000
0000
0000
,
0001
0000
0000
0000
,
1000
0000
0000
0000
,
1001
0000
1001
0000
,
1001
0000
0000
0010
,
0000
0000
0000
1000
,
0000
0000
0000
0100
,
0000
0010
0000
0001
,
0000
0000
0000
1000
,
0000
0000
0000
0001
,
0000
0000
0000
0110
,
0000
1001
0000
0110
,
0000
2000
0000
3001
,
0000
0002
0000
0103
,
0000
0200
0000
0310
,
0000
1001
0000
1001
,
0000
0020
0000
0130
,
0000
0200
0000
0310
,
0000
0020
0000
0130
,
0000
1001
0000
1001
,
0000
0002
0000
0103
,
0000
0200
0000
0310
,
0000
0020
0000
1030
,
0000
0110
0000
0110
,
0000
2000
0000
3001
,
0000
0002
0000
1003
,
0000
2000
0000
3100
,
0000
0110
0000
0110
,
0000
1000
0000
0001
,
0000
0000
0000
0100
,
0000
0100
0000
0010
,
0000
0000
0000
1000
,
0000
0100
0000
1000
,
0000
0000
0000
0010
,
0000
0001
0000
1000
,
0000
0001
0000
1000
,
0000
0000
0020
0000
0030
0100
0000
0000
,
0000
0100
0000
0000
0000
0010
0000
0000
,
0000
0000
0000
0000
0000
1001
0000
0000
,
0000
0000
0000
0000
0000
1001
0000
0000
,
0000
0020
0000
0000
0000
0000
0000
0000
,
0000
0000
0000
0000
,
0000
0130
0000
0000
0000
1000
0000
0000
,
0000
0100
0000
0000
0000
0001
0000
0000
,
0000
1001
0000
0000
0000
0000
0000
0000
;

//---------------dance-single - ----------------
#NOTES:
     dance-single:
     :
     Beginner:
     3:
     0.188,0.277,0.133,0.000,0.000,107.000,12.000,0.000,0.000,0.000:
0000
0000
0000
0000
,
0000
0000
0000
0000
,
0000
0000
0000
0000
,
0000
0000
0000
0000
,
1000
0000
0000
0000
,
1000
0000
0000
0000
,
0001
0000
0000
0000
,
0001
0000
0001
0000
,
0000
0000
0000
0010
,
0000
0000
0000
0000
,
0000
0000
0000
0100
,
0000
0000
0000
0000
,
0000
0000
0000
0001
,
0000
0000
0000
1000
,
0000
1000
0000
1000
,
0000
0000
0000
0000
,
0001
0000
0000
0000
,
0001
0000
0000
0000
,
1000
0000
0000
0000
,
1001
0000
0000
0000
,
0000
0000
0000
0000
,
1001
0000
0000
0000
,
0000
0000
0000
0000
,
1000
0000
1000
0000
,
1000
0000
0000
0000
,
0001
0000
0000
0000
,
0001
0000
0000
0000
,
0010
0000
0010
0000
,
0010
0000
0000
0000
,
0100
0000
0000
0000
,
0100
0000
0000
0000
,
0001
0000
0000
0001
0000
0000
0000
0001
,
0000
0000
0000
0000
0000
0000
0000
0010
,
0000
0000
0000
0000
0000
0000
0000
0100
,
0000
0000
0000
0000
0000
0000
0000
1000
,
0000
0000
0000
0000
0000
0000
0000
0010
,
0000
0000
0000
0000
0000
0000
0000
0100
,
0000
0000
0000
0000
0000
0000
0000
0010
,
0000
0000
0000
0000
0000
0000
0000
1001
,
0000
0000
0000
0000
,
0000
0000
0000
0000
,
0000
0000
0000
0000
,
0000
0000
0000
0000
,
0000
0000
0000
0000
,
0010
0000
0010
0000
,
0010
0000
0000
0000
,
0100
0000
0100
0000
,
0100
0000
0000
0000
,
0001
0000
0001
0000
,
1000
0000
1000
0000
,
0001
0000
1000
0000
,
0010
0010
0010
0000
,
0000
0000
0000
0000
,
0000
0000
0010
0000
,
0000
0000
1000
0000
,
0000
0000
0100
0000
,
0000
0000
0001
0000
,
0000
0000
0001
0000
,
0000
0000
0100
0000
,
0010
0000
0010
0000
,
0000
0000
0000
0000
,
0000
1000
0000
0000
,
0000
0100
0000
0000
,
0000
0010
0000
0010
,
0000
0010
0000
0000
,
0000
0100
0000
0000
,
0000
1000
0000
0000
,
0000
0010
0000
0010
,
0000
0010
0000
0000
,
0000
1001
0000
0000
,
0000
1000
0000
0000
,
0000
0110
0000
0000
,
0000
0001
0000
0000
,
0000
1001
0000
0000
,
0000
0100
0000
0000
,
0000
1001
0000
0000
,
0000
0010
0000
0000
,
0000
1001
0000
0000
,
0000
1000
0000
0000
,
0000
0110
0000
0000
,
0000
0001
0000
0000
,
0000
1001
0000
0000
,
0000
0010
0000
0000
,
0000
1001
0000
0000
,
0000
1000
0000
1000
,
0000
1000
0000
0000
,
0000
0010
0000
0000
,
0000
0010
0000
0000
,
0000
0100
0000
0000
,
0000
0010
0000
0000
,
0000
0100
0000
0010
,
0000
0010
0000
0010
,
0000
0000
0010
0000
0000
0010
0000
0000
,
0000
0010
0000
0000
0000
0000
0000
0000
,
0000
1000
0000
0000
0000
1000
0000
0000
,
0000
1000
0000
0000
0000
0000
0000
0000
,
0000
0001
0000
0000
0000
0000
0000
0000
,
0000
0000
0000
0000
,
0000
0100
0000
0000
0000
0100
0000
0000
,
0000
0010
0000
0000
0000
0010
0000
0000
,
0000
1001
0000
0000
0000
0000
0000
0000
;

//---------------dance-double - ----------------
#NOTES:
     dance-double:
     :
     Challenge:
     10:
     0.880,1.000,0.432,0.731,0.216,451.000,39.000,66.000,0.000,1.000:
00000000
00000000
00000000
00000000
,
00000000
00000000
00000000
00000000
,
00000000
00000000
00000000
00000000
,
00000000
00000000
00000000
00000000
,
00000001
00000000
00000000
00000000
00000100
00000000
00000000
00000000
00001010
00000000
00000000
00010100
00000000
00000000
00000000
00000000
,
00001000
00000000
00000000
00000000
01000000
00000000
00000000
00000000
10100000
00000000
00000000
00110000
00000000
00000000
00000000
00000000
,
10000000
00100000
01000000
00000000
00001000
00010000
00000010
00000000
,
00000100
00001000
00010000
00100000
10100000
00000000
20000000
00000000
,
01000000
32000000
00010000
03020000
,
00001000
00032000
00000100
00003200
,
00000001
00000302
00000100
00000203
,
00000010
00000310
00001000
00000200
,
00010000
00020300
00100000
00230000
,
10000000
20300000
01000000
32000000
,
00010000
03020000
00001000
00032000
,
00000100
01003000
02000000
00100000
,
03200000
00010000
00320000
00001000
,
00032000
01000000
02003000
00010000
,
03020000
00100000
00230000
00001000
,
00302000
00000100
00003200
00000001
,
00000302
00000010
00000023
00001000
,
00002030
00010000
00023000
01000000
,
22030000
00000000
00000000
33000000
,
00100000
00010000
00100000
00010000
00100000
00010000
00100000
00000000
,
00001000
01000000
00001000
00000000
01000000
00001000
01000000
00000000
,
00100000
00010000
00001000
00000010
,
00000100
00000010
00000001
00000100
00000010
00001000
00000100
00000000
,
00010000
00100000
00010000
00100000
00010000
00100000
00010000
00000000
,
00100000
01000000
00100000
00000000
01000000
00100000
01000000
00000000
,
00001000
00010000
00000100
00000010
,
00001000
00010000
00100000
01000000
00010000
00100000
00010000
00000000
,
20000000
01000000
30000000
00100000
00010000
00100000
00000000
00001000
,
00010000
00001000
00000000
00000010
00000100
00000010
00000000
00000001
,
00000000
00000100
00000000
00000010
00000000
00001000
00000000
00000100
,
00010000
00001000
00100000
00010000
00100000
00001000
00000000
10000000
,
01000000
10000000
01000000
10000000
01000000
10000000
00000000
00010000
,
01000000
00010000
00000000
01000000
00010000
01000000
00000000
00010000
,
00000000
00100000
00000000
00001000
00000000
00010000
00000000
00000100
,
00000010
00000001
00000100
00000010
00000000
00000100
00000000
00000220
,
00000000
00000000
00000000
00000000
,
00000000
00000000
00000000
00000000
,
00000000
00000000
00000000
00000000
,
00000000
00000000
00000000
00000000
,
00000000
00000000
00000000
00000330
,
00001001
00000000
00000000
00000101
00000000
00000000
00000110
00000000
00000100
00001000
00000000
00001000
,
00010000
00000000
00000000
00110000
00000000
00100000
10000000
01000000
00100000
00001000
01000000
00100000
,
10100000
00000000
00000000
10100000
00000000
00000000
10100000
00000000
01000000
00001000
00000000
00001000
,
00000100
00000000
00000000
00001100
00000000
00000001
00000100
00000010
00000100
00001000
00010000
01000000
,
01100000
00000000
00000000
01100000
00000000
00000000
01100000
00000000
10000000
01000000
00000000
01000000
,
00010000
00000000
00000000
00011000
00000000
00000010
00000001
00000100
00000010
00010000
00001000
00100000
,
11000000
00000000
11000000
00000000
11000000
00000000
11000000
00000000
11000000
00000000
11000000
00000000
,
10000000
01000000
00010000
00001000
00000010
00000001
00000101
00000000
00010010
00000000
01001000
00000000
,
10000000
00100000
00001000
00002000
,
00000010
00003020
00000001
00000032
,
00000100
00000203
00001000
00002300
,
00010000
00023000
00100000
00230000
,
10000000
20300000
01000000
32000000
,
00010000
03020000
00001000
00032000
,
00100000
00000000
00203000
00000000
01000000
00000000
01300000
10000000
,
01000000
00000000
10000000
00100000
10000000
00000000
01000000
00010000
,
01000000
01010000
00021000
00001000
,
00032000
00000100
00003200
00000010
,
00000320
00001000
00002030
00000100
,
00003200
00000010
00000320
00001000
,
00002030
00010000
00023000
01000000
,
02030000
00100000
03200000
00010000
,
00320000
00000000
00100000
00000000
00130000
10000000
00100000
00000000
,
01000000
10000000
01000000
00000000
00100000
00010000
00100000
00000000
,
01000000
00020000
00000100
00031000
,
00000010
00000001
00000100
00001000
,
00100000
02000000
00100000
13000000
,
00010000
00100000
00001000
00000100
,
00000001
00000020
00000001
00000130
,
00000010
00001000
00010000
00100000
,
10000000
00020000
10000000
01030000
,
00100000
00010000
00001000
00000010
,
00000001
00000200
00000010
00000301
,
00001000
01000000
00100000
00001000
,
00000010
00000200
00000010
00001300
,
00000100
00010000
01000000
10000000
,
00100000
02000000
00100000
03010000
,
01000000
00100000
00010000
00001000
,
00000010
00000001
00000010
00000010
,
00001000
00010000
00100000
01000000
,
00010000
00011000
00011000
01000000
,
00001000
00010000
00000100
00010000
00001000
00000000
01000000
00000000
,
00100000
00010000
00001000
00000000
00011000
00000000
00000010
00000000
,
00010000
00001000
00100000
00001000
00010000
00000000
00000010
00000000
,
00000100
00001000
00010000
00000000
01000000
00000000
11000000
00000000
,
10000000
00010000
00100000
00010000
01000000
00000000
00001000
00000000
,
00010000
00000000
00000010
00000100
00000001
00000100
00000010
00000000
,
00001000
00000100
00010000
00001000
00010000
00001000
00100000
00010000
,
10000000
00000000
00200000
01000000
00000000
01300000
00000000
00010000
,
01000000
00010000
00000000
01000000
00000000
00100000
00000000
00010000
,
00000000
00011000
00000000
00001000
00000000
00001010
00000000
00000010
,
00000000
00000011
00000000
00000001
00000000
00000101
00000000
00000100
,
00000000
00000010
00001000
00000000
00000100
00000000
00000010
00000000
,
00001000
00010000
00001000
01000000
,
00100000
00000000
00000000
10000000
00000000
00000000
00000000
00000000
00000000
01000000
00000000
00100000
00000000
01000000
00000000
00100000
00000000
00000000
01000000
00000000
00000000
00100000
00000000
00000000
,
00000000
00010000
00000000
00000000
00000000
00100000
00000000
00000000
00000000
00000000
00001000
00000000
00000000
00000000
00000000
00010000
00000000
00000000
00000000
00000000
00000000
00000000
00000000
00000010
,
00000000
00002020
00000000
00000000
00000000
00000000
00000000
00000000
,
00000000
00000000
00000000
00000000
,
00000000
00003030
00000000
00000000
00000000
00000000
00000000
00000000
;

//---------------dance-double - ----------------
#NOTES:
     dance-double:
     :
     Hard:
     9:
     0.657,0.896,0.166,0.233,0.161,379.000,15.000,21.000,0.000,0.000:
00000000
00000000
00000000
00000000
,
00000000
00000000
00000000
00000000
,
00000000
00000000
00000000
00000000
,
00000000
00000000
00000000
00000000
,
00001000
00000000
00001000
00000000
00010000
00000000
00000000
00000000
00001000
00000000
00001000
00010000
00000000
00000000
00000000
00000000
,
00000010
00000000
00000010
00000000
00000100
00000000
00000000
00000000
00000010
00000000
00000010
00000100
00000000
00000000
00000000
00000000
,
00010000
00000000
00010000
00000000
00001000
00000000
00000000
00000000
00010000
00000000
00010000
00001000
00000000
00000000
00010000
00000000
,
00100000
00000000
00010000
00000000
00001000
00000000
00000000
00001000
00000010
00000000
00000000
00000000
00000001
00000000
00000000
00000000
,
00000100
00000010
00001000
00000001
,
00000100
00001000
00000000
00000000
00010000
00000000
00100000
00000000
,
10000000
00010000
00100000
10000000
,
00100000
00010000
00000000
00000000
00000000
00000000
10000000
00000000
,
01000000
00100000
00010000
10000000
,
01000000
00010000
00000000
00000000
00001000
00000000
00000010
00000000
,
00000001
00000000
00001000
00000000
00000000
00000010
00000200
00000000
,
00000000
00000300
00000001
00000000
00000010
00000000
00001000
00000000
,
00010000
01000000
10000000
00000000
,
10000000
00100000
00010000
00001000
,
00000100
00000001
00000010
00000000
,
00000100
00001000
00000010
00000100
,
00000001
00000010
00000100
00001000
,
00000010
00000001
00001000
00000100
,
00000002
00000000
00001000
00000000
00000000
00001000
00000003
00001000
,
00000020
00000000
00000130
00000001
,
00002000
00000000
00003010
00010000
,
00001000
00100000
00010000
10000000
,
02000000
00000000
03100000
00010000
,
02000000
00000000
03100000
00010000
,
00002000
00000000
00003010
00000001
,
00000100
00001000
00000001
00000010
,
00001000
00000100
00010000
00001000
,
00200000
00000000
00000000
00301000
00000000
00010000
00000000
00200000
,
00000000
00000000
00000000
00310000
00000000
00001000
00000000
00200000
,
00000000
00000000
00000000
00301000
00000000
00000010
00000000
00000001
,
00000000
00000100
00000000
00000010
00000000
00001000
00000000
00000002
,
00000000
00000000
00000000
00000103
00000000
00000010
00000000
00002000
,
00000000
00000000
00000000
00003010
00000000
00000100
00000000
00002000
,
00000000
00000000
00000000
00003100
00000000
00000010
00000000
00001000
,
00000000
00000001
00000000
00000010
00000000
00001000
00000000
00022000
,
00000000
00000000
00000000
00000000
,
00000000
00000000
00000000
00000000
,
00000000
00000000
00000000
00000000
,
00000000
00000000
00000000
00000000
,
00000000
00000000
00000000
00033000
,
00100000
00000000
00000000
00011000
00000000
00000000
00000010
00000000
00001000
00000100
00000000
00000010
,
00000001
00000000
00000000
00000110
00000000
00000001
00000100
00000000
00000100
00001000
00000000
00001000
,
00010000
00000000
00000000
01100000
00000000
00000000
10000000
00000000
00010000
01000000
00000000
00100000
,
10000000
00000000
00000000
10010000
00000000
00100000
00010000
00000000
00010000
00001000
00000000
00001000
,
00100000
00000000
00000000
01100000
00000000
00000000
00010000
00000000
00010000
00001000
00000000
00000010
,
00000100
00000000
00000000
00000101
00000000
00000010
00000100
00000000
00000001
00000100
00000000
00001000
,
00000100
00000000
00000010
00000000
00000010
00000000
00000100
00000000
00001000
00000000
00001000
00000000
,
00000100
00000010
00000100
00000010
00001000
00000010
00001000
00000000
00000001
00000000
00000100
00000000
,
00001000
00100000
01000000
10000000
,
00100000
00000000
00000000
01000000
00010000
00000000
00100000
00000000
,
01000000
00000000
00010000
00001000
,
00000100
00000010
00010000
00001000
,
00000100
00000000
00000010
00001000
,
00000100
00000000
00000000
00000010
00000001
00000000
00000100
00000000
,
00001000
00000000
00000000
00000000
00100000
00000000
00010000
01000000
,
00010000
00000000
01000000
00000000
00001000
00000000
00100000
00010000
,
00100000
01000000
20000000
00010000
,
30010000
01000000
00001000
00010000
,
01000000
00010000
00001000
00000100
,
00000010
00000100
00001000
00000100
,
00000010
00001000
00000001
00000010
,
00000100
00001000
00000010
00000100
,
00001000
00000000
00010000
00000000
00100000
00010000
00100000
00000000
,
00010000
00001000
00010000
00000000
00001000
00010000
00001000
00000000
,
00000010
00000001
00000100
00001000
,
00010000
00100000
01000000
00010000
,
00100000
00001000
00000010
00000001
,
00000100
00000010
00010000
00000100
,
00010000
00100000
10000000
00100000
,
01000000
00010000
00100000
01000000
,
10000000
00100000
00010000
00001000
,
00000010
00000001
00000010
00001000
,
00010000
01000000
00010000
00000100
,
00000010
00001000
00010000
00100000
,
00010000
00001000
01000000
00100000
,
01000000
10000000
01000000
00100000
,
00010000
00001000
00000010
00000001
,
00000010
00001000
00000010
00000100
,
00000010
00000001
00000100
00000010
,
00001000
00000100
00010000
00100000
,
00010000
00000100
00000100
00000011
,
00000000
00001000
00001000
00011000
,
00000000
00100000
00100000
01010000
,
00010000
10000000
10000000
00101000
,
00000000
00010000
00010000
00001010
,
00000000
00000100
00000100
00010010
,
00000000
00000000
00010000
00001000
00010000
00001000
00010000
00000000
,
00100000
00000000
01000000
00010000
01000000
00010000
01000000
00000000
,
00100000
00000000
20000000
00010000
30000000
00020000
00000000
01000000
,
00000000
00000000
00000000
01030000
00000000
10010000
00000000
00200000
,
00000000
00010000
00000000
00300000
00000000
00001000
00000000
00000000
,
00000000
00000010
00000000
00000000
00000000
00000001
00000000
00000000
,
00000000
00000100
00000010
00000000
00000100
00000000
00000001
00000000
,
00000100
00000010
00000100
00001000
,
00010000
01000000
00000000
00100000
01000000
00100000
00000000
00001000
,
00000000
00000100
00000000
00000000
00000000
00000001
00000000
00000000
,
00000000
00002200
00000000
00000000
00000000
00000000
00000000
00000000
,
00000000
00003300
00000000
00000000
00000000
00000000
00000000
00000000
;

//---------------dance-double - ----------------
#NOTES:
     dance-double:
     :
     Medium:
     7:
     0.432,0.672,0.033,0.055,0.039,265.000,3.000,5.000,0.000,0.000:
00000000
00000000
00000000
00000000
,
00000000
00000000
00000000
00000000
,
00000000
00000000
00000000
00000000
,
00000000
00000000
00000000
00000000
,
10000000
00000000
01000000
00000000
00100000
00010000
00100000
00010000
,
01000000
00000000
00000000
00010000
00100000
00000000
00000000
00100000
,
00001000
00000000
00000100
00000000
00000001
00000100
00000001
00000100
,
00000010
00001000
00001001
00000010
,
00001000
00000100
00000010
00000001
,
00000000
00001000
00000000
00000001
,
00000000
00000010
00000000
00000100
,
00000000
00000010
00000000
00000001
,
00001000
00000001
00000100
00000001
,
00000000
00000010
00000000
00000100
,
00000000
00010000
00000000
00002000
,
00000000
00003000
00001000
00010000
,
00001000
00000000
00100000
00000000
,
01000000
00000000
10000000
00000000
,
00010000
00000000
00100000
00000000
,
00001000
00000000
00010000
00000000
,
00000100
00000000
00000010
00000000
,
00000001
00000000
00001000
00000000
,
00000100
00000010
00000100
00001000
,
00000100
00000000
00010000
00000000
,
00001000
00000000
00100000
00000000
,
01000000
10000000
00100000
01000000
,
00010000
00000000
10000000
00000000
,
01000000
00000000
00010000
00000000
,
00001000
00000000
00000100
00000000
,
00000001
00000010
00000100
00001000
,
00000010
00000100
00000001
00001000
,
00000020
00000000
00000000
00000130
00000000
00000000
00000000
00001000
,
00000000
00000000
00000000
00010000
00000000
00000000
00000000
00100000
,
00000000
00000000
00000000
00100000
00000000
00000000
00000000
10000000
,
00000000
00000000
00000000
10000000
00000000
00000000
00000000
01000000
,
00000000
00100000
00000000
01000000
00000000
00000000
00000000
10000000
,
00000000
00000000
00000000
00010000
00000000
00000000
00000000
00100000
,
00000000
01000000
00000000
00100000
00000000
01000000
00000000
10000000
,
00000000
00000000
00000000
00100000
00000000
00000000
00000000
01100000
,
00000000
00000000
00000000
00000000
,
00000000
00000000
00000000
00000000
,
00000000
00000000
00000000
00000000
,
00000000
00000000
00000000
00000000
,
00000000
00000000
00000000
00000000
,
01000000
00000000
00000000
00100000
00000000
00000000
00010000
00000000
00000000
00001000
00000000
00000010
,
00000100
00000001
00000010
00000000
,
00000100
00000000
00000000
00010000
00000000
00000000
00100000
00000000
00000000
00010000
00000000
00010000
,
00001000
00000010
00000100
00000000
,
00010000
00000000
00000000
01000000
00000000
00000000
10000000
00000000
00000000
00100000
00000000
00010000
,
00001000
00000000
00000000
00010000
00000000
00000000
00100000
00000000
00000000
10000000
01000000
10000000
,
01000000
00000000
00100000
00000000
,
00010000
00000000
00000000
00000000
00000000
00000000
10000000
00000000
01000000
00000000
00100000
00000000
,
00000000
00000000
01000000
00010000
,
00001000
00000000
00000100
00000000
,
00000010
00000000
00001000
00000100
,
00001000
00000000
00000010
00000000
,
00010000
00000000
00100000
10000000
,
00100000
00000000
01000000
00000000
,
00100000
00000000
00010000
00001000
,
00000100
00000000
00001000
00010000
,
01000000
00000000
00000000
00100000
,
00000000
01000000
00000000
10000000
,
00000000
00010000
00100000
01000000
,
10000000
01000000
00100000
00010000
,
01000000
00100000
00000000
00010000
,
00000000
00001000
00000000
00000100
,
00000000
00000001
00000000
00001000
,
00000000
00000001
00000000
00001000
,
00000000
00000010
00000100
00000001
,
00000000
00000010
00001000
00010000
,
00000000
00100000
01000000
00100000
,
00000000
10000000
01000000
00100000
,
00010000
00100000
00010000
01000000
,
00000000
00100000
01000000
00100000
,
00000000
00010000
00001000
00010000
,
00000000
00000010
00000001
00000010
,
00000000
00001000
00000100
00000010
,
00000001
00000100
00000010
00001000
,
00000001
00000100
00000001
00000100
,
00000000
00000010
00001000
00000010
,
00000000
00001000
00000100
00001000
,
00000100
00010000
00001000
00010000
,
00001000
00100000
01000000
00100000
,
01000000
10000000
00100000
01000000
,
00010000
00100000
00100000
01000000
,
00000000
01000000
01000000
10000000
,
00000000
10000000
10000000
00100000
,
00000000
00100000
00100000
01000000
,
00000000
01000000
01000000
00010000
,
00000000
00010000
00010000
00100000
,
00000000
00100000
00100000
00001000
,
00001000
00100000
00100000
00001000
,
00001000
00000000
00020000
00000000
00000000
00031000
00000000
00000000
,
00000000
00000010
00000000
00000010
00000000
00000001
00000000
00000100
,
00000000
00000100
00000000
00000000
00000000
00001000
00000000
00000000
,
00000000
00010000
00000000
00000000
00000000
00100000
00000000
00000000
,
00000000
10000000
00000000
00000000
00000000
00000000
00000000
00000000
,
00000000
00000000
00000000
00000000
,
00000000
00100000
00000000
00000000
00000000
00000000
00000000
00000000
,
00000000
00000000
00000000
00000000
,
00000000
20020000
00000000
00000000
00000000
00000000
00000000
00000000
,
00000000
30030000
00000000
00000000
00000000
00000000
00000000
00000000
;

//---------------dance-double - ----------------
#NOTES:
     dance-double:
     :
     Easy:
     4:
     0.269,0.336,0.011,0.044,0.000,165.000,1.000,4.000,0.000,0.000:
00000000
00000000
00000000
00000000
,
00000000
00000000
00000000
00000000
,
00000000
00000000
00000000
00000000
,
00000000
00000000
00000000
00000000
,
01000000
00000000
00100000
00000000
,
01000000
00000000
00100000
00000000
,
10000000
00000000
00010000
00000000
,
01000000
00000000
00001000
00010000
,
00000000
00001000
00000000
00010000
,
00000000
00000010
00000000
00000100
,
00000000
00000000
00000000
00000100
,
00000000
00000000
00000000
00000010
,
00000000
00000000
00000000
00000010
,
00000000
00000000
00000000
00001000
,
00000000
00000000
00000000
00010000
,
00000000
00000000
00100000
00000000
,
10000000
00000000
00100000
00000000
,
01000000
00000000
00000000
00000000
,
00010000
00000000
00000000
00000000
,
00001000
00000000
00000000
00000000
,
00000100
00000000
00000000
00000000
,
00000010
00000000
00001000
00000000
,
00000010
00000000
00000000
00000000
,
00010000
00000000
00100000
00000000
,
00010000
00000000
10000000
00000000
,
00010000
00000000
00000000
00000000
,
00100000
00000000
00000000
00000000
,
00001000
00000000
00000100
00000000
,
00001000
00000000
00000001
00000000
,
00000010
00000000
00000100
00000000
,
00001000
00000000
00000000
00000000
,
00002000
00000000
00003000
00010000
00000000
00000000
00000000
00100000
,
00000000
00000000
00000000
00000000
00000000
00000000
00000000
00010000
,
00000000
00000000
00000000
00000000
00000000
00000000
00000000
00100000
,
00000000
00000000
00000000
00000000
00000000
00000000
00000000
01000000
,
00000000
00000000
00000000
10000000
00000000
00000000
00000000
01000000
,
00000000
00000000
00000000
00000000
00000000
00000000
00000000
00100000
,
00000000
00000000
00000000
00000000
00000000
00000000
00000000
00001000
,
00000000
00000000
00000000
00000000
00000000
00000000
00000000
01000000
,
00000000
00000000
00000000
00000000
,
00000000
00000000
00000000
00000000
,
00000000
00000000
00000000
00000000
,
00000000
00000000
00000000
00000000
,
00000000
00000000
00000000
00000000
,
10000000
10000000
10000000
00000000
,
00010000
00000000
00010000
00000000
,
00001000
00001000
00001000
00000000
,
00000001
00000000
00000001
00000000
,
00000010
00000100
00000010
00000000
,
00001000
00000000
00010000
00000000
,
00100000
10000000
00100000
00000000
,
10000000
01000000
00100000
00000000
,
00000000
00000000
10000000
00000000
,
00100000
00000000
00010000
00000000
,
00001000
00000000
00000010
00000000
,
00000001
00000000
00000100
00000000
,
00000010
00000000
00001000
00000000
,
00000100
00000000
00001000
00000000
,
00000010
00000000
00010000
00000000
,
00001000
00000000
00010000
00000000
,
00001000
00000000
00000000
00010000
,
00000000
00100000
00000000
10000000
,
00000000
01000000
00000000
00100000
,
00000000
00010000
00000000
00100000
,
00000000
01000000
00000000
00000000
,
00000000
01000000
00000000
00000000
,
00000000
00100000
00000000
00010000
,
00000000
00001000
00000000
00000100
,
00000000
00010000
00000000
00010000
,
00000000
00001000
00000000
00001000
,
00000000
00010000
00000000
00010000
,
00000000
00100000
00000000
10000000
,
00000000
01000000
00000000
01000000
,
00000000
00100000
00000000
00100000
,
00000000
01000000
00000000
01000000
,
00000000
00010000
00000000
00000100
,
00000000
00000010
00000000
00000010
,
00000000
00001000
00000000
00001000
,
00000000
00000010
00000000
00000010
,
00000000
00000100
00000000
00000001
,
00000000
00000010
00000000
00000010
,
00000000
00001000
00000000
00001000
,
00000000
00000010
00000000
00000010
,
00000000
00001000
00000000
00010000
,
00000000
01000000
01000000
01000000
,
00000000
10000000
00000000
10000000
,
00000000
00010000
00010000
00010000
,
00000000
01000000
00000000
01000000
,
00000000
00001000
00001000
00001000
,
00000000
00010000
00000000
00010000
,
00000000
00000100
00000000
00000100
,
00000000
00000100
00000100
00000100
,
00000000
00000000
00002000
00000000
00003000
00000001
00000000
00000000
,
00000000
00000010
00000000
00000000
00000000
00000100
00000000
00000000
,
00000000
00001000
00000000
00000000
00000000
00000001
00000000
00000000
,
00000000
00001000
00000000
00000000
00000000
00000010
00000000
00000000
,
00000000
00001000
00000000
00000000
00000000
00000000
00000000
00000000
,
00000000
00000000
00000000
00000000
,
00000000
00000001
00000000
00000000
00000000
00000000
00000000
00000000
,
00000000
00000000
00000000
00000000
,
00000000
00002002
00000000
00000000
00000000
00000000
00000000
00000000
,
00000000
00003003
00000000
00000000
00000000
00000000
00000000
00000000
;
